999
dxfrw 0.6.3
  0
SECTION
  2
HEADER
  9
$ACADVER
  1
AC1021
  9
$DWGCODEPAGE
  3
ANSI_1252
  9
$INSBASE
 10
0
 20
0
 30
0
  9
$EXTMIN
 10
10000000000
 20
10000000000
 30
0
  9
$EXTMAX
 10
-10000000000
 20
-10000000000
 30
0
  9
$LIMMIN
 10
0
 20
0
  9
$LIMMAX
 10
105
 20
148.5
  9
$ORTHOMODE
 70
    0
  9
$REGENMODE
 70
    1
  9
$FILLMODE
 70
    1
  9
$QTEXTMODE
 70
    0
  9
$MIRRTEXT
 70
    0
  9
$LTSCALE
 40
0.5
  9
$ATTMODE
 70
    1
  9
$TEXTSIZE
 40
0.2
  9
$TRACEWID
 40
0.05
  9
$TEXTSTYLE
  7
Standard
  9
$CLAYER
  8
0
  9
$CELTYPE
  6
ByLayer
  9
$CECOLOR
 62
  256
  9
$CELTSCALE
 40
1
  9
$DISPSILH
 70
    0
  9
$DIMSCALE
 40
1
  9
$DIMASZ
 40
0.18
  9
$DIMEXO
 40
0.0625
  9
$DIMDLI
 40
0.38
  9
$DIMRND
 40
0
  9
$DIMDLE
 40
0
  9
$DIMEXE
 40
0.18
  9
$DIMTP
 40
0
  9
$DIMTM
 40
0
  9
$DIMTXT
 40
0.18
  9
$DIMCEN
 40
0.09
  9
$DIMTSZ
 40
0
  9
$DIMTOL
 70
    0
  9
$DIMLIM
 70
    0
  9
$DIMTIH
 70
    1
  9
$DIMTOH
 70
    1
  9
$DIMSE1
 70
    0
  9
$DIMSE2
 70
    0
  9
$DIMTAD
 70
    0
  9
$DIMZIN
 70
    0
  9
$DIMBLK
  1

  9
$DIMASO
 70
    1
  9
$DIMSHO
 70
    1
  9
$DIMPOST
  1

  9
$DIMAPOST
  1

  9
$DIMALT
 70
    0
  9
$DIMALTD
 70
    2
  9
$DIMALTF
 40
25.4
  9
$DIMLFAC
 40
1
  9
$DIMTOFL
 70
    0
  9
$DIMTVP
 40
0
  9
$DIMTIX
 70
    0
  9
$DIMSOXD
 70
    0
  9
$DIMSAH
 70
    0
  9
$DIMBLK1
  1

  9
$DIMBLK2
  1

  9
$DIMSTYLE
  2
Standard
  9
$DIMCLRD
 70
    0
  9
$DIMCLRE
 70
    0
  9
$DIMCLRT
 70
    0
  9
$DIMTFAC
 40
1
  9
$DIMGAP
 40
0.09
  9
$DIMJUST
 70
    0
  9
$DIMSD1
 70
    0
  9
$DIMSD2
 70
    0
  9
$DIMTOLJ
 70
    1
  9
$DIMTZIN
 70
    0
  9
$DIMALTZ
 70
    0
  9
$DIMALTTZ
 70
    0
  9
$DIMUPT
 70
    0
  9
$DIMDEC
 70
    4
  9
$DIMTDEC
 70
    4
  9
$DIMALTU
 70
    2
  9
$DIMALTTD
 70
    2
  9
$DIMTXSTY
  7
Standard
  9
$DIMAUNIT
 70
    0
  9
$DIMADEC
 70
    0
  9
$DIMALTRND
 40
0
  9
$DIMAZIN
 70
    0
  9
$DIMDSEP
 70
   46
  9
$DIMATFIT
 70
    3
  9
$DIMFRAC
 70
    0
  9
$DIMLDRBLK
  1

  9
$DIMLUNIT
 70
    2
  9
$DIMLWD
 70
   -2
  9
$DIMLWE
 70
   -2
  9
$DIMTMOVE
 70
    0
  9
$DIMFXL
 40
1
  9
$DIMFXLON
 70
    0
  9
$DIMJOGANG
 40
0.7853981633974483
  9
$DIMTFILL
 70
    0
  9
$DIMTFILLCLR
 70
    0
  9
$DIMARCSYM
 70
    0
  9
$DIMLTYPE
  6

  9
$DIMLTEX1
  6

  9
$DIMLTEX2
  6

  9
$LUNITS
 70
    2
  9
$LUPREC
 70
    4
  9
$SKETCHINC
 40
0.1
  9
$FILLETRAD
 40
0
  9
$AUNITS
 70
    0
  9
$AUPREC
 70
    0
  9
$MENU
  1
.
  9
$ELEVATION
 40
0
  9
$PELEVATION
 40
0
  9
$THICKNESS
 40
0
  9
$LIMCHECK
 70
    0
  9
$CHAMFERA
 40
0
  9
$CHAMFERB
 40
0
  9
$CHAMFERC
 40
0
  9
$CHAMFERD
 40
0
  9
$SKPOLY
 70
    0
  9
$USRTIMER
 70
    1
  9
$ANGBASE
 50
0
  9
$ANGDIR
 70
    0
  9
$PDMODE
 70
    0
  9
$PDSIZE
 40
0
  9
$PLINEWID
 40
0
  9
$SPLFRAME
 70
    0
  9
$SPLINETYPE
 70
    6
  9
$SPLINESEGS
 70
    8
  9
$HANDSEED
  5
20000
  9
$SURFTAB1
 70
    6
  9
$SURFTAB2
 70
    6
  9
$SURFTYPE
 70
    6
  9
$SURFU
 70
    6
  9
$SURFV
 70
    6
  9
$UCSBASE
  2

  9
$UCSNAME
  2

  9
$UCSORG
 10
0
 20
0
 30
0
  9
$UCSXDIR
 10
1
 20
0
 30
0
  9
$UCSYDIR
 10
0
 20
1
 30
0
  9
$UCSORTHOREF
  2

  9
$UCSORTHOVIEW
 70
    0
  9
$UCSORGTOP
 10
0
 20
0
 30
0
  9
$UCSORGBOTTOM
 10
0
 20
0
 30
0
  9
$UCSORGLEFT
 10
0
 20
0
 30
0
  9
$UCSORGRIGHT
 10
0
 20
0
 30
0
  9
$UCSORGFRONT
 10
0
 20
0
 30
0
  9
$UCSORGBACK
 10
0
 20
0
 30
0
  9
$PUCSBASE
  2

  9
$PUCSNAME
  2

  9
$PUCSORG
 10
0
 20
0
 30
0
  9
$PUCSXDIR
 10
1
 20
0
 30
0
  9
$PUCSYDIR
 10
0
 20
1
 30
0
  9
$PUCSORTHOREF
  2

  9
$PUCSORTHOVIEW
 70
    0
  9
$PUCSORGTOP
 10
0
 20
0
 30
0
  9
$PUCSORGBOTTOM
 10
0
 20
0
 30
0
  9
$PUCSORGLEFT
 10
0
 20
0
 30
0
  9
$PUCSORGRIGHT
 10
0
 20
0
 30
0
  9
$PUCSORGFRONT
 10
0
 20
0
 30
0
  9
$PUCSORGBACK
 10
0
 20
0
 30
0
  9
$USERI1
 70
    0
  9
$USERI2
 70
    0
  9
$USERI3
 70
    0
  9
$USERI4
 70
    0
  9
$USERI5
 70
    0
  9
$USERR1
 40
0
  9
$USERR2
 40
0
  9
$USERR3
 40
0
  9
$USERR4
 40
0
  9
$USERR5
 40
0
  9
$WORLDVIEW
 70
    1
  9
$SHADEDGE
 70
    3
  9
$SHADEDIF
 70
   70
  9
$TILEMODE
 70
    1
  9
$MAXACTVP
 70
   64
  9
$PINSBASE
 10
-14.33151678814275
 20
-2.180767705725323
 30
0
  9
$PLIMCHECK
 70
    0
  9
$PEXTMIN
 10
0
 20
0
 30
0
  9
$PEXTMAX
 10
105
 20
148.5
 30
0
  9
$GRIDMODE
 70
    0
  9
$SNAPSTYLE
 70
    0
  9
$PLIMMIN
 10
0
 20
0
  9
$PLIMMAX
 10
105
 20
148.5
  9
$UNITMODE
 70
    0
  9
$VISRETAIN
 70
    1
  9
$PLINEGEN
 70
    0
  9
$PSLTSCALE
 70
    1
  9
$TREEDEPTH
 70
 3020
  9
$CMLSTYLE
  2
Standard
  9
$CMLJUST
 70
    0
  9
$CMLSCALE
 40
1
  9
$PROXYGRAPHICS
 70
    1
  9
$MEASUREMENT
 70
    1
  9
$CELWEIGHT
370
   -1
  9
$ENDCAPS
280
    0
  9
$JOINSTYLE
280
    0
  9
$LWDISPLAY
290
    0
  9
$INSUNITS
 70
    4
  9
$HYPERLINKBASE
  1

  9
$STYLESHEET
  1

  9
$XEDIT
290
    1
  9
$CEPSNTYPE
380
    0
  9
$PSTYLEMODE
290
    1
  9
$EXTNAMES
290
    1
  9
$PSVPSCALE
 40
1.26123
  9
$OLESTARTUP
290
    0
  9
$SORTENTS
280
  127
  9
$INDEXCTL
280
    0
  9
$HIDETEXT
280
    1
  9
$XCLIPFRAME
290
    2
  9
$HALOGAP
280
    0
  9
$OBSCOLOR
 70
  257
  9
$OBSLTYPE
280
    0
  9
$INTERSECTIONDISPLAY
280
    0
  9
$INTERSECTIONCOLOR
 70
  257
  9
$DIMASSOC
280
    1
  9
$PROJECTNAME
  1

  9
$CAMERADISPLAY
290
    0
  9
$LENSLENGTH
 40
50
  9
$CAMERAHEIGHT
 40
0
  9
$STEPSPERSEC
 40
2
  9
$STEPSIZE
 40
6
  9
$3DDWFPREC
 40
2
  9
$PSOLWIDTH
 40
0.25
  9
$PSOLHEIGHT
 40
4
  9
$LOFTANG1
 40
1.570796326794896
  9
$LOFTANG2
 40
1.570796326794896
  9
$LOFTMAG1
 40
0
  9
$LOFTMAG2
 40
0
  9
$LOFTPARAM
 70
    7
  9
$LOFTNORMALS
280
    1
  9
$LATITUDE
 40
37.795
  9
$LONGITUDE
 40
-122.394
  9
$NORTHDIRECTION
 40
0
  9
$TIMEZONE
 70
-8000
  9
$LIGHTGLYPHDISPLAY
280
    1
  9
$TILEMODELIGHTSYNCH
280
    1
  9
$SOLIDHIST
280
    0
  9
$SHOWHIST
280
    1
  9
$DWFFRAME
280
    2
  9
$DGNFRAME
280
    0
  9
$REALWORLDSCALE
290
    1
  9
$INTERFERECOLOR
 62
    1
  9
$CSHADOW
280
    0
  9
$SHADOWPLANELOCATION
 40
0
  0
ENDSEC
  0
SECTION
  2
CLASSES
  0
ENDSEC
  0
SECTION
  2
TABLES
  0
TABLE
  2
VPORT
  5
8
330
0
100
AcDbSymbolTable
 70
    1
  0
VPORT
  5
31
330
2
100
AcDbSymbolTableRecord
100
AcDbViewportTableRecord
  2
*ACTIVE
 70
    0
 10
0
 20
0
 11
1
 21
1
 12
113.3012971698162
 22
61.81662735849323
 13
0
 23
0
 14
10
 24
10
 15
10
 25
10
 16
0
 26
0
 36
1
 17
0
 27
0
 37
0
 40
148.5000000000064
 41
2.200471698113208
 42
50
 43
0
 44
0
 50
0
 51
0
 71
    0
 72
  100
 73
    1
 74
    3
 75
    0
 76
    0
 77
    0
 78
    0
281
    0
 65
    1
110
0
120
0
130
0
111
1
121
0
131
0
112
0
122
1
132
0
 79
    0
146
0
348
10020
 60
    7
 61
    5
292
1
282
    1
141
0
142
0
 63
  250
421
3358443
  0
ENDTAB
  0
TABLE
  2
LTYPE
  5
5
330
0
100
AcDbSymbolTable
 70
    4
  0
LTYPE
  5
14
330
5
100
AcDbSymbolTableRecord
100
AcDbLinetypeTableRecord
  2
ByBlock
 70
    0
  3

 72
   65
 73
    0
 40
0
  0
LTYPE
  5
15
330
5
100
AcDbSymbolTableRecord
100
AcDbLinetypeTableRecord
  2
ByLayer
 70
    0
  3

 72
   65
 73
    0
 40
0
  0
LTYPE
  5
16
330
5
100
AcDbSymbolTableRecord
100
AcDbLinetypeTableRecord
  2
Continuous
 70
    0
  3
Solid line
 72
   65
 73
    0
 40
0
  0
LTYPE
  5
32
330
5
100
AcDbSymbolTableRecord
100
AcDbLinetypeTableRecord
  2
DOT
 70
    0
  3
Dot . . . . . . . . . . . . . . . . . . . . . .
 72
   65
 73
    2
 40
6.35
 49
0
 74
    0
 49
-6.35
 74
    0
  0
LTYPE
  5
33
330
5
100
AcDbSymbolTableRecord
100
AcDbLinetypeTableRecord
  2
DOTTINY
 70
    0
  3
Dot (.15x) .....................................
 72
   65
 73
    2
 40
0.9525
 49
0
 74
    0
 49
-0.9525
 74
    0
  0
LTYPE
  5
34
330
5
100
AcDbSymbolTableRecord
100
AcDbLinetypeTableRecord
  2
DOT2
 70
    0
  3
Dot (.5x) .....................................
 72
   65
 73
    2
 40
3.175
 49
0
 74
    0
 49
-3.175
 74
    0
  0
LTYPE
  5
35
330
5
100
AcDbSymbolTableRecord
100
AcDbLinetypeTableRecord
  2
DOTX2
 70
    0
  3
Dot (2x) .  .  .  .  .  .  .  .  .  .  .  .  .
 72
   65
 73
    2
 40
12.7
 49
0
 74
    0
 49
-12.7
 74
    0
  0
LTYPE
  5
36
330
5
100
AcDbSymbolTableRecord
100
AcDbLinetypeTableRecord
  2
DASHED
 70
    0
  3
Dashed _ _ _ _ _ _ _ _ _ _ _ _ _ _ _ _ _
 72
   65
 73
    2
 40
19.05
 49
12.7
 74
    0
 49
-6.35
 74
    0
  0
LTYPE
  5
37
330
5
100
AcDbSymbolTableRecord
100
AcDbLinetypeTableRecord
  2
DASHEDTINY
 70
    0
  3
Dashed (.15x) _ _ _ _ _ _ _ _ _ _ _ _ _ _ _ _ _
 72
   65
 73
    2
 40
2.8575
 49
1.905
 74
    0
 49
-0.9525
 74
    0
  0
LTYPE
  5
38
330
5
100
AcDbSymbolTableRecord
100
AcDbLinetypeTableRecord
  2
DASHED2
 70
    0
  3
Dashed (.5x) _ _ _ _ _ _ _ _ _ _ _ _ _ _ _ _ _
 72
   65
 73
    2
 40
9.524999999999999
 49
6.35
 74
    0
 49
-3.175
 74
    0
  0
LTYPE
  5
39
330
5
100
AcDbSymbolTableRecord
100
AcDbLinetypeTableRecord
  2
DASHEDX2
 70
    0
  3
Dashed (2x) ____  ____  ____  ____  ____  ___
 72
   65
 73
    2
 40
38.09999999999999
 49
25.4
 74
    0
 49
-12.7
 74
    0
  0
LTYPE
  5
3A
330
5
100
AcDbSymbolTableRecord
100
AcDbLinetypeTableRecord
  2
DASHDOT
 70
    0
  3
Dash dot __ . __ . __ . __ . __ . __ . __ . __
 72
   65
 73
    4
 40
25.4
 49
12.7
 74
    0
 49
-6.35
 74
    0
 49
0
 74
    0
 49
-6.35
 74
    0
  0
LTYPE
  5
3B
330
5
100
AcDbSymbolTableRecord
100
AcDbLinetypeTableRecord
  2
DASHDOTTINY
 70
    0
  3
Dash dot (.15x) _._._._._._._._._._._._._._._.
 72
   65
 73
    4
 40
3.81
 49
1.905
 74
    0
 49
-0.9525
 74
    0
 49
0
 74
    0
 49
-0.9525
 74
    0
  0
LTYPE
  5
3C
330
5
100
AcDbSymbolTableRecord
100
AcDbLinetypeTableRecord
  2
DASHDOT2
 70
    0
  3
Dash dot (.5x) _._._._._._._._._._._._._._._.
 72
   65
 73
    4
 40
12.7
 49
6.35
 74
    0
 49
-3.175
 74
    0
 49
0
 74
    0
 49
-3.175
 74
    0
  0
LTYPE
  5
3D
330
5
100
AcDbSymbolTableRecord
100
AcDbLinetypeTableRecord
  2
DASHDOTX2
 70
    0
  3
Dash dot (2x) ____  .  ____  .  ____  .  ___
 72
   65
 73
    4
 40
50.8
 49
25.4
 74
    0
 49
-12.7
 74
    0
 49
0
 74
    0
 49
-12.7
 74
    0
  0
LTYPE
  5
3E
330
5
100
AcDbSymbolTableRecord
100
AcDbLinetypeTableRecord
  2
DIVIDE
 70
    0
  3
Divide ____ . . ____ . . ____ . . ____ . . ____
 72
   65
 73
    6
 40
31.75
 49
12.7
 74
    0
 49
-6.35
 74
    0
 49
0
 74
    0
 49
-6.35
 74
    0
 49
0
 74
    0
 49
-6.35
 74
    0
  0
LTYPE
  5
3F
330
5
100
AcDbSymbolTableRecord
100
AcDbLinetypeTableRecord
  2
DIVIDETINY
 70
    0
  3
Divide (.15x) __..__..__..__..__..__..__..__.._
 72
   65
 73
    6
 40
4.7625
 49
1.905
 74
    0
 49
-0.9525
 74
    0
 49
0
 74
    0
 49
-0.9525
 74
    0
 49
0
 74
    0
 49
-0.9525
 74
    0
  0
LTYPE
  5
40
330
5
100
AcDbSymbolTableRecord
100
AcDbLinetypeTableRecord
  2
DIVIDE2
 70
    0
  3
Divide (.5x) __..__..__..__..__..__..__..__.._
 72
   65
 73
    6
 40
15.875
 49
6.35
 74
    0
 49
-3.175
 74
    0
 49
0
 74
    0
 49
-3.175
 74
    0
 49
0
 74
    0
 49
-3.175
 74
    0
  0
LTYPE
  5
41
330
5
100
AcDbSymbolTableRecord
100
AcDbLinetypeTableRecord
  2
DIVIDEX2
 70
    0
  3
Divide (2x) ________  .  .  ________  .  .  _
 72
   65
 73
    6
 40
63.5
 49
25.4
 74
    0
 49
-12.7
 74
    0
 49
0
 74
    0
 49
-12.7
 74
    0
 49
0
 74
    0
 49
-12.7
 74
    0
  0
LTYPE
  5
42
330
5
100
AcDbSymbolTableRecord
100
AcDbLinetypeTableRecord
  2
BORDER
 70
    0
  3
Border __ __ . __ __ . __ __ . __ __ . __ __ .
 72
   65
 73
    6
 40
44.45
 49
12.7
 74
    0
 49
-6.35
 74
    0
 49
12.7
 74
    0
 49
-6.35
 74
    0
 49
0
 74
    0
 49
-6.35
 74
    0
  0
LTYPE
  5
43
330
5
100
AcDbSymbolTableRecord
100
AcDbLinetypeTableRecord
  2
BORDERTINY
 70
    0
  3
Border (.15x) __.__.__.__.__.__.__.__.__.__.__.
 72
   65
 73
    6
 40
6.6675
 49
1.905
 74
    0
 49
-0.9525
 74
    0
 49
1.905
 74
    0
 49
-0.9525
 74
    0
 49
0
 74
    0
 49
-0.9525
 74
    0
  0
LTYPE
  5
44
330
5
100
AcDbSymbolTableRecord
100
AcDbLinetypeTableRecord
  2
BORDER2
 70
    0
  3
Border (.5x) __.__.__.__.__.__.__.__.__.__.__.
 72
   65
 73
    6
 40
22.225
 49
6.35
 74
    0
 49
-3.175
 74
    0
 49
6.35
 74
    0
 49
-3.175
 74
    0
 49
0
 74
    0
 49
-3.175
 74
    0
  0
LTYPE
  5
45
330
5
100
AcDbSymbolTableRecord
100
AcDbLinetypeTableRecord
  2
BORDERX2
 70
    0
  3
Border (2x) ____  ____  .  ____  ____  .  ___
 72
   65
 73
    6
 40
88.89999999999999
 49
25.4
 74
    0
 49
-12.7
 74
    0
 49
25.4
 74
    0
 49
-12.7
 74
    0
 49
0
 74
    0
 49
-12.7
 74
    0
  0
LTYPE
  5
46
330
5
100
AcDbSymbolTableRecord
100
AcDbLinetypeTableRecord
  2
CENTER
 70
    0
  3
Center ____ _ ____ _ ____ _ ____ _ ____ _ ____
 72
   65
 73
    4
 40
50.8
 49
31.75
 74
    0
 49
-6.35
 74
    0
 49
6.35
 74
    0
 49
-6.35
 74
    0
  0
LTYPE
  5
47
330
5
100
AcDbSymbolTableRecord
100
AcDbLinetypeTableRecord
  2
CENTERTINY
 70
    0
  3
Center (.15x) ___ _ ___ _ ___ _ ___ _ ___ _ ___
 72
   65
 73
    4
 40
7.62
 49
4.7625
 74
    0
 49
-0.9525
 74
    0
 49
0.9525
 74
    0
 49
-0.9525
 74
    0
  0
LTYPE
  5
48
330
5
100
AcDbSymbolTableRecord
100
AcDbLinetypeTableRecord
  2
CENTER2
 70
    0
  3
Center (.5x) ___ _ ___ _ ___ _ ___ _ ___ _ ___
 72
   65
 73
    4
 40
28.575
 49
19.05
 74
    0
 49
-3.175
 74
    0
 49
3.175
 74
    0
 49
-3.175
 74
    0
  0
LTYPE
  5
49
330
5
100
AcDbSymbolTableRecord
100
AcDbLinetypeTableRecord
  2
CENTERX2
 70
    0
  3
Center (2x) ________  __  ________  __  _____
 72
   65
 73
    4
 40
101.6
 49
63.5
 74
    0
 49
-12.7
 74
    0
 49
12.7
 74
    0
 49
-12.7
 74
    0
  0
ENDTAB
  0
TABLE
  2
LAYER
  5
2
330
0
100
AcDbSymbolTable
 70
    1
  0
LAYER
  5
10
330
2
100
AcDbSymbolTableRecord
100
AcDbLayerTableRecord
  2
0
 70
    0
 62
    7
  6
CONTINUOUS
370
   -3
390
F
  0
LAYER
  5
4A
330
2
100
AcDbSymbolTableRecord
100
AcDbLayerTableRecord
  2
Bemaßung (ISO)
 70
    0
 62
    7
  6
CONTINUOUS
370
    9
390
F
  0
LAYER
  5
4B
330
2
100
AcDbSymbolTableRecord
100
AcDbLayerTableRecord
  2
Defpoints
 70
    0
 62
    7
  6
CONTINUOUS
290
0
370
   -3
390
F
  0
LAYER
  5
4C
330
2
100
AcDbSymbolTableRecord
100
AcDbLayerTableRecord
  2
Mittelpunktmarkierung (ISO)
 70
    0
 62
    1
  6
CONTINUOUS
370
    9
390
F
  0
LAYER
  5
4D
330
2
100
AcDbSymbolTableRecord
100
AcDbLayerTableRecord
  2
Schraffur
 70
    0
 62
    1
  6
CONTINUOUS
370
    9
390
F
  0
LAYER
  5
4E
330
2
100
AcDbSymbolTableRecord
100
AcDbLayerTableRecord
  2
Schraffur (ISO)
 70
    0
 62
    6
  6
CONTINUOUS
370
    9
390
F
  0
LAYER
  5
4F
330
2
100
AcDbSymbolTableRecord
100
AcDbLayerTableRecord
  2
Sichtbar (ISO)
 70
    0
 62
    7
  6
CONTINUOUS
370
   25
390
F
  0
LAYER
  5
50
330
2
100
AcDbSymbolTableRecord
100
AcDbLayerTableRecord
  2
Skizziergeometrie (ISO)
 70
    0
 62
    7
  6
CONTINUOUS
370
   18
390
F
  0
LAYER
  5
51
330
2
100
AcDbSymbolTableRecord
100
AcDbLayerTableRecord
  2
Skizziergeometrie(DIN)
 70
    0
 62
  179
420
2500185
  6
CONTINUOUS
370
   35
390
F
  0
LAYER
  5
52
330
2
100
AcDbSymbolTableRecord
100
AcDbLayerTableRecord
  2
Symbol (ISO)
 70
    0
 62
    5
  6
CONTINUOUS
370
    9
390
F
  0
LAYER
  5
53
330
2
100
AcDbSymbolTableRecord
100
AcDbLayerTableRecord
  2
Symbole(DIN)
 70
    0
 62
    7
  6
CONTINUOUS
370
   18
390
F
  0
ENDTAB
  0
TABLE
  2
STYLE
  5
3
330
0
100
AcDbSymbolTable
 70
    3
  0
STYLE
  5
54
330
2
100
AcDbSymbolTableRecord
100
AcDbTextStyleTableRecord
  2
notiztext (din)
 70
    0
 40
0
 41
1
 50
0
 71
    0
 42
1
  3
notiztext (din)
  4

  0
STYLE
  5
55
330
2
100
AcDbSymbolTableRecord
100
AcDbTextStyleTableRecord
  2
aktuell-din
 70
    0
 40
0
 41
1
 50
0
 71
    0
 42
1
  3
aktuell-din
  4

  0
STYLE
  5
56
330
2
100
AcDbSymbolTableRecord
100
AcDbTextStyleTableRecord
  2
Standard
 70
    0
 40
0
 41
1
 50
0
 71
    0
 42
1
  3
txt
  4

  0
ENDTAB
  0
TABLE
  2
VIEW
  5
6
330
0
100
AcDbSymbolTable
 70
    0
  0
ENDTAB
  0
TABLE
  2
UCS
  5
7
330
0
100
AcDbSymbolTable
 70
    0
  0
ENDTAB
  0
TABLE
  2
APPID
  5
9
330
0
100
AcDbSymbolTable
 70
    1
  0
APPID
  5
12
330
9
100
AcDbSymbolTableRecord
100
AcDbRegAppTableRecord
  2
ACAD
 70
    0
  0
APPID
  5
57
330
9
100
AcDbSymbolTableRecord
100
AcDbRegAppTableRecord
  2
LibreCad
 70
    0
  0
ENDTAB
  0
TABLE
  2
DIMSTYLE
  5
A
330
0
100
AcDbSymbolTable
 70
    1
100
AcDbDimStyleTable
 71
    1
  0
DIMSTYLE
105
58
330
A
100
AcDbSymbolTableRecord
100
AcDbDimStyleTableRecord
  2
Standard
 70
    0
 40
1
 41
0.18
 42
0.0625
 43
0.38
 44
0.18
 45
0
 46
0
 47
0
 48
0
 49
1
140
0.18
141
0.09
142
0
143
25.4
144
1
145
0
146
1
147
0.09
148
0
 71
    0
 72
    0
 73
    1
 74
    1
 75
    0
 76
    0
 77
    0
 78
    0
 79
    0
170
    0
171
    2
172
    0
173
    0
174
    0
175
    0
176
    0
177
    0
178
    0
179
    0
271
    4
272
    4
273
    2
274
    2
275
    0
276
    0
277
    2
278
   46
279
    0
280
    0
281
    0
282
    0
283
    1
284
    0
285
    0
286
    0
288
    0
289
    3
340
Standard
341

371
   -2
372
   -2
  0
ENDTAB
  0
TABLE
  2
BLOCK_RECORD
  5
1
330
0
100
AcDbSymbolTable
 70
    2
  0
BLOCK_RECORD
  5
1F
330
1
100
AcDbSymbolTableRecord
100
AcDbBlockTableRecord
  2
*Model_Space
 70
    0
280
    1
281
    0
  0
BLOCK_RECORD
  5
1E
330
1
100
AcDbSymbolTableRecord
100
AcDbBlockTableRecord
  2
*Paper_Space
 70
    0
280
    1
281
    0
  0
BLOCK_RECORD
  5
59
330
1
100
AcDbSymbolTableRecord
100
AcDbBlockTableRecord
  2
*D2
 70
    0
280
    1
281
    0
  0
BLOCK_RECORD
  5
5C
330
1
100
AcDbSymbolTableRecord
100
AcDbBlockTableRecord
  2
*D4
 70
    0
280
    1
281
    0
  0
BLOCK_RECORD
  5
5F
330
1
100
AcDbSymbolTableRecord
100
AcDbBlockTableRecord
  2
*D5
 70
    0
280
    1
281
    0
  0
BLOCK_RECORD
  5
62
330
1
100
AcDbSymbolTableRecord
100
AcDbBlockTableRecord
  2
*D1
 70
    0
280
    1
281
    0
  0
BLOCK_RECORD
  5
65
330
1
100
AcDbSymbolTableRecord
100
AcDbBlockTableRecord
  2
*D3
 70
    0
280
    1
281
    0
  0
BLOCK_RECORD
  5
68
330
1
100
AcDbSymbolTableRecord
100
AcDbBlockTableRecord
  2
*D8
 70
    0
280
    1
281
    0
  0
BLOCK_RECORD
  5
6B
330
1
100
AcDbSymbolTableRecord
100
AcDbBlockTableRecord
  2
*D6
 70
    0
280
    1
281
    0
  0
BLOCK_RECORD
  5
6E
330
1
100
AcDbSymbolTableRecord
100
AcDbBlockTableRecord
  2
*D7
 70
    0
280
    1
281
    0
  0
BLOCK_RECORD
  5
71
330
1
100
AcDbSymbolTableRecord
100
AcDbBlockTableRecord
  2
Filled-1
 70
    0
280
    1
281
    0
  0
BLOCK_RECORD
  5
74
330
1
100
AcDbSymbolTableRecord
100
AcDbBlockTableRecord
  2
DatumFilled45
 70
    0
280
    1
281
    0
  0
BLOCK_RECORD
  5
77
330
1
100
AcDbSymbolTableRecord
100
AcDbBlockTableRecord
  2
Glasbearbeitung
 70
    0
280
    1
281
    0
  0
BLOCK_RECORD
  5
7A
330
1
100
AcDbSymbolTableRecord
100
AcDbBlockTableRecord
  2
unbemaßte_Kanten
 70
    0
280
    1
281
    0
  0
BLOCK_RECORD
  5
7D
330
1
100
AcDbSymbolTableRecord
100
AcDbBlockTableRecord
  2
Schleifrichtung
 70
    0
280
    1
281
    0
  0
BLOCK_RECORD
  5
80
330
1
100
AcDbSymbolTableRecord
100
AcDbBlockTableRecord
  2
Senkung DIN 974-1 für Zylinderkopfschrauben
 70
    0
280
    1
281
    0
  0
BLOCK_RECORD
  5
83
330
1
100
AcDbSymbolTableRecord
100
AcDbBlockTableRecord
  2
Senkung DIN 74-1 B (f) f. Senkschrauben
 70
    0
280
    1
281
    0
  0
BLOCK_RECORD
  5
86
330
1
100
AcDbSymbolTableRecord
100
AcDbBlockTableRecord
  2
Rz4(Rz16)
 70
    0
280
    1
281
    0
  0
BLOCK_RECORD
  5
89
330
1
100
AcDbSymbolTableRecord
100
AcDbBlockTableRecord
  2
Rz16(Rz4)
 70
    0
280
    1
281
    0
  0
BLOCK_RECORD
  5
8C
330
1
100
AcDbSymbolTableRecord
100
AcDbBlockTableRecord
  2
unbemaßte_Kanten 0_5
 70
    0
280
    1
281
    0
  0
BLOCK_RECORD
  5
8F
330
1
100
AcDbSymbolTableRecord
100
AcDbBlockTableRecord
  2
unbemaßte_Kanten 1
 70
    0
280
    1
281
    0
  0
BLOCK_RECORD
  5
92
330
1
100
AcDbSymbolTableRecord
100
AcDbBlockTableRecord
  2
Schleifrichtung rund
 70
    0
280
    1
281
    0
  0
BLOCK_RECORD
  5
95
330
1
100
AcDbSymbolTableRecord
100
AcDbBlockTableRecord
  2
Prototyp
 70
    0
280
    1
281
    0
  0
BLOCK_RECORD
  5
98
330
1
100
AcDbSymbolTableRecord
100
AcDbBlockTableRecord
  2
Freigabe
 70
    0
280
    1
281
    0
  0
BLOCK_RECORD
  5
9B
330
1
100
AcDbSymbolTableRecord
100
AcDbBlockTableRecord
  2
Freigabe(Englisch)
 70
    0
280
    1
281
    0
  0
BLOCK_RECORD
  5
9E
330
1
100
AcDbSymbolTableRecord
100
AcDbBlockTableRecord
  2
Freigabe(Französisch)
 70
    0
280
    1
281
    0
  0
BLOCK_RECORD
  5
A1
330
1
100
AcDbSymbolTableRecord
100
AcDbBlockTableRecord
  2
Freigabe(Spanisch)
 70
    0
280
    1
281
    0
  0
BLOCK_RECORD
  5
A4
330
1
100
AcDbSymbolTableRecord
100
AcDbBlockTableRecord
  2
Schleifrichtung 30°
 70
    0
280
    1
281
    0
  0
BLOCK_RECORD
  5
A7
330
1
100
AcDbSymbolTableRecord
100
AcDbBlockTableRecord
  2
Schleifrichtung 60°
 70
    0
280
    1
281
    0
  0
BLOCK_RECORD
  5
AA
330
1
100
AcDbSymbolTableRecord
100
AcDbBlockTableRecord
  2
Schleifrichtung 40°
 70
    0
280
    1
281
    0
  0
BLOCK_RECORD
  5
AD
330
1
100
AcDbSymbolTableRecord
100
AcDbBlockTableRecord
  2
Schleifrichtung 90°
 70
    0
280
    1
281
    0
  0
BLOCK_RECORD
  5
B0
330
1
100
AcDbSymbolTableRecord
100
AcDbBlockTableRecord
  2
Schleifrichtung 20°
 70
    0
280
    1
281
    0
  0
BLOCK_RECORD
  5
B3
330
1
100
AcDbSymbolTableRecord
100
AcDbBlockTableRecord
  2
Schleifrichtung 15°
 70
    0
280
    1
281
    0
  0
BLOCK_RECORD
  5
B6
330
1
100
AcDbSymbolTableRecord
100
AcDbBlockTableRecord
  2
Schleifrichtung -30°
 70
    0
280
    1
281
    0
  0
BLOCK_RECORD
  5
B9
330
1
100
AcDbSymbolTableRecord
100
AcDbBlockTableRecord
  2
Schleifrichtung -15°
 70
    0
280
    1
281
    0
  0
BLOCK_RECORD
  5
BC
330
1
100
AcDbSymbolTableRecord
100
AcDbBlockTableRecord
  2
Schleifrichtung -40°
 70
    0
280
    1
281
    0
  0
BLOCK_RECORD
  5
BF
330
1
100
AcDbSymbolTableRecord
100
AcDbBlockTableRecord
  2
Schleifrichtung -60°
 70
    0
280
    1
281
    0
  0
BLOCK_RECORD
  5
C2
330
1
100
AcDbSymbolTableRecord
100
AcDbBlockTableRecord
  2
Schleifrichtung -50°
 70
    0
280
    1
281
    0
  0
BLOCK_RECORD
  5
C5
330
1
100
AcDbSymbolTableRecord
100
AcDbBlockTableRecord
  2
Flächen Galvanik
 70
    0
280
    1
281
    0
  0
BLOCK_RECORD
  5
C8
330
1
100
AcDbSymbolTableRecord
100
AcDbBlockTableRecord
  2
Duschenglas 8mm
 70
    0
280
    1
281
    0
  0
BLOCK_RECORD
  5
CB
330
1
100
AcDbSymbolTableRecord
100
AcDbBlockTableRecord
  2
Außerhalb der AbZ 85
 70
    0
280
    1
281
    0
  0
BLOCK_RECORD
  5
CE
330
1
100
AcDbSymbolTableRecord
100
AcDbBlockTableRecord
  2
Duschenglas 6mm
 70
    0
280
    1
281
    0
  0
BLOCK_RECORD
  5
D1
330
1
100
AcDbSymbolTableRecord
100
AcDbBlockTableRecord
  2
unbemaßte Kanten R_0_2 runden
 70
    0
280
    1
281
    0
  0
BLOCK_RECORD
  5
D4
330
1
100
AcDbSymbolTableRecord
100
AcDbBlockTableRecord
  2
Prüfzertifikat nach DIN EN 10204 (3.1) erforderlich
 70
    0
280
    1
281
    0
  0
BLOCK_RECORD
  5
D7
330
1
100
AcDbSymbolTableRecord
100
AcDbBlockTableRecord
  2
Reinigen
 70
    0
280
    1
281
    0
  0
BLOCK_RECORD
  5
DA
330
1
100
AcDbSymbolTableRecord
100
AcDbBlockTableRecord
  2
Schleifrichtung rund-2
 70
    0
280
    1
281
    0
  0
BLOCK_RECORD
  5
DD
330
1
100
AcDbSymbolTableRecord
100
AcDbBlockTableRecord
  2
EPDM-washer
 70
    0
280
    1
281
    0
  0
BLOCK_RECORD
  5
E0
330
1
100
AcDbSymbolTableRecord
100
AcDbBlockTableRecord
  2
isometric view
 70
    0
280
    1
281
    0
  0
BLOCK_RECORD
  5
E3
330
1
100
AcDbSymbolTableRecord
100
AcDbBlockTableRecord
  2
glazing
 70
    0
280
    1
281
    0
  0
BLOCK_RECORD
  5
E6
330
1
100
AcDbSymbolTableRecord
100
AcDbBlockTableRecord
  2
countersink screw EN ISO A2
 70
    0
280
    1
281
    0
  0
BLOCK_RECORD
  5
E9
330
1
100
AcDbSymbolTableRecord
100
AcDbBlockTableRecord
  2
cylinder head screw EN ISO A2
 70
    0
280
    1
281
    0
  0
BLOCK_RECORD
  5
EC
330
1
100
AcDbSymbolTableRecord
100
AcDbBlockTableRecord
  2
P+S glass clamp
 70
    0
280
    1
281
    0
  0
BLOCK_RECORD
  5
EF
330
1
100
AcDbSymbolTableRecord
100
AcDbBlockTableRecord
  2
Ränder Datenblatt HF
 70
    0
280
    1
281
    0
  0
ENDTAB
  0
ENDSEC
  0
SECTION
  2
BLOCKS
  0
BLOCK
  5
20
330
1F
100
AcDbEntity
  8
0
100
AcDbBlockBegin
  2
*Model_Space
 70
    0
 10
0
 20
0
 30
0
  3
*Model_Space
  1

  0
ENDBLK
  5
21
330
1F
100
AcDbEntity
  8
0
100
AcDbBlockEnd
  0
BLOCK
  5
1C
330
1B
100
AcDbEntity
  8
0
100
AcDbBlockBegin
  2
*Paper_Space
 70
    0
 10
0
 20
0
 30
0
  3
*Paper_Space
  1

  0
ENDBLK
  5
1D
330
1F
100
AcDbEntity
  8
0
100
AcDbBlockEnd
  0
BLOCK
  5
5A
330
59
100
AcDbEntity
  8
0
100
AcDbBlockBegin
  2
*D2
 70
    1
 10
0
 20
0
  3
*D2
  1

  0
LINE
  5
F2
100
AcDbEntity
  8
Bemaßung (ISO)
  6
ByBlock
 62
    0
370
   -2
100
AcDbLine
 10
58.51129717360037
 20
43.92730324487921
 11
63.03678057319493
 21
48.45278664447246
  0
SOLID
  5
F3
100
AcDbEntity
  8
Bemaßung (ISO)
  6
ByBlock
 62
    0
370
   -2
100
AcDbTrace
 10
58.51129717360037
 20
43.92730324487921
 30
0
 11
58.61738263949608
 21
44.07577622021066
 31
0
 12
58.65977014893185
 22
44.03338871077488
 32
0
 13
58.65977014893185
 23
44.03338871077488
 33
0
  0
SOLID
  5
F4
100
AcDbEntity
  8
Bemaßung (ISO)
  6
ByBlock
 62
    0
370
   -2
100
AcDbTrace
 10
63.03678057319493
 20
48.45278664447246
 30
0
 11
62.93069510729922
 21
48.30431366914101
 31
0
 12
62.88830759786345
 22
48.34670117857679
 32
0
 13
62.88830759786345
 23
48.34670117857679
 33
0
  0
MTEXT
  5
F5
100
AcDbEntity
  8
Bemaßung (ISO)
  6
CONTINUOUS
 62
    0
370
   -2
100
AcDbMText
 10
68.6131803832381
 20
54.02918645451402
 30
0
 40
0.18
 41
0.7200000000000111
 71
    5
 72
    1
  1
6.4000
  7
Standard
210
0
220
0
230
1
 50
0
 73
    2
 44
1
  0
ENDBLK
  5
5B
330
59
100
AcDbEntity
  8
0
100
AcDbBlockEnd
  0
BLOCK
  5
5D
330
5C
100
AcDbEntity
  8
0
100
AcDbBlockBegin
  2
*D4
 70
    1
 10
0
 20
0
  3
*D4
  1

  0
LINE
  5
F6
100
AcDbEntity
  8
Bemaßung (ISO)
  6
ByBlock
 62
    0
370
   -2
100
AcDbLine
 10
80.27403887339764
 20
97.69004494467582
 11
80.27403887339764
 21
67.37504494467582
  0
SOLID
  5
F7
100
AcDbEntity
  8
Bemaßung (ISO)
  6
ByBlock
 62
    0
370
   -2
100
AcDbTrace
 10
80.27403887339764
 20
97.69004494467582
 30
0
 11
80.30401136875729
 21
97.51004494467581
 31
0
 12
80.244066378038
 22
97.51004494467581
 32
0
 13
80.244066378038
 23
97.51004494467581
 33
0
  0
SOLID
  5
F8
100
AcDbEntity
  8
Bemaßung (ISO)
  6
ByBlock
 62
    0
370
   -2
100
AcDbTrace
 10
80.27403887339764
 20
36.69004494467582
 30
0
 11
80.244066378038
 21
36.87004494467582
 31
0
 12
80.30401136875729
 22
36.87004494467582
 32
0
 13
80.30401136875729
 23
36.87004494467582
 33
0
  0
LINE
  5
F9
100
AcDbEntity
  8
Bemaßung (ISO)
  6
ByBlock
 62
    0
370
   -2
100
AcDbLine
 10
80.27403887339764
 20
67.01504494467581
 11
80.27403887339764
 21
36.69004494467582
  0
MTEXT
  5
FA
100
AcDbEntity
  8
Bemaßung (ISO)
  6
CONTINUOUS
 62
    0
370
   -2
100
AcDbMText
 10
80.27403887339764
 20
67.19504494467581
 30
0
 40
0.18
 41
0.8000000000000111
 71
    5
 72
    1
  1
61.0000
  7
Standard
210
0
220
0
230
1
 50
0
 73
    2
 44
1
  0
LINE
  5
FB
100
AcDbEntity
  8
Bemaßung (ISO)
  6
ByBlock
 62
    0
370
   -2
100
AcDbLine
 10
66.83653887339764
 20
97.69004494467582
 11
80.45403887339765
 21
97.69004494467582
  0
LINE
  5
FC
100
AcDbEntity
  8
Bemaßung (ISO)
  6
ByBlock
 62
    0
370
   -2
100
AcDbLine
 10
66.83653887339763
 20
36.69004494467582
 11
80.45403887339765
 21
36.69004494467582
  0
ENDBLK
  5
5E
330
5C
100
AcDbEntity
  8
0
100
AcDbBlockEnd
  0
BLOCK
  5
60
330
5F
100
AcDbEntity
  8
0
100
AcDbBlockBegin
  2
*D5
 70
    1
 10
0
 20
0
  3
*D5
  1

  0
LINE
  5
FD
100
AcDbEntity
  8
Bemaßung (ISO)
  6
ByBlock
 62
    0
370
   -2
100
AcDbLine
 10
84.27403887339767
 20
99.19004494467583
 11
84.27403887339767
 21
67.37504494467584
  0
SOLID
  5
FE
100
AcDbEntity
  8
Bemaßung (ISO)
  6
ByBlock
 62
    0
370
   -2
100
AcDbTrace
 10
84.27403887339767
 20
99.19004494467583
 30
0
 11
84.30401136875732
 21
99.01004494467583
 31
0
 12
84.24406637803803
 22
99.01004494467583
 32
0
 13
84.24406637803803
 23
99.01004494467583
 33
0
  0
SOLID
  5
FF
100
AcDbEntity
  8
Bemaßung (ISO)
  6
ByBlock
 62
    0
370
   -2
100
AcDbTrace
 10
84.27403887339767
 20
35.19004494467583
 30
0
 11
84.24406637803803
 21
35.37004494467583
 31
0
 12
84.30401136875732
 22
35.37004494467583
 32
0
 13
84.30401136875732
 23
35.37004494467583
 33
0
  0
LINE
  5
100
100
AcDbEntity
  8
Bemaßung (ISO)
  6
ByBlock
 62
    0
370
   -2
100
AcDbLine
 10
84.27403887339767
 20
67.01504494467582
 11
84.27403887339767
 21
35.19004494467583
  0
MTEXT
  5
101
100
AcDbEntity
  8
Bemaßung (ISO)
  6
CONTINUOUS
 62
    0
370
   -2
100
AcDbMText
 10
84.27403887339767
 20
67.19504494467583
 30
0
 40
0.18
 41
0.8600000000000112
 71
    5
 72
    1
  1
64.0000
  7
Standard
210
0
220
0
230
1
 50
0
 73
    2
 44
1
  0
LINE
  5
102
100
AcDbEntity
  8
Bemaßung (ISO)
  6
ByBlock
 62
    0
370
   -2
100
AcDbLine
 10
44.33653887339764
 20
99.19004494467583
 11
84.45403887339768
 21
99.19004494467583
  0
LINE
  5
103
100
AcDbEntity
  8
Bemaßung (ISO)
  6
ByBlock
 62
    0
370
   -2
100
AcDbLine
 10
44.33653887339761
 20
35.19004494467583
 11
84.45403887339768
 21
35.19004494467583
  0
ENDBLK
  5
61
330
5F
100
AcDbEntity
  8
0
100
AcDbBlockEnd
  0
BLOCK
  5
63
330
62
100
AcDbEntity
  8
0
100
AcDbBlockBegin
  2
*D1
 70
    1
 10
0
 20
0
  3
*D1
  1

  0
LINE
  5
104
100
AcDbEntity
  8
Bemaßung (ISO)
  6
ByBlock
 62
    0
370
   -2
100
AcDbLine
 10
50.30419039241373
 20
64.22019646369279
 11
56.24388735438161
 21
70.15989342565891
  0
SOLID
  5
105
100
AcDbEntity
  8
Bemaßung (ISO)
  6
ByBlock
 62
    0
370
   -2
100
AcDbTrace
 10
50.30419039241373
 20
64.22019646369279
 30
0
 11
50.41027585830945
 21
64.36866943902423
 31
0
 12
50.45266336774521
 22
64.32628192958846
 32
0
 13
50.45266336774521
 23
64.32628192958846
 33
0
  0
SOLID
  5
106
100
AcDbEntity
  8
Bemaßung (ISO)
  6
ByBlock
 62
    0
370
   -2
100
AcDbTrace
 10
56.24388735438161
 20
70.15989342565891
 30
0
 11
56.1378018884859
 21
70.01142045032746
 31
0
 12
56.09541437905013
 22
70.05380795976323
 32
0
 13
56.09541437905013
 23
70.05380795976323
 33
0
  0
MTEXT
  5
107
100
AcDbEntity
  8
Bemaßung (ISO)
  6
CONTINUOUS
 62
    0
370
   -2
100
AcDbMText
 10
60.50796165304196
 20
74.423967724318
 30
0
 40
0.18
 41
0.72
 71
    5
 72
    1
  1
8.4000
  7
Standard
210
0
220
0
230
1
 50
0
 73
    2
 44
1
  0
ENDBLK
  5
64
330
62
100
AcDbEntity
  8
0
100
AcDbBlockEnd
  0
BLOCK
  5
66
330
65
100
AcDbEntity
  8
0
100
AcDbBlockBegin
  2
*D3
 70
    1
 10
0
 20
0
  3
*D3
  1

  0
LINE
  5
108
100
AcDbEntity
  8
Bemaßung (ISO)
  6
ByBlock
 62
    0
370
   -2
100
AcDbLine
 10
76.27403887339766
 20
88.1900449446758
 11
76.27403887339766
 21
67.37504494467584
  0
SOLID
  5
109
100
AcDbEntity
  8
Bemaßung (ISO)
  6
ByBlock
 62
    0
370
   -2
100
AcDbTrace
 10
76.27403887339766
 20
88.1900449446758
 30
0
 11
76.3040113687573
 21
88.0100449446758
 31
0
 12
76.24406637803801
 22
88.0100449446758
 32
0
 13
76.24406637803801
 23
88.0100449446758
 33
0
  0
SOLID
  5
10A
100
AcDbEntity
  8
Bemaßung (ISO)
  6
ByBlock
 62
    0
370
   -2
100
AcDbTrace
 10
76.27403887339766
 20
46.19004494467581
 30
0
 11
76.24406637803801
 21
46.37004494467581
 31
0
 12
76.3040113687573
 22
46.37004494467581
 32
0
 13
76.3040113687573
 23
46.37004494467581
 33
0
  0
LINE
  5
10B
100
AcDbEntity
  8
Bemaßung (ISO)
  6
ByBlock
 62
    0
370
   -2
100
AcDbLine
 10
76.27403887339766
 20
67.01504494467582
 11
76.27403887339766
 21
46.19004494467581
  0
MTEXT
  5
10C
100
AcDbEntity
  8
Bemaßung (ISO)
  6
CONTINUOUS
 62
    0
370
   -2
100
AcDbMText
 10
76.27403887339766
 20
67.19504494467583
 30
0
 40
0.18
 41
0.8600000000000001
 71
    5
 72
    1
  1
42.0000
  7
Standard
210
0
220
0
230
1
 50
0
 73
    2
 44
1
  0
LINE
  5
10D
100
AcDbEntity
  8
Bemaßung (ISO)
  6
ByBlock
 62
    0
370
   -2
100
AcDbLine
 10
67.78653887339765
 20
88.1900449446758
 11
76.45403887339766
 21
88.1900449446758
  0
LINE
  5
10E
100
AcDbEntity
  8
Bemaßung (ISO)
  6
ByBlock
 62
    0
370
   -2
100
AcDbLine
 10
67.78653887339762
 20
46.19004494467581
 11
76.45403887339766
 21
46.19004494467581
  0
ENDBLK
  5
67
330
65
100
AcDbEntity
  8
0
100
AcDbBlockEnd
  0
BLOCK
  5
69
330
68
100
AcDbEntity
  8
0
100
AcDbBlockBegin
  2
*D8
 70
    1
 10
0
 20
0
  3
*D8
  1

  0
LINE
  5
10F
100
AcDbEntity
  8
Bemaßung (ISO)
  6
ByBlock
 62
    0
370
   -2
100
AcDbLine
 10
36.0740388733976
 20
22.1900449446764
 11
53.16903887339758
 21
22.1900449446764
  0
SOLID
  5
110
100
AcDbEntity
  8
Bemaßung (ISO)
  6
ByBlock
 62
    0
370
   -2
100
AcDbTrace
 10
36.0740388733976
 20
22.1900449446764
 30
0
 11
36.2540388733976
 21
22.22001744003605
 31
0
 12
36.2540388733976
 22
22.16007244931676
 32
0
 13
36.2540388733976
 23
22.16007244931676
 33
0
  0
SOLID
  5
111
100
AcDbEntity
  8
Bemaßung (ISO)
  6
ByBlock
 62
    0
370
   -2
100
AcDbTrace
 10
71.27403887339761
 20
22.1900449446764
 30
0
 11
71.09403887339761
 21
22.16007244931676
 31
0
 12
71.09403887339761
 22
22.22001744003605
 32
0
 13
71.09403887339761
 23
22.22001744003605
 33
0
  0
LINE
  5
112
100
AcDbEntity
  8
Bemaßung (ISO)
  6
ByBlock
 62
    0
370
   -2
100
AcDbLine
 10
54.18903887339761
 20
22.1900449446764
 11
71.27403887339761
 21
22.1900449446764
  0
MTEXT
  5
113
100
AcDbEntity
  8
Bemaßung (ISO)
  6
CONTINUOUS
 62
    0
370
   -2
100
AcDbMText
 10
53.6790388733976
 20
22.1900449446764
 30
0
 40
0.18
 41
0.8400000000000223
 71
    5
 72
    1
  1
35.2000
  7
Standard
210
0
220
0
230
1
 50
0
 73
    2
 44
1
  0
LINE
  5
114
100
AcDbEntity
  8
Bemaßung (ISO)
  6
ByBlock
 62
    0
370
   -2
100
AcDbLine
 10
36.0740388733976
 20
36.32754494467617
 11
36.0740388733976
 21
22.0100449446764
  0
LINE
  5
115
100
AcDbEntity
  8
Bemaßung (ISO)
  6
ByBlock
 62
    0
370
   -2
100
AcDbLine
 10
71.27403887339761
 20
41.12754494467581
 11
71.27403887339761
 21
22.0100449446764
  0
ENDBLK
  5
6A
330
68
100
AcDbEntity
  8
0
100
AcDbBlockEnd
  0
BLOCK
  5
6C
330
6B
100
AcDbEntity
  8
0
100
AcDbBlockBegin
  2
*D6
 70
    1
 10
0
 20
0
  3
*D6
  1

  0
LINE
  5
116
100
AcDbEntity
  8
Bemaßung (ISO)
  6
ByBlock
 62
    0
370
   -2
100
AcDbLine
 10
36.0740388733976
 20
30.19004494467639
 11
44.18903887339761
 21
30.19004494467639
  0
SOLID
  5
117
100
AcDbEntity
  8
Bemaßung (ISO)
  6
ByBlock
 62
    0
370
   -2
100
AcDbTrace
 10
36.0740388733976
 20
30.19004494467639
 30
0
 11
36.2540388733976
 21
30.22001744003604
 31
0
 12
36.2540388733976
 22
30.16007244931675
 32
0
 13
36.2540388733976
 23
30.16007244931675
 33
0
  0
SOLID
  5
118
100
AcDbEntity
  8
Bemaßung (ISO)
  6
ByBlock
 62
    0
370
   -2
100
AcDbTrace
 10
53.27403887339762
 20
30.19004494467639
 30
0
 11
53.09403887339762
 21
30.16007244931675
 31
0
 12
53.09403887339762
 22
30.22001744003603
 32
0
 13
53.09403887339762
 23
30.22001744003603
 33
0
  0
LINE
  5
119
100
AcDbEntity
  8
Bemaßung (ISO)
  6
ByBlock
 62
    0
370
   -2
100
AcDbLine
 10
45.16903887339761
 20
30.19004494467639
 11
53.27403887339762
 21
30.19004494467639
  0
MTEXT
  5
11A
100
AcDbEntity
  8
Bemaßung (ISO)
  6
CONTINUOUS
 62
    0
370
   -2
100
AcDbMText
 10
44.67903887339761
 20
30.19004494467639
 30
0
 40
0.18
 41
0.8
 71
    5
 72
    1
  1
17.2000
  7
Standard
210
0
220
0
230
1
 50
0
 73
    2
 44
1
  0
LINE
  5
11B
100
AcDbEntity
  8
Bemaßung (ISO)
  6
ByBlock
 62
    0
370
   -2
100
AcDbLine
 10
36.0740388733976
 20
36.32754494467617
 11
36.0740388733976
 21
30.01004494467639
  0
LINE
  5
11C
100
AcDbEntity
  8
Bemaßung (ISO)
  6
ByBlock
 62
    0
370
   -2
100
AcDbLine
 10
53.27403887339762
 20
60.17754494467583
 11
53.27403887339762
 21
30.01004494467639
  0
ENDBLK
  5
6D
330
6B
100
AcDbEntity
  8
0
100
AcDbBlockEnd
  0
BLOCK
  5
6F
330
6E
100
AcDbEntity
  8
0
100
AcDbBlockBegin
  2
*D7
 70
    1
 10
0
 20
0
  3
*D7
  1

  0
LINE
  5
11D
100
AcDbEntity
  8
Bemaßung (ISO)
  6
ByBlock
 62
    0
370
   -2
100
AcDbLine
 10
36.0740388733976
 20
26.19004494467639
 11
47.90903887339759
 21
26.1900449446764
  0
SOLID
  5
11E
100
AcDbEntity
  8
Bemaßung (ISO)
  6
ByBlock
 62
    0
370
   -2
100
AcDbTrace
 10
36.0740388733976
 20
26.19004494467639
 30
0
 11
36.2540388733976
 21
26.22001744003604
 31
0
 12
36.2540388733976
 22
26.16007244931675
 32
0
 13
36.2540388733976
 23
26.16007244931675
 33
0
  0
SOLID
  5
11F
100
AcDbEntity
  8
Bemaßung (ISO)
  6
ByBlock
 62
    0
370
   -2
100
AcDbTrace
 10
60.77403887339762
 20
26.19004494467639
 30
0
 11
60.59403887339762
 21
26.16007244931675
 31
0
 12
60.59403887339762
 22
26.22001744003603
 32
0
 13
60.59403887339762
 23
26.22001744003603
 33
0
  0
LINE
  5
120
100
AcDbEntity
  8
Bemaßung (ISO)
  6
ByBlock
 62
    0
370
   -2
100
AcDbLine
 10
48.94903887339759
 20
26.19004494467639
 11
60.77403887339762
 21
26.19004494467639
  0
MTEXT
  5
121
100
AcDbEntity
  8
Bemaßung (ISO)
  6
CONTINUOUS
 62
    0
370
   -2
100
AcDbMText
 10
48.42903887339759
 20
26.19004494467639
 30
0
 40
0.18
 41
0.8600000000000001
 71
    5
 72
    1
  1
24.7000
  7
Standard
210
0
220
0
230
1
 50
0
 73
    2
 44
1
  0
LINE
  5
122
100
AcDbEntity
  8
Bemaßung (ISO)
  6
ByBlock
 62
    0
370
   -2
100
AcDbLine
 10
36.0740388733976
 20
36.32754494467617
 11
36.0740388733976
 21
26.01004494467639
  0
LINE
  5
123
100
AcDbEntity
  8
Bemaßung (ISO)
  6
ByBlock
 62
    0
370
   -2
100
AcDbLine
 10
60.77403887339762
 20
39.92754494467582
 11
60.77403887339762
 21
26.01004494467639
  0
ENDBLK
  5
70
330
6E
100
AcDbEntity
  8
0
100
AcDbBlockEnd
  0
BLOCK
  5
72
330
71
100
AcDbEntity
  8
0
100
AcDbBlockBegin
  2
Filled-1
 70
    0
 10
0
 20
0
  3
Filled-1
  1

  0
LINE
  5
124
100
AcDbEntity
  8
0
  6
ByLayer
 62
    0
370
   -1
100
AcDbLine
 10
-1
 20
0
 11
0
 21
0
  0
LWPOLYLINE
  5
125
100
AcDbEntity
  8
0
  6
ByLayer
 62
    0
370
   -1
100
AcDbPolyline
 90
    4
 70
    0
 43
0
 10
-1
 20
-0.1
 10
0
 20
0
 10
-1
 20
0.1
 10
-1
 20
-0.1
  0
SOLID
  5
126
100
AcDbEntity
  8
0
  6
ByLayer
 62
    0
370
   -1
100
AcDbTrace
 10
-1
 20
-0.1
 30
0
 11
0
 21
0
 31
0
 12
-1
 22
0.1
 32
0
 13
-1
 23
-0.1
 33
0
  0
LINE
  5
127
100
AcDbEntity
  8
0
  6
ByLayer
 62
    0
370
   -1
100
AcDbLine
 10
-1
 20
-0.1
 11
0
 21
0
  0
LINE
  5
128
100
AcDbEntity
  8
0
  6
ByLayer
 62
    0
370
   -1
100
AcDbLine
 10
0
 20
0
 11
-1
 21
0.1
  0
LINE
  5
129
100
AcDbEntity
  8
0
  6
ByLayer
 62
    0
370
   -1
100
AcDbLine
 10
-1
 20
0.1
 11
-1
 21
-0.1
  0
ENDBLK
  5
73
330
71
100
AcDbEntity
  8
0
100
AcDbBlockEnd
  0
BLOCK
  5
75
330
74
100
AcDbEntity
  8
0
100
AcDbBlockBegin
  2
DatumFilled45
 70
    0
 10
0
 20
0
  3
DatumFilled45
  1

  0
LWPOLYLINE
  5
12A
100
AcDbEntity
  8
0
  6
ByLayer
 62
    0
370
   -1
100
AcDbPolyline
 90
    4
 70
    0
 43
0
 10
0
 20
1
 10
0
 20
-1
 10
-1
 20
0
 10
0
 20
1
  0
SOLID
  5
12B
100
AcDbEntity
  8
0
  6
ByLayer
 62
    0
370
   -1
100
AcDbTrace
 10
0
 20
1
 30
0
 11
0
 21
-1
 31
0
 12
-1
 22
0
 32
0
 13
0
 23
1
 33
0
  0
ENDBLK
  5
76
330
74
100
AcDbEntity
  8
0
100
AcDbBlockEnd
  0
BLOCK
  5
78
330
77
100
AcDbEntity
  8
0
100
AcDbBlockBegin
  2
Glasbearbeitung
 70
    0
 10
0
 20
0
  3
Glasbearbeitung
  1

  0
MTEXT
  5
12C
100
AcDbEntity
  8
Symbole(DIN)
  6
ByLayer
 62
    7
370
   -1
100
AcDbMText
 10
-36.95807933807373
 20
2.29287352412939
 30
0
 40
3.499999940395355
 41
131.0555551236998
 71
    1
 72
    1
  1
\fArial|b0|i0;\H3.5000;Alle Kanten geschliffen und poliert
  7
aktuell-din
210
0
220
0
230
1
 50
0
 73
    1
 44
1
  0
ENDBLK
  5
79
330
77
100
AcDbEntity
  8
0
100
AcDbBlockEnd
  0
BLOCK
  5
7B
330
7A
100
AcDbEntity
  8
0
100
AcDbBlockBegin
  2
unbemaßte_Kanten
 70
    0
 10
0
 20
0
  3
unbemaßte_Kanten
  1

  0
MTEXT
  5
12D
100
AcDbEntity
  8
Symbole(DIN)
  6
ByLayer
 62
    7
370
   -1
100
AcDbMText
 10
-25.81729110330343
 20
1.518673673272132
 30
0
 40
2.5
 41
124.9305568412757
 71
    1
 72
    1
  1
unbemaßte Kanten 0,2x45\fAIGDT|b0|i0;\H2.5000;~\fArial|b0|i0;\H2.5000; fasen
  7
aktuell-din
210
0
220
0
230
1
 50
0
 73
    1
 44
1
  0
ENDBLK
  5
7C
330
7A
100
AcDbEntity
  8
0
100
AcDbBlockEnd
  0
BLOCK
  5
7E
330
7D
100
AcDbEntity
  8
0
100
AcDbBlockBegin
  2
Schleifrichtung
 70
    0
 10
0
 20
0
  3
Schleifrichtung
  1

  0
HATCH
  5
12E
100
AcDbEntity
  8
Schraffur
  6
ByLayer
 62
  179
420
2500185
370
   -1
100
AcDbHatch
 10
0
 20
0
 30
0
210
0
220
0
230
1
  2
SOLID
 70
    1
 71
    0
 91
    1
 92
    0
 93
    3
 72
    1
 10
0
 20
5
 11
-0.4999999999999983
 21
2.78774508444858
 72
    1
 10
-0.4999999999999983
 20
2.78774508444858
 11
0.4999999999999983
 21
2.78774508444858
 72
    1
 10
0.4999999999999983
 20
2.78774508444858
 11
0
 21
5
 97
    0
 75
    0
 76
    1
 98
    0
  0
HATCH
  5
12F
100
AcDbEntity
  8
Schraffur
  6
ByLayer
 62
  179
420
2500185
370
   -1
100
AcDbHatch
 10
0
 20
0
 30
0
210
0
220
0
230
1
  2
SOLID
 70
    1
 71
    0
 91
    1
 92
    0
 93
    3
 72
    1
 10
0
 20
-5
 11
0.4999999999999983
 21
-2.78774508444858
 72
    1
 10
0.4999999999999983
 20
-2.78774508444858
 11
-0.4999999999999983
 21
-2.78774508444858
 72
    1
 10
-0.4999999999999983
 20
-2.78774508444858
 11
0
 21
-5
 97
    0
 75
    0
 76
    1
 98
    0
  0
LINE
  5
130
100
AcDbEntity
  8
Skizziergeometrie(DIN)
  6
ByLayer
 62
  256
370
   -1
100
AcDbLine
 10
0
 20
5
 11
0
 21
-5
  0
LINE
  5
131
100
AcDbEntity
  8
Skizziergeometrie(DIN)
  6
ByLayer
 62
  256
370
   -1
100
AcDbLine
 10
0
 20
5
 11
-0.4999999999999983
 21
2.78774508444858
  0
LINE
  5
132
100
AcDbEntity
  8
Skizziergeometrie(DIN)
  6
ByLayer
 62
  256
370
   -1
100
AcDbLine
 10
-0.4999999999999983
 20
2.78774508444858
 11
0.4999999999999983
 21
2.78774508444858
  0
LINE
  5
133
100
AcDbEntity
  8
Skizziergeometrie(DIN)
  6
ByLayer
 62
  256
370
   -1
100
AcDbLine
 10
0.4999999999999983
 20
2.78774508444858
 11
0
 21
5
  0
LINE
  5
134
100
AcDbEntity
  8
Skizziergeometrie(DIN)
  6
ByLayer
 62
  256
370
   -1
100
AcDbLine
 10
0
 20
-5
 11
-0.4999999999999983
 21
-2.78774508444858
  0
LINE
  5
135
100
AcDbEntity
  8
Skizziergeometrie(DIN)
  6
ByLayer
 62
  256
370
   -1
100
AcDbLine
 10
-0.4999999999999983
 20
-2.78774508444858
 11
0.4999999999999983
 21
-2.78774508444858
  0
LINE
  5
136
100
AcDbEntity
  8
Skizziergeometrie(DIN)
  6
ByLayer
 62
  256
370
   -1
100
AcDbLine
 10
0.4999999999999983
 20
-2.78774508444858
 11
0
 21
-5
  0
ENDBLK
  5
7F
330
7D
100
AcDbEntity
  8
0
100
AcDbBlockEnd
  0
BLOCK
  5
81
330
80
100
AcDbEntity
  8
0
100
AcDbBlockBegin
  2
Senkung DIN 974-1 für Zylinderkopfschrauben
 70
    0
 10
0
 20
0
  3
Senkung DIN 974-1 für Zylinderkopfschrauben
  1

  0
MTEXT
  5
137
100
AcDbEntity
  8
Symbole(DIN)
  6
ByLayer
 62
    7
370
   -1
100
AcDbMText
 10
-22.51524209976196
 20
1.639672182500362
 30
0
 40
2.5
 41
45.90277696999526
 71
    1
 72
    1
  1
Senkung DIN 974-1 (Reihe1)
  7
aktuell-din
210
0
220
0
230
1
 50
0
 73
    1
 44
1
  0
ENDBLK
  5
82
330
80
100
AcDbEntity
  8
0
100
AcDbBlockEnd
  0
BLOCK
  5
84
330
83
100
AcDbEntity
  8
0
100
AcDbBlockBegin
  2
Senkung DIN 74-1 B (f) f. Senkschrauben
 70
    0
 10
0
 20
0
  3
Senkung DIN 74-1 B (f) f. Senkschrauben
  1

  0
MTEXT
  5
138
100
AcDbEntity
  8
Symbole(DIN)
  6
ByLayer
 62
    7
370
   -1
100
AcDbMText
 10
-18.14691185951233
 20
1.639672182500362
 30
0
 40
2.5
 41
39.4444436366618
 71
    1
 72
    1
  1
Senkung DIN 74-1 B (f)
  7
aktuell-din
210
0
220
0
230
1
 50
0
 73
    1
 44
1
  0
ENDBLK
  5
85
330
83
100
AcDbEntity
  8
0
100
AcDbBlockEnd
  0
BLOCK
  5
87
330
86
100
AcDbEntity
  8
0
100
AcDbBlockBegin
  2
Rz4(Rz16)
 70
    0
 10
0
 20
0
  3
Rz4(Rz16)
  1

  0
LINE
  5
139
100
AcDbEntity
  8
Skizziergeometrie(DIN)
  6
ByLayer
 62
  256
370
   -1
100
AcDbLine
 10
-13.35665995719496
 20
-0.624154925091176
 11
-11.35665995719495
 21
-4.124154925091172
  0
LINE
  5
13A
100
AcDbEntity
  8
Skizziergeometrie(DIN)
  6
ByLayer
 62
  256
370
   -1
100
AcDbLine
 10
-11.35665995719495
 20
-4.124154925091172
 11
-9.356659957194953
 21
-0.624154925091176
  0
LINE
  5
13B
100
AcDbEntity
  8
Skizziergeometrie(DIN)
  6
ByLayer
 62
  256
370
   -1
100
AcDbLine
 10
-9.356659957194953
 20
-0.624154925091176
 11
-13.35665995719496
 21
-0.624154925091176
  0
LINE
  5
13C
100
AcDbEntity
  8
Skizziergeometrie(DIN)
  6
ByLayer
 62
  256
370
   -1
100
AcDbLine
 10
-9.356659957194953
 20
-0.624154925091176
 11
-6.643340042805041
 21
4.12415492509119
  0
LINE
  5
13D
100
AcDbEntity
  8
Skizziergeometrie(DIN)
  6
ByLayer
 62
  256
370
   -1
100
AcDbLine
 10
-6.643340042805041
 20
4.12415492509119
 11
13.35665995719496
 21
4.124154925091172
  0
MTEXT
  5
13E
100
AcDbEntity
  8
Symbole(DIN)
  6
ByLayer
 62
    7
370
   -1
100
AcDbMText
 10
-6.476606384140213
 20
3.265635088166192
 30
0
 40
2.5
 41
20.90277750000016
 71
    1
 72
    1
  1
Rz 4 (Rz 16)
  7
aktuell-din
210
0
220
0
230
1
 50
0
 73
    1
 44
1
  0
ENDBLK
  5
88
330
86
100
AcDbEntity
  8
0
100
AcDbBlockEnd
  0
BLOCK
  5
8A
330
89
100
AcDbEntity
  8
0
100
AcDbBlockBegin
  2
Rz16(Rz4)
 70
    0
 10
0
 20
0
  3
Rz16(Rz4)
  1

  0
LINE
  5
13F
100
AcDbEntity
  8
Skizziergeometrie(DIN)
  6
ByLayer
 62
  256
370
   -1
100
AcDbLine
 10
-13.35665995719496
 20
-0.624154925091176
 11
-11.35665995719495
 21
-4.124154925091172
  0
LINE
  5
140
100
AcDbEntity
  8
Skizziergeometrie(DIN)
  6
ByLayer
 62
  256
370
   -1
100
AcDbLine
 10
-11.35665995719495
 20
-4.124154925091172
 11
-9.356659957194953
 21
-0.624154925091176
  0
LINE
  5
141
100
AcDbEntity
  8
Skizziergeometrie(DIN)
  6
ByLayer
 62
  256
370
   -1
100
AcDbLine
 10
-9.356659957194953
 20
-0.624154925091176
 11
-13.35665995719496
 21
-0.624154925091176
  0
LINE
  5
142
100
AcDbEntity
  8
Skizziergeometrie(DIN)
  6
ByLayer
 62
  256
370
   -1
100
AcDbLine
 10
-9.356659957194953
 20
-0.624154925091176
 11
-6.643340042805041
 21
4.12415492509119
  0
LINE
  5
143
100
AcDbEntity
  8
Skizziergeometrie(DIN)
  6
ByLayer
 62
  256
370
   -1
100
AcDbLine
 10
-6.643340042805041
 20
4.12415492509119
 11
13.35665995719496
 21
4.124154925091172
  0
MTEXT
  5
144
100
AcDbEntity
  8
Symbole(DIN)
  6
ByLayer
 62
    7
370
   -1
100
AcDbMText
 10
-6.476606384140213
 20
3.265635088166192
 30
0
 40
2.5
 41
20.90277750000016
 71
    1
 72
    1
  1
Rz 16 (Rz 4)
  7
aktuell-din
210
0
220
0
230
1
 50
0
 73
    1
 44
1
  0
ENDBLK
  5
8B
330
89
100
AcDbEntity
  8
0
100
AcDbBlockEnd
  0
BLOCK
  5
8D
330
8C
100
AcDbEntity
  8
0
100
AcDbBlockBegin
  2
unbemaßte_Kanten 0_5
 70
    0
 10
0
 20
0
  3
unbemaßte_Kanten 0_5
  1

  0
MTEXT
  5
145
100
AcDbEntity
  8
Symbole(DIN)
  6
ByLayer
 62
    7
370
   -1
100
AcDbMText
 10
-25.81729110330343
 20
1.518673673272132
 30
0
 40
2.5
 41
124.9305568412758
 71
    1
 72
    1
  1
unbemaßte Kanten 0,5x45\fAIGDT|b0|i0;\H2.5000;~\fArial|b0|i0;\H2.5000; fasen
  7
aktuell-din
210
0
220
0
230
1
 50
0
 73
    1
 44
1
  0
ENDBLK
  5
8E
330
8C
100
AcDbEntity
  8
0
100
AcDbBlockEnd
  0
BLOCK
  5
90
330
8F
100
AcDbEntity
  8
0
100
AcDbBlockBegin
  2
unbemaßte_Kanten 1
 70
    0
 10
0
 20
0
  3
unbemaßte_Kanten 1
  1

  0
MTEXT
  5
146
100
AcDbEntity
  8
Symbole(DIN)
  6
ByLayer
 62
    7
370
   -1
100
AcDbMText
 10
-24.36149891465902
 20
1.291920635849237
 30
0
 40
2.5
 41
121.4583346190534
 71
    1
 72
    1
  1
unbemaßte Kanten 1x45\fAIGDT|b0|i0;\H2.5000;~\fArial|b0|i0;\H2.5000; fasen
  7
aktuell-din
210
0
220
0
230
1
 50
0
 73
    1
 44
1
  0
ENDBLK
  5
91
330
8F
100
AcDbEntity
  8
0
100
AcDbBlockEnd
  0
BLOCK
  5
93
330
92
100
AcDbEntity
  8
0
100
AcDbBlockBegin
  2
Schleifrichtung rund
 70
    0
 10
0
 20
0
  3
Schleifrichtung rund
  1

  0
HATCH
  5
147
100
AcDbEntity
  8
Schraffur
  6
ByLayer
 62
  179
420
2500185
370
   -1
100
AcDbHatch
 10
0
 20
0
 30
0
210
0
220
0
230
1
  2
SOLID
 70
    1
 71
    0
 91
    1
 92
    0
 93
    3
 72
    1
 10
2.685970543868814
 20
1.033598154028645
 11
1.500695516670456
 21
2.910062754248521
 72
    1
 10
1.500695516670456
 20
2.910062754248521
 11
0.8087002570814227
 21
2.218067494659514
 72
    1
 10
0.8087002570814227
 20
2.218067494659514
 11
2.685970543868814
 21
1.033598154028645
 97
    0
 75
    0
 76
    1
 98
    0
  0
HATCH
  5
148
100
AcDbEntity
  8
Schraffur
  6
ByLayer
 62
  179
420
2500185
370
   -1
100
AcDbHatch
 10
0
 20
0
 30
0
210
0
220
0
230
1
  2
SOLID
 70
    1
 71
    0
 91
    1
 92
    0
 93
    3
 72
    1
 10
2.746159792612967
 20
-0.9654959543953012
 11
0.9437208322689283
 21
-2.260567411965119
 72
    1
 10
0.9437208322689283
 20
-2.260567411965119
 11
1.675752716096035
 21
-2.910062754248556
 72
    1
 10
1.675752716096035
 20
-2.910062754248556
 11
2.746159792612967
 21
-0.9654959543953012
 97
    0
 75
    0
 76
    1
 98
    0
  0
LINE
  5
149
100
AcDbEntity
  8
Skizziergeometrie(DIN)
  6
ByLayer
 62
  256
370
   -1
100
AcDbLine
 10
2.685970543868814
 20
1.033598154028645
 11
1.500695516670456
 21
2.910062754248521
  0
LINE
  5
14A
100
AcDbEntity
  8
Skizziergeometrie(DIN)
  6
ByLayer
 62
  256
370
   -1
100
AcDbLine
 10
1.500695516670456
 20
2.910062754248521
 11
0.8087002570814227
 21
2.218067494659514
  0
LINE
  5
14B
100
AcDbEntity
  8
Skizziergeometrie(DIN)
  6
ByLayer
 62
  256
370
   -1
100
AcDbLine
 10
0.8087002570814227
 20
2.218067494659514
 11
2.685970543868814
 21
1.033598154028645
  0
LINE
  5
14C
100
AcDbEntity
  8
Skizziergeometrie(DIN)
  6
ByLayer
 62
  256
370
   -1
100
AcDbLine
 10
2.746159792612967
 20
-0.9654959543953012
 11
1.675752716096035
 21
-2.910062754248556
  0
LINE
  5
14D
100
AcDbEntity
  8
Skizziergeometrie(DIN)
  6
ByLayer
 62
  256
370
   -1
100
AcDbLine
 10
1.675752716096035
 20
-2.910062754248556
 11
0.9437208322689283
 21
-2.260567411965119
  0
LINE
  5
14E
100
AcDbEntity
  8
Skizziergeometrie(DIN)
  6
ByLayer
 62
  256
370
   -1
100
AcDbLine
 10
0.9437208322689283
 20
-2.260567411965119
 11
2.746159792612967
 21
-0.9654959543953012
  0
ARC
  5
14F
100
AcDbEntity
  8
Skizziergeometrie (ISO)
  6
ByLayer
 62
  256
370
   -1
100
AcDbCircle
 10
0.07706842498974351
 20
-0.0454045049720975
 40
2.823228117602702
100
AcDbArc
 50
67.56090338518598
 51
295.8882073090315
  0
ENDBLK
  5
94
330
92
100
AcDbEntity
  8
0
100
AcDbBlockEnd
  0
BLOCK
  5
96
330
95
100
AcDbEntity
  8
0
100
AcDbBlockBegin
  2
Prototyp
 70
    0
 10
0
 20
0
  3
Prototyp
  1

  0
MTEXT
  5
150
100
AcDbEntity
  8
Symbol (ISO)
  6
ByLayer
 62
    1
370
   -1
100
AcDbMText
 10
-38.43368768692016
 20
5.167682543396949
 30
0
 40
10
 41
232.2222222222232
 71
    1
 72
    1
  1
\fArial|b1|i0;\H10.0000;\LPROTOTYP\l
  7
notiztext (din)
210
0
220
0
230
1
 50
0
 73
    1
 44
1
  0
ENDBLK
  5
97
330
95
100
AcDbEntity
  8
0
100
AcDbBlockEnd
  0
BLOCK
  5
99
330
98
100
AcDbEntity
  8
0
100
AcDbBlockBegin
  2
Freigabe
 70
    0
 10
0
 20
0
  3
Freigabe
  1

  0
MTEXT
  5
151
100
AcDbEntity
  8
Symbole(DIN)
  6
ByLayer
 62
    7
370
   -1
100
AcDbMText
 10
-44.64234352111816
 20
18.7593937292695
 30
0
 40
3.499999940395355
 41
191.6249967366486
 71
    1
 72
    1
  1
\fArial|b1|i0;\H3.5000;\LWir bitten um Freigabe zur Fertigung:\l\fArial|b1|i0;\H3.5000;\P\fArial|b0|i0;\H3.5000; \PDatum:___________________________\P \PName: ___________________________\P \PUnterschrift:_______________________
  7
aktuell-din
210
0
220
0
230
1
 50
0
 73
    2
 44
0.9442214965820312
  0
ENDBLK
  5
9A
330
98
100
AcDbEntity
  8
0
100
AcDbBlockEnd
  0
BLOCK
  5
9C
330
9B
100
AcDbEntity
  8
0
100
AcDbBlockBegin
  2
Freigabe(Englisch)
 70
    0
 10
0
 20
0
  3
Freigabe(Englisch)
  1

  0
MTEXT
  5
152
100
AcDbEntity
  8
Symbole(DIN)
  6
ByLayer
 62
    7
370
   -1
100
AcDbMText
 10
-44.64234352111816
 20
18.75806000083685
 30
0
 40
3.499999940395355
 41
161.6805528021524
 71
    1
 72
    1
  1
\fArial|b1|i0;\H3.5000;\LWe ask for release for our production:\P\l\fArial|b0|i0;\H3.5000; \PDate:___________________________\P \PName: ___________________________\P \PSignature:_______________________
  7
aktuell-din
210
0
220
0
230
1
 50
0
 73
    2
 44
0.9442214965820312
  0
ENDBLK
  5
9D
330
9B
100
AcDbEntity
  8
0
100
AcDbBlockEnd
  0
BLOCK
  5
9F
330
9E
100
AcDbEntity
  8
0
100
AcDbBlockBegin
  2
Freigabe(Französisch)
 70
    0
 10
0
 20
0
  3
Freigabe(Französisch)
  1

  0
MTEXT
  5
153
100
AcDbEntity
  8
Symbole(DIN)
  6
ByLayer
 62
    7
370
   -1
100
AcDbMText
 10
-59.52934741973876
 20
18.78740441054105
 30
0
 40
3.499999940395355
 41
171.4027802588235
 71
    1
 72
    1
  1
\fArial|b1|i0;\H3.5000;\LNous demandons l'autorisation pour la production:\P\l\fArial|b0|i0;\H3.5000; \PDate:___________________________\P \PNom: ___________________________\P \PSignature:_______________________
  7
aktuell-din
210
0
220
0
230
1
 50
0
 73
    2
 44
0.9442214965820312
  0
ENDBLK
  5
A0
330
9E
100
AcDbEntity
  8
0
100
AcDbBlockEnd
  0
BLOCK
  5
A2
330
A1
100
AcDbEntity
  8
0
100
AcDbBlockBegin
  2
Freigabe(Spanisch)
 70
    0
 10
0
 20
0
  3
Freigabe(Spanisch)
  1

  0
MTEXT
  5
154
100
AcDbEntity
  8
Symbole(DIN)
  6
ByLayer
 62
    7
370
   -1
100
AcDbMText
 10
-46.81517124176025
 20
18.71937859803438
 30
0
 40
3.499999940395355
 41
166.7361082716124
 71
    1
 72
    1
  1
\fArial|b1|i0;\H3.5000;\LPor favor, dénos permiso para producir:\P\l\fArial|b0|i0;\H3.5000; \PFecha:___________________________\P \PNombre: ___________________________\P \PFirma:_______________________
  7
aktuell-din
210
0
220
0
230
1
 50
0
 73
    2
 44
0.9442214965820312
  0
ENDBLK
  5
A3
330
A1
100
AcDbEntity
  8
0
100
AcDbBlockEnd
  0
BLOCK
  5
A5
330
A4
100
AcDbEntity
  8
0
100
AcDbBlockBegin
  2
Schleifrichtung 30°
 70
    0
 10
0
 20
0
  3
Schleifrichtung 30°
  1

  0
MTEXT
  5
155
100
AcDbEntity
  8
Symbol (ISO)
  6
ByLayer
 62
  256
370
   -1
100
AcDbMText
 10
-1.291992841288447
 20
2.237797244126866
 30
0
 40
2.000000029802322
 41
45.77777803591607
 71
    2
 72
    1
  1
\fAIGDT|b0|i0;\H2.0000;#\P\fArial|b0|i0;\H2.0000;Schleifrichtung
  7
notiztext (din)
210
0
220
0
230
1
 50
29.99999999999999
 73
    2
 44
0.75
  0
ENDBLK
  5
A6
330
A4
100
AcDbEntity
  8
0
100
AcDbBlockEnd
  0
BLOCK
  5
A8
330
A7
100
AcDbEntity
  8
0
100
AcDbBlockBegin
  2
Schleifrichtung 60°
 70
    0
 10
0
 20
0
  3
Schleifrichtung 60°
  1

  0
MTEXT
  5
156
100
AcDbEntity
  8
Symbol (ISO)
  6
ByLayer
 62
  256
370
   -1
100
AcDbMText
 10
-2.237797244126848
 20
1.291992841288447
 30
0
 40
2.000000029802322
 41
45.77777803591607
 71
    2
 72
    1
  1
\fAIGDT|b0|i0;\H2.0000;#\P\fArial|b0|i0;\H2.0000;Schleifrichtung
  7
notiztext (din)
210
0
220
0
230
1
 50
60.00000000000005
 73
    2
 44
0.75
  0
ENDBLK
  5
A9
330
A7
100
AcDbEntity
  8
0
100
AcDbBlockEnd
  0
BLOCK
  5
AB
330
AA
100
AcDbEntity
  8
0
100
AcDbBlockBegin
  2
Schleifrichtung 40°
 70
    0
 10
0
 20
0
  3
Schleifrichtung 40°
  1

  0
MTEXT
  5
157
100
AcDbEntity
  8
Symbol (ISO)
  6
ByLayer
 62
  256
370
   -1
100
AcDbMText
 10
-1.660953980367843
 20
1.979447873236992
 30
0
 40
2.000000029802322
 41
45.77777803591607
 71
    2
 72
    1
  1
\fAIGDT|b0|i0;\H2.0000;#\P\fArial|b0|i0;\H2.0000;Schleifrichtung
  7
notiztext (din)
210
0
220
0
230
1
 50
39.99999999999999
 73
    2
 44
0.75
  0
ENDBLK
  5
AC
330
AA
100
AcDbEntity
  8
0
100
AcDbBlockEnd
  0
BLOCK
  5
AE
330
AD
100
AcDbEntity
  8
0
100
AcDbBlockBegin
  2
Schleifrichtung 90°
 70
    0
 10
0
 20
0
  3
Schleifrichtung 90°
  1

  0
MTEXT
  5
158
100
AcDbEntity
  8
Symbol (ISO)
  6
ByLayer
 62
  256
370
   -1
100
AcDbMText
 10
-2.583985682576894
 20
0
 30
0
 40
2.000000029802322
 41
45.77777803591607
 71
    2
 72
    1
  1
\fAIGDT|b0|i0;\H2.0000;#\P\fArial|b0|i0;\H2.0000;Schleifrichtung
  7
notiztext (din)
210
0
220
0
230
1
 50
89.99999999999991
 73
    2
 44
0.75
  0
ENDBLK
  5
AF
330
AD
100
AcDbEntity
  8
0
100
AcDbBlockEnd
  0
BLOCK
  5
B1
330
B0
100
AcDbEntity
  8
0
100
AcDbBlockBegin
  2
Schleifrichtung 20°
 70
    0
 10
0
 20
0
  3
Schleifrichtung 20°
  1

  0
MTEXT
  5
159
100
AcDbEntity
  8
Symbol (ISO)
  6
ByLayer
 62
  256
370
   -1
100
AcDbMText
 10
-0.8837751535064342
 20
2.428152278134021
 30
0
 40
2.000000029802322
 41
45.77777803591607
 71
    2
 72
    1
  1
\fAIGDT|b0|i0;\H2.0000;#\P\fArial|b0|i0;\H2.0000;Schleifrichtung
  7
notiztext (din)
210
0
220
0
230
1
 50
20.00000000000012
 73
    2
 44
0.75
  0
ENDBLK
  5
B2
330
B0
100
AcDbEntity
  8
0
100
AcDbBlockEnd
  0
BLOCK
  5
B4
330
B3
100
AcDbEntity
  8
0
100
AcDbBlockBegin
  2
Schleifrichtung 15°
 70
    0
 10
0
 20
0
  3
Schleifrichtung 15°
  1

  0
MTEXT
  5
15A
100
AcDbEntity
  8
Symbol (ISO)
  6
ByLayer
 62
  256
370
   -1
100
AcDbMText
 10
-0.6687847069231267
 20
2.495938505562165
 30
0
 40
2.000000029802322
 41
45.77777803591607
 71
    2
 72
    1
  1
\fAIGDT|b0|i0;\H2.0000;#\P\fArial|b0|i0;\H2.0000;Schleifrichtung
  7
notiztext (din)
210
0
220
0
230
1
 50
15.00000000000012
 73
    2
 44
0.75
  0
ENDBLK
  5
B5
330
B3
100
AcDbEntity
  8
0
100
AcDbBlockEnd
  0
BLOCK
  5
B7
330
B6
100
AcDbEntity
  8
0
100
AcDbBlockBegin
  2
Schleifrichtung -30°
 70
    0
 10
0
 20
0
  3
Schleifrichtung -30°
  1

  0
MTEXT
  5
15B
100
AcDbEntity
  8
Symbol (ISO)
  6
ByLayer
 62
  256
370
   -1
100
AcDbMText
 10
1.291992841288447
 20
2.237797244126795
 30
0
 40
2.000000029802322
 41
45.77777803591607
 71
    2
 72
    1
  1
\fAIGDT|b0|i0;\H2.0000;#\P\fArial|b0|i0;\H2.0000;Schleifrichtung
  7
notiztext (din)
210
0
220
0
230
1
 50
-30.00000000000004
 73
    2
 44
0.75
  0
ENDBLK
  5
B8
330
B6
100
AcDbEntity
  8
0
100
AcDbBlockEnd
  0
BLOCK
  5
BA
330
B9
100
AcDbEntity
  8
0
100
AcDbBlockBegin
  2
Schleifrichtung -15°
 70
    0
 10
0
 20
0
  3
Schleifrichtung -15°
  1

  0
MTEXT
  5
15C
100
AcDbEntity
  8
Symbol (ISO)
  6
ByLayer
 62
  256
370
   -1
100
AcDbMText
 10
0.6687847069231267
 20
2.495938505562236
 30
0
 40
2.000000029802322
 41
45.77777803591607
 71
    2
 72
    1
  1
\fAIGDT|b0|i0;\H2.0000;#\P\fArial|b0|i0;\H2.0000;Schleifrichtung
  7
notiztext (din)
210
0
220
0
230
1
 50
-14.9999999999998
 73
    2
 44
0.75
  0
ENDBLK
  5
BB
330
B9
100
AcDbEntity
  8
0
100
AcDbBlockEnd
  0
BLOCK
  5
BD
330
BC
100
AcDbEntity
  8
0
100
AcDbBlockBegin
  2
Schleifrichtung -40°
 70
    0
 10
0
 20
0
  3
Schleifrichtung -40°
  1

  0
MTEXT
  5
15D
100
AcDbEntity
  8
Symbol (ISO)
  6
ByLayer
 62
  256
370
   -1
100
AcDbMText
 10
1.660953980367843
 20
1.979447873236992
 30
0
 40
2.000000029802322
 41
45.77777803591607
 71
    2
 72
    1
  1
\fAIGDT|b0|i0;\H2.0000;#\P\fArial|b0|i0;\H2.0000;Schleifrichtung
  7
notiztext (din)
210
0
220
0
230
1
 50
-40.00000000000016
 73
    2
 44
0.75
  0
ENDBLK
  5
BE
330
BC
100
AcDbEntity
  8
0
100
AcDbBlockEnd
  0
BLOCK
  5
C0
330
BF
100
AcDbEntity
  8
0
100
AcDbBlockBegin
  2
Schleifrichtung -60°
 70
    0
 10
0
 20
0
  3
Schleifrichtung -60°
  1

  0
MTEXT
  5
15E
100
AcDbEntity
  8
Symbol (ISO)
  6
ByLayer
 62
  256
370
   -1
100
AcDbMText
 10
2.237797244126848
 20
1.291992841288447
 30
0
 40
2.000000029802322
 41
45.77777803591607
 71
    2
 72
    1
  1
\fAIGDT|b0|i0;\H2.0000;#\P\fArial|b0|i0;\H2.0000;Schleifrichtung
  7
notiztext (din)
210
0
220
0
230
1
 50
-59.99999999999974
 73
    2
 44
0.75
  0
ENDBLK
  5
C1
330
BF
100
AcDbEntity
  8
0
100
AcDbBlockEnd
  0
BLOCK
  5
C3
330
C2
100
AcDbEntity
  8
0
100
AcDbBlockBegin
  2
Schleifrichtung -50°
 70
    0
 10
0
 20
0
  3
Schleifrichtung -50°
  1

  0
MTEXT
  5
15F
100
AcDbEntity
  8
Symbol (ISO)
  6
ByLayer
 62
  256
370
   -1
100
AcDbMText
 10
1.979447873237027
 20
1.660953980367807
 30
0
 40
2.000000029802322
 41
45.77777803591607
 71
    2
 72
    1
  1
\fAIGDT|b0|i0;\H2.0000;#\P\fArial|b0|i0;\H2.0000;Schleifrichtung
  7
notiztext (din)
210
0
220
0
230
1
 50
-49.99999999999986
 73
    2
 44
0.75
  0
ENDBLK
  5
C4
330
C2
100
AcDbEntity
  8
0
100
AcDbBlockEnd
  0
BLOCK
  5
C6
330
C5
100
AcDbEntity
  8
0
100
AcDbBlockBegin
  2
Flächen Galvanik
 70
    0
 10
0
 20
0
  3
Flächen Galvanik
  1

  0
MTEXT
  5
160
100
AcDbEntity
  8
Symbol (ISO)
  6
ByLayer
 62
    8
370
   -1
100
AcDbMText
 10
-70.91235160827635
 20
11.89210736808782
 30
0
 40
6.99999988079071
 41
179.4722176818141
 71
    1
 72
    1
  1
\fArial|b1|i0;\H7.0000;FLÄCHE SCHLEIFEN!\P
  7
notiztext (din)
210
0
220
0
230
1
 50
0
 73
    2
 44
0.8571428656578063
  0
MTEXT
  5
161
100
AcDbEntity
  8
Symbol (ISO)
  6
ByLayer
 62
    1
370
   -1
100
AcDbMText
 10
-70.91235160827635
 20
3.200806027419123
 30
0
 40
6.99999988079071
 41
219.7222184803757
 71
    1
 72
    1
  1
\fArial|b1|i0;\H7.0000;FLÄCHE NICHT BEARBEITEN!
  7
notiztext (din)
210
0
220
0
230
1
 50
0
 73
    1
 44
1
  0
MTEXT
  5
162
100
AcDbEntity
  8
Symbol (ISO)
  6
ByLayer
 62
    5
370
   -1
100
AcDbMText
 10
-70.91235160827635
 20
-8.518632516837172
 30
0
 40
5
 41
185.6944444444452
 71
    1
 72
    1
  1
\fArial|b0|i0;\H5.0000;ACHTUNG! ALLE KANTEN GRATFREI!
  7
notiztext (din)
210
0
220
0
230
1
 50
0
 73
    1
 44
1
  0
ENDBLK
  5
C7
330
C5
100
AcDbEntity
  8
0
100
AcDbBlockEnd
  0
BLOCK
  5
C9
330
C8
100
AcDbEntity
  8
0
100
AcDbBlockBegin
  2
Duschenglas 8mm
 70
    0
 10
0
 20
0
  3
Duschenglas 8mm
  1

  0
MTEXT
  5
163
100
AcDbEntity
  8
Symbol (ISO)
  6
ByLayer
 62
    5
370
   -1
100
AcDbMText
 10
-45.90224742889404
 20
7.150431517511606
 30
0
 40
2.5
 41
97.84722398587674
 71
    1
 72
    1
  1
ESG 8mm klar gefertigt nach DIN EN14428 (Duschenglas).\PEin entsprechender Nachweis (Stempel) ist erforderlich.\PKanten umlaufend geschliffen und poliert.\PAlle Ecken stoßen oder leicht runden.
  7
notiztext (din)
210
0
220
0
230
1
 50
0
 73
    2
 44
0.9442214965820312
  0
ENDBLK
  5
CA
330
C8
100
AcDbEntity
  8
0
100
AcDbBlockEnd
  0
BLOCK
  5
CC
330
CB
100
AcDbEntity
  8
0
100
AcDbBlockBegin
  2
Außerhalb der AbZ 85
 70
    0
 10
0
 20
0
  3
Außerhalb der AbZ 85
  1

  0
MTEXT
  5
164
100
AcDbEntity
  8
Symbol (ISO)
  6
ByLayer
 62
  256
370
   -1
100
AcDbMText
 10
-61.90739154815673
 20
2.585746762342751
 30
0
 40
5
 41
204.4444444444475
 71
    1
 72
    1
  1
\fArial|b1|i0;\H5.0000;\LVordach außerhalb der AbZ Z-70.3-85
  7
notiztext (din)
210
0
220
0
230
1
 50
0
 73
    1
 44
1
  0
ENDBLK
  5
CD
330
CB
100
AcDbEntity
  8
0
100
AcDbBlockEnd
  0
BLOCK
  5
CF
330
CE
100
AcDbEntity
  8
0
100
AcDbBlockBegin
  2
Duschenglas 6mm
 70
    0
 10
0
 20
0
  3
Duschenglas 6mm
  1

  0
MTEXT
  5
165
100
AcDbEntity
  8
Symbol (ISO)
  6
ByLayer
 62
    5
370
   -1
100
AcDbMText
 10
-45.90224742889404
 20
7.150431517511606
 30
0
 40
2.5
 41
97.84722398587689
 71
    1
 72
    1
  1
ESG 6mm klar gefertigt nach DIN EN14428 (Duschenglas).\PEin entsprechender Nachweis (Stempel) ist erforderlich.\PKanten umlaufend geschliffen und poliert.\PAlle Ecken stoßen oder leicht runden.
  7
notiztext (din)
210
0
220
0
230
1
 50
0
 73
    2
 44
0.9442214965820312
  0
ENDBLK
  5
D0
330
CE
100
AcDbEntity
  8
0
100
AcDbBlockEnd
  0
BLOCK
  5
D2
330
D1
100
AcDbEntity
  8
0
100
AcDbBlockBegin
  2
unbemaßte Kanten R_0_2 runden
 70
    0
 10
0
 20
0
  3
unbemaßte Kanten R_0_2 runden
  1

  0
MTEXT
  5
166
100
AcDbEntity
  8
Symbol (ISO)
  6
ByLayer
 62
  256
370
   -1
100
AcDbMText
 10
-25.96322298049927
 20
1.518673673272132
 30
0
 40
2.5
 41
54.93055555555673
 71
    1
 72
    1
  1
unbemaßte Kanten R=0,2 runden
  7
notiztext (din)
210
0
220
0
230
1
 50
0
 73
    1
 44
1
  0
ENDBLK
  5
D3
330
D1
100
AcDbEntity
  8
0
100
AcDbBlockEnd
  0
BLOCK
  5
D5
330
D4
100
AcDbEntity
  8
0
100
AcDbBlockBegin
  2
Prüfzertifikat nach DIN EN 10204 (3.1) erforderlich
 70
    0
 10
0
 20
0
  3
Prüfzertifikat nach DIN EN 10204 (3.1) erforderlich
  1

  0
MTEXT
  5
167
100
AcDbEntity
  8
Symbol (ISO)
  6
ByLayer
 62
  256
370
   -1
100
AcDbMText
 10
-39.00819301605224
 20
1.638719402253627
 30
0
 40
2.5
 41
86.80555527777867
 71
    1
 72
    1
  1
Prüfzertifikat nach DIN EN 10204 (3.1) erforderlich
  7
notiztext (din)
210
0
220
0
230
1
 50
0
 73
    1
 44
1
  0
ENDBLK
  5
D6
330
D4
100
AcDbEntity
  8
0
100
AcDbBlockEnd
  0
BLOCK
  5
D8
330
D7
100
AcDbEntity
  8
0
100
AcDbBlockBegin
  2
Reinigen
 70
    0
 10
0
 20
0
  3
Reinigen
  1

  0
MTEXT
  5
168
100
AcDbEntity
  8
Symbol (ISO)
  6
ByLayer
 62
  256
370
   -1
100
AcDbMText
 10
-53.57374191284179
 20
3.583934530615806
 30
0
 40
2.5
 41
119.5138914603266
 71
    1
 72
    1
  1
Nach der Bearbeitung von Dreh- und Frästeilen müssen \PBearbeitungsöle und -emulsionen von den Bauteilen entfernt werden.
  7
notiztext (din)
210
0
220
0
230
1
 50
0
 73
    2
 44
0.9442214965820312
  0
ENDBLK
  5
D9
330
D7
100
AcDbEntity
  8
0
100
AcDbBlockEnd
  0
BLOCK
  5
DB
330
DA
100
AcDbEntity
  8
0
100
AcDbBlockBegin
  2
Schleifrichtung rund-2
 70
    0
 10
0
 20
0
  3
Schleifrichtung rund-2
  1

  0
HATCH
  5
169
100
AcDbEntity
  8
Schraffur (ISO)
  6
ByLayer
 62
  156
420
16512
370
   -1
100
AcDbHatch
 10
0
 20
0
 30
0
210
0
220
0
230
1
  2
SOLID
 70
    1
 71
    0
 91
    1
 92
    0
 93
    3
 72
    1
 10
-10.47794571960972
 20
20.90644694881277
 11
-6.849893015193186
 21
13.46116476233097
 72
    1
 10
-6.849893015193186
 20
13.46116476233097
 11
-3.613318818075255
 21
16.27266978918406
 72
    1
 10
-3.613318818075255
 20
16.27266978918406
 11
-10.47794571960972
 21
20.90644694881277
 97
    0
 75
    0
 76
    1
 98
    0
  0
HATCH
  5
16A
100
AcDbEntity
  8
Schraffur (ISO)
  6
ByLayer
 62
    7
370
   -1
100
AcDbHatch
 10
0
 20
0
 30
0
210
0
220
0
230
1
  2
SOLID
 70
    1
 71
    0
 91
    1
 92
    0
 93
    3
 72
    1
 10
8.373591724927785
 20
-13.05289092354922
 11
9.897290434662391
 21
-20.90644694881275
 72
    1
 10
9.897290434662391
 20
-20.90644694881275
 11
10.47794571960972
 21
-12.6446170847675
 72
    1
 10
10.47794571960972
 20
-12.6446170847675
 11
8.373591724927785
 21
-13.05289092354922
 97
    0
 75
    0
 76
    1
 98
    0
  0
HATCH
  5
16B
100
AcDbEntity
  8
Schraffur (ISO)
  6
ByLayer
 62
    7
370
   -1
100
AcDbHatch
 10
0
 20
0
 30
0
210
0
220
0
230
1
  2
SOLID
 70
    1
 71
    0
 91
    1
 92
    0
 93
    3
 72
    1
 10
8.373591724927785
 20
-13.05289092354922
 11
6.269237730245844
 21
-13.46116476233096
 72
    1
 10
6.269237730245844
 20
-13.46116476233096
 11
9.897290434662391
 21
-20.90644694881275
 72
    1
 10
9.897290434662391
 20
-20.90644694881275
 11
8.373591724927785
 21
-13.05289092354922
 97
    0
 75
    0
 76
    1
 98
    0
  0
HATCH
  5
16C
100
AcDbEntity
  8
Schraffur (ISO)
  6
ByLayer
 62
    7
370
   -1
100
AcDbHatch
 10
0
 20
0
 30
0
210
0
220
0
230
1
  2
SOLID
 70
    1
 71
    0
 91
    1
 92
    0
 93
    3
 72
    1
 10
-5.231605916634229
 20
14.86691727575753
 11
-10.47794571960972
 21
20.90644694881277
 72
    1
 10
-10.47794571960972
 20
20.90644694881277
 11
-6.849893015193186
 21
13.46116476233097
 72
    1
 10
-6.849893015193186
 20
13.46116476233097
 11
-5.231605916634229
 21
14.86691727575753
 97
    0
 75
    0
 76
    1
 98
    0
  0
HATCH
  5
16D
100
AcDbEntity
  8
Schraffur (ISO)
  6
ByLayer
 62
    7
370
   -1
100
AcDbHatch
 10
0
 20
0
 30
0
210
0
220
0
230
1
  2
SOLID
 70
    1
 71
    0
 91
    1
 92
    0
 93
    3
 72
    1
 10
-5.231605916634229
 20
14.86691727575753
 11
-3.613318818075255
 21
16.27266978918406
 72
    1
 10
-3.613318818075255
 20
16.27266978918406
 11
-10.47794571960972
 21
20.90644694881277
 72
    1
 10
-10.47794571960972
 20
20.90644694881277
 11
-5.231605916634229
 21
14.86691727575753
 97
    0
 75
    0
 76
    1
 98
    0
  0
ARC
  5
16E
100
AcDbEntity
  8
Skizziergeometrie (ISO)
  6
ByLayer
 62
  256
370
   -1
100
AcDbCircle
 10
-50.5280784645487
 20
-24.48063124655874
 40
60
100
AcDbArc
 50
10.97976698014274
 51
40.9797669801427
  0
LINE
  5
16F
100
AcDbEntity
  8
Skizziergeometrie (ISO)
  6
ByLayer
 62
  256
370
   -1
100
AcDbLine
 10
-5.231605916634229
 20
14.86691727575753
 11
-10.47794571960972
 21
20.90644694881277
  0
LINE
  5
170
100
AcDbEntity
  8
Skizziergeometrie (ISO)
  6
ByLayer
 62
  256
370
   -1
100
AcDbLine
 10
-10.47794571960972
 20
20.90644694881277
 11
-6.849893015193186
 21
13.46116476233097
  0
LINE
  5
171
100
AcDbEntity
  8
Skizziergeometrie (ISO)
  6
ByLayer
 62
  256
370
   -1
100
AcDbLine
 10
-6.849893015193186
 20
13.46116476233097
 11
-3.613318818075255
 21
16.27266978918406
  0
LINE
  5
172
100
AcDbEntity
  8
Skizziergeometrie (ISO)
  6
ByLayer
 62
  256
370
   -1
100
AcDbLine
 10
-3.613318818075255
 20
16.27266978918406
 11
-10.47794571960972
 21
20.90644694881277
  0
LINE
  5
173
100
AcDbEntity
  8
Skizziergeometrie (ISO)
  6
ByLayer
 62
  256
370
   -1
100
AcDbLine
 10
8.373591724927785
 20
-13.05289092354922
 11
9.897290434662391
 21
-20.90644694881275
  0
LINE
  5
174
100
AcDbEntity
  8
Skizziergeometrie (ISO)
  6
ByLayer
 62
  256
370
   -1
100
AcDbLine
 10
9.897290434662391
 20
-20.90644694881275
 11
6.269237730245844
 21
-13.46116476233096
  0
LINE
  5
175
100
AcDbEntity
  8
Skizziergeometrie (ISO)
  6
ByLayer
 62
  256
370
   -1
100
AcDbLine
 10
6.269237730245844
 20
-13.46116476233096
 11
10.47794571960972
 21
-12.6446170847675
  0
LINE
  5
176
100
AcDbEntity
  8
Skizziergeometrie (ISO)
  6
ByLayer
 62
  256
370
   -1
100
AcDbLine
 10
10.47794571960972
 20
-12.6446170847675
 11
9.897290434662391
 21
-20.90644694881275
  0
ENDBLK
  5
DC
330
DA
100
AcDbEntity
  8
0
100
AcDbBlockEnd
  0
BLOCK
  5
DE
330
DD
100
AcDbEntity
  8
0
100
AcDbBlockBegin
  2
EPDM-washer
 70
    0
 10
0
 20
0
  3
EPDM-washer
  1

  0
MTEXT
  5
177
100
AcDbEntity
  8
Symbole(DIN)
  6
ByLayer
 62
    7
370
   -1
100
AcDbMText
 10
-11.25666856765747
 20
1.270007696002721
 30
0
 40
2.5
 41
21.94444573016283
 71
    1
 72
    1
  1
EPDM-washer
  7
aktuell-din
210
0
220
0
230
1
 50
0
 73
    1
 44
1
  0
ENDBLK
  5
DF
330
DD
100
AcDbEntity
  8
0
100
AcDbBlockEnd
  0
BLOCK
  5
E1
330
E0
100
AcDbEntity
  8
0
100
AcDbBlockBegin
  2
isometric view
 70
    0
 10
0
 20
0
  3
isometric view
  1

  0
MTEXT
  5
178
100
AcDbEntity
  8
Symbole(DIN)
  6
ByLayer
 62
    7
370
   -1
100
AcDbMText
 10
-10.96417665481567
 20
1.270007696002721
 30
0
 40
2.5
 41
23.263890174607
 71
    1
 72
    1
  1
isometric view
  7
aktuell-din
210
0
220
0
230
1
 50
0
 73
    1
 44
1
  0
ENDBLK
  5
E2
330
E0
100
AcDbEntity
  8
0
100
AcDbBlockEnd
  0
BLOCK
  5
E4
330
E3
100
AcDbEntity
  8
0
100
AcDbBlockBegin
  2
glazing
 70
    0
 10
0
 20
0
  3
glazing
  1

  0
MTEXT
  5
179
100
AcDbEntity
  8
Symbole(DIN)
  6
ByLayer
 62
    7
370
   -1
100
AcDbMText
 10
-5.532583594322204
 20
1.616806462407112
 30
0
 40
2.5
 41
10.83333333333391
 71
    1
 72
    1
  1
glazing
  7
aktuell-din
210
0
220
0
230
1
 50
0
 73
    1
 44
1
  0
ENDBLK
  5
E5
330
E3
100
AcDbEntity
  8
0
100
AcDbBlockEnd
  0
BLOCK
  5
E7
330
E6
100
AcDbEntity
  8
0
100
AcDbBlockBegin
  2
countersink screw EN ISO A2
 70
    0
 10
0
 20
0
  3
countersink screw EN ISO A2
  1

  0
MTEXT
  5
17A
100
AcDbEntity
  8
Symbole(DIN)
  6
ByLayer
 62
    7
370
   -1
100
AcDbMText
 10
-16.98551774024963
 20
5.20426383242011
 30
0
 40
2.5
 41
33.40277724777287
 71
    1
 72
    1
  1
countersink screw\PEN ISO 10642 M6x16\Pmaterial: A2
  7
aktuell-din
210
0
220
0
230
1
 50
0
 73
    2
 44
0.9442214965820312
  0
ENDBLK
  5
E8
330
E6
100
AcDbEntity
  8
0
100
AcDbBlockEnd
  0
BLOCK
  5
EA
330
E9
100
AcDbEntity
  8
0
100
AcDbBlockBegin
  2
cylinder head screw EN ISO A2
 70
    0
 10
0
 20
0
  3
cylinder head screw EN ISO A2
  1

  0
MTEXT
  5
17B
100
AcDbEntity
  8
Symbole(DIN)
  6
ByLayer
 62
    7
370
   -1
100
AcDbMText
 10
-16.01467132568359
 20
5.20426383242011
 30
0
 40
2.5
 41
33.47222350794068
 71
    1
 72
    1
  1
cylinder head screw\PEN ISO 4762 M8x20\Pmaterial: A2
  7
aktuell-din
210
0
220
0
230
1
 50
0
 73
    2
 44
0.9442214965820312
  0
ENDBLK
  5
EB
330
E9
100
AcDbEntity
  8
0
100
AcDbBlockEnd
  0
BLOCK
  5
ED
330
EC
100
AcDbEntity
  8
0
100
AcDbBlockBegin
  2
P+S glass clamp
 70
    0
 10
0
 20
0
  3
P+S glass clamp
  1

  0
MTEXT
  5
17C
100
AcDbEntity
  8
Symbole(DIN)
  6
ByLayer
 62
    7
370
   -1
100
AcDbMText
 10
-26.10899209976196
 20
3.277438879013061
 30
0
 40
5
 41
120.8333374161963
 71
    1
 72
    1
  1
\fArial|b0|i0;\H5.0000;P+S glass clamp
  7
aktuell-din
210
0
220
0
230
1
 50
0
 73
    1
 44
1
  0
ENDBLK
  5
EE
330
EC
100
AcDbEntity
  8
0
100
AcDbBlockEnd
  0
BLOCK
  5
F0
330
EF
100
AcDbEntity
  8
0
100
AcDbBlockBegin
  2
Ränder Datenblatt HF
 70
    0
 10
0
 20
0
  3
Ränder Datenblatt HF
  1

  0
HATCH
  5
17D
100
AcDbEntity
  8
Schraffur (ISO)
  6
ByLayer
 62
  176
420
  128
370
   -1
100
AcDbHatch
 10
0
 20
0
 30
0
210
0
220
0
230
1
  2
SOLID
 70
    1
 71
    0
 91
    1
 92
    0
 93
   12
 72
    1
 10
21.64919264909348
 20
273.9226618334263
 11
36.27840613223956
 21
273.9226618334263
 72
    1
 10
36.27840613223956
 20
273.9226618334263
 11
36.27840613223955
 21
275.652998912078
 72
    1
 10
36.27840613223956
 20
275.652998912078
 11
21.64919264909348
 21
275.652998912078
 72
    1
 10
21.64919264909348
 20
275.652998912078
 11
21.64919264909347
 21
283.8327741929769
 72
    1
 10
21.64919264909347
 20
283.8327741929769
 11
39.89638366032942
 21
283.8327741929769
 72
    2
 10
39.89638366032943
 20
280.8125494738757
 40
3.020224719101123
 50
269.9999999999999
 51
360
 73
    0
 72
    1
 10
42.91660837943055
 20
280.8125494738757
 11
42.91660837943055
 21
267.9033577566634
 72
    2
 10
43.73458590752045
 20
264.9960101480331
 40
3.020224719101123
 50
105.7138610480086
 51
163.3539600876059
 73
    1
 72
    1
 10
40.84093064947222
 20
265.8611786873589
 11
30.77278815471147
 21
265.8611786873589
 72
    1
 10
30.77278815471147
 20
265.8611786873589
 11
30.77278815471147
 21
255.8327741929769
 72
    1
 10
30.77278815471147
 20
255.8327741929769
 11
21.64919264909349
 21
255.8327741929769
 72
    1
 10
21.64919264909349
 20
255.8327741929769
 11
21.64919264909348
 21
273.9226618334263
 97
    0
 75
    0
 76
    1
 98
    0
  0
HATCH
  5
17E
100
AcDbEntity
  8
Schraffur (ISO)
  6
ByLayer
 62
  176
420
  128
370
   -1
100
AcDbHatch
 10
0
 20
0
 30
0
210
0
220
0
230
1
  2
SOLID
 70
    1
 71
    0
 91
    7
 92
    0
 93
    5
 72
    1
 10
32.12701466554184
 20
263.5016281255612
 11
35.05327809037777
 21
263.5016281255612
 72
    2
 10
43.73458590752046
 20
264.9960101480331
 40
8.808988764044944
 50
189.7670546724231
 51
260.5442573173641
 73
    1
 72
    1
 10
42.28739489628451
 20
256.3067109114968
 11
42.28739489628451
 21
254.5743472266848
 72
    1
 10
42.28739489628451
 20
254.5743472266848
 11
49.05979291950511
 21
254.5743472266848
 72
    2
 10
43.73458590752045
 20
264.9960101480331
 40
11.70337078651685
 50
62.93411299112493
 51
172.6639790354436
 73
    0
 97
    0
 92
    0
 93
    4
 72
    1
 10
37.81698864776881
 20
263.5016281255611
 11
40.40513827120988
 21
263.5016281255611
 72
    2
 10
43.73458590752045
 20
264.9960101480331
 40
3.649438202247192
 50
204.1723466493507
 51
246.6372136800011
 73
    1
 72
    1
 10
42.28739489628448
 20
261.6457806978283
 11
42.28739489628449
 21
259.0666954207896
 72
    2
 10
43.73458590752045
 20
264.9960101480331
 40
6.103370786516854
 50
103.7162334064305
 51
165.8273047785757
 73
    0
 97
    0
 92
    0
 93
    1
 72
    2
 10
37.68100599954401
 20
260.6429896864395
 40
1.006741573033707
 50
0
 51
360
 73
    1
 97
    0
 92
    0
 93
    1
 72
    2
 10
39.39268050424541
 20
258.9344530617458
 40
1.006741573033707
 50
0
 51
360
 73
    1
 97
    0
 92
    0
 93
    1
 72
    2
 10
36.60620875077735
 20
262.8094932941005
 40
1.006741573033707
 50
0
 51
360
 73
    1
 97
    0
 92
    0
 93
    1
 72
    2
 10
41.56115261314162
 20
257.8636329457117
 40
1.006741573033707
 50
0
 51
360
 73
    1
 97
    0
 92
    0
 93
    5
 72
    1
 10
42.91660837943057
 20
255.2035607098309
 11
51.5379247836656
 21
255.2035607098308
 72
    2
 10
43.73458590752045
 20
264.9960101480331
 40
12.52134831460674
 50
51.44960366290071
 51
176.0379639051249
 73
    0
 72
    1
 10
31.24316296958957
 20
264.1308416087071
 11
40.84093064947222
 21
264.1308416087071
 72
    2
 10
43.73458590752045
 20
264.9960101480331
 40
3.020224719101123
 50
196.6460399123941
 51
254.2861389519914
 73
    1
 72
    1
 10
42.91660837943056
 20
262.0886625394025
 11
42.91660837943057
 21
255.2035607098308
 97
    0
 75
    0
 76
    1
 98
    0
  0
HATCH
  5
17F
100
AcDbEntity
  8
Schraffur (ISO)
  6
ByLayer
 62
  176
420
  128
370
   -1
100
AcDbHatch
 10
0
 20
0
 30
0
210
0
220
0
230
1
  2
SOLID
 70
    1
 71
    0
 91
    1
 92
    0
 93
   17
 72
    1
 10
44.55256343561035
 20
262.0886625394025
 11
44.55256343561035
 21
255.8327741929769
 72
    1
 10
44.55256343561034
 20
255.8327741929769
 11
62.61099040190249
 21
255.8327741929769
 72
    2
 10
62.61099040190249
 20
258.852998912078
 40
3.020224719101123
 50
270
 51
360
 73
    1
 72
    1
 10
65.63121512100362
 20
258.852998912078
 11
65.63121512100361
 21
270.9024371143252
 72
    2
 10
62.61099040190249
 20
270.9024371143252
 40
3.020224719101123
 50
0
 51
90
 73
    1
 72
    1
 10
62.61099040190249
 20
273.9226618334263
 11
52.69332748055415
 21
273.9226618334263
 72
    1
 10
52.69332748055415
 20
273.9226618334263
 11
52.69332748055415
 21
275.652998912078
 72
    1
 10
52.69332748055415
 20
275.652998912078
 11
65.63121512100361
 21
275.652998912078
 72
    1
 10
65.63121512100361
 20
275.652998912078
 11
65.63121512100359
 21
283.832774192977
 72
    1
 10
65.63121512100359
 20
283.8327741929769
 11
47.57278815471145
 21
283.8327741929768
 72
    2
 10
47.57278815471145
 20
280.8125494738757
 40
3.020224719101123
 50
90
 51
180
 73
    1
 72
    1
 10
44.55256343561033
 20
280.8125494738757
 11
44.55256343561034
 21
267.9033577566635
 72
    2
 10
43.73458590752045
 20
264.9960101480331
 40
3.020224719101123
 50
285.7138610480081
 51
343.3539600876073
 73
    0
 72
    1
 10
46.62824116556871
 20
265.8611786873589
 11
56.38177691875639
 21
265.861178687359
 72
    1
 10
56.3817769187564
 20
265.861178687359
 11
56.3817769187564
 21
264.1308416087072
 72
    1
 10
56.3817769187564
 20
264.1308416087072
 11
46.62824116556872
 21
264.1308416087072
 72
    2
 10
43.73458590752045
 20
264.9960101480331
 40
3.020224719101123
 50
16.64603991239271
 51
74.28613895199157
 73
    0
 97
    0
 75
    0
 76
    1
 98
    0
  0
LINE
  5
180
100
AcDbEntity
  8
Skizziergeometrie(DIN)
  6
ByLayer
 62
  256
370
   -1
100
AcDbLine
 10
12.75038300473955
 20
292.1022333621669
 11
205.7923322490764
 21
292.1022333621669
  0
LINE
  5
181
100
AcDbEntity
  8
Skizziergeometrie(DIN)
  6
ByLayer
 62
  256
370
   -1
100
AcDbLine
 10
205.7923322490764
 20
292.1022333621669
 11
205.7923322490764
 21
4.365371884462589
  0
LINE
  5
182
100
AcDbEntity
  8
Skizziergeometrie(DIN)
  6
ByLayer
 62
  256
370
   -1
100
AcDbLine
 10
205.7923322490764
 20
4.365371884462589
 11
12.75038300473959
 21
4.365371884462557
  0
LINE
  5
183
100
AcDbEntity
  8
Skizziergeometrie(DIN)
  6
ByLayer
 62
  256
370
   -1
100
AcDbLine
 10
12.75038300473959
 20
4.365371884462557
 11
12.75038300473955
 21
292.1022333621669
  0
CIRCLE
  5
184
100
AcDbEntity
  8
Skizziergeometrie (ISO)
  6
ByLayer
 62
  256
370
   -1
100
AcDbCircle
 10
41.56115261314162
 20
257.8636329457117
 40
1.006741573033707
  0
LINE
  5
185
100
AcDbEntity
  8
Skizziergeometrie (ISO)
  6
ByLayer
 62
  256
370
   -1
100
AcDbLine
 10
32.12701466554184
 20
263.5016281255612
 11
35.05327809037777
 21
263.5016281255612
  0
LINE
  5
186
100
AcDbEntity
  8
Skizziergeometrie (ISO)
  6
ByLayer
 62
  256
370
   -1
100
AcDbLine
 10
21.64919264909349
 20
255.8327741929769
 11
30.77278815471147
 21
255.8327741929769
  0
CIRCLE
  5
187
100
AcDbEntity
  8
Skizziergeometrie (ISO)
  6
ByLayer
 62
  256
370
   -1
100
AcDbCircle
 10
36.60620875077735
 20
262.8094932941005
 40
1.006741573033707
  0
LINE
  5
188
100
AcDbEntity
  8
Skizziergeometrie (ISO)
  6
ByLayer
 62
  256
370
   -1
100
AcDbLine
 10
30.77278815471147
 20
255.8327741929769
 11
30.77278815471147
 21
265.8611786873589
  0
LINE
  5
189
100
AcDbEntity
  8
Skizziergeometrie (ISO)
  6
ByLayer
 62
  256
370
   -1
100
AcDbLine
 10
30.77278815471147
 20
265.8611786873589
 11
40.84093064947222
 21
265.8611786873589
  0
LINE
  5
18A
100
AcDbEntity
  8
Skizziergeometrie (ISO)
  6
ByLayer
 62
  256
370
   -1
100
AcDbLine
 10
44.55256343561035
 20
262.0886625394025
 11
44.55256343561034
 21
255.8327741929769
  0
LINE
  5
18B
100
AcDbEntity
  8
Skizziergeometrie (ISO)
  6
ByLayer
 62
  256
370
   -1
100
AcDbLine
 10
42.91660837943056
 20
262.0886625394025
 11
42.91660837943057
 21
255.2035607098309
  0
LINE
  5
18C
100
AcDbEntity
  8
Skizziergeometrie (ISO)
  6
ByLayer
 62
  256
370
   -1
100
AcDbLine
 10
36.27840613223956
 20
275.652998912078
 11
36.27840613223956
 21
273.9226618334263
  0
LINE
  5
18D
100
AcDbEntity
  8
Skizziergeometrie (ISO)
  6
ByLayer
 62
  256
370
   -1
100
AcDbLine
 10
56.3817769187564
 20
265.861178687359
 11
56.3817769187564
 21
264.1308416087072
  0
LINE
  5
18E
100
AcDbEntity
  8
Skizziergeometrie (ISO)
  6
ByLayer
 62
  256
370
   -1
100
AcDbLine
 10
46.62824116556871
 20
265.8611786873589
 11
56.3817769187564
 21
265.861178687359
  0
LINE
  5
18F
100
AcDbEntity
  8
Skizziergeometrie (ISO)
  6
ByLayer
 62
  256
370
   -1
100
AcDbLine
 10
56.3817769187564
 20
264.1308416087072
 11
46.62824116556871
 21
264.1308416087072
  0
LINE
  5
190
100
AcDbEntity
  8
Skizziergeometrie (ISO)
  6
ByLayer
 62
  256
370
   -1
100
AcDbLine
 10
42.28739489628451
 20
256.3067109114968
 11
42.28739489628451
 21
254.5743472266848
  0
LINE
  5
191
100
AcDbEntity
  8
Skizziergeometrie (ISO)
  6
ByLayer
 62
  256
370
   -1
100
AcDbLine
 10
42.28739489628451
 20
254.5743472266848
 11
49.0597929195051
 21
254.5743472266847
  0
LINE
  5
192
100
AcDbEntity
  8
Skizziergeometrie (ISO)
  6
ByLayer
 62
  256
370
   -1
100
AcDbLine
 10
51.53792478366561
 20
255.2035607098308
 11
42.91660837943057
 21
255.2035607098309
  0
LINE
  5
193
100
AcDbEntity
  8
Skizziergeometrie (ISO)
  6
ByLayer
 62
  256
370
   -1
100
AcDbLine
 10
44.55256343561034
 20
255.8327741929769
 11
62.61099040190249
 21
255.8327741929769
  0
LINE
  5
194
100
AcDbEntity
  8
Skizziergeometrie (ISO)
  6
ByLayer
 62
  256
370
   -1
100
AcDbLine
 10
21.64919264909348
 20
273.9226618334263
 11
21.64919264909349
 21
255.8327741929769
  0
LINE
  5
195
100
AcDbEntity
  8
Skizziergeometrie (ISO)
  6
ByLayer
 62
  256
370
   -1
100
AcDbLine
 10
36.27840613223956
 20
273.9226618334263
 11
21.64919264909348
 21
273.9226618334263
  0
LINE
  5
196
100
AcDbEntity
  8
Skizziergeometrie (ISO)
  6
ByLayer
 62
  256
370
   -1
100
AcDbLine
 10
21.64919264909348
 20
275.652998912078
 11
36.27840613223956
 21
275.652998912078
  0
LINE
  5
197
100
AcDbEntity
  8
Skizziergeometrie (ISO)
  6
ByLayer
 62
  256
370
   -1
100
AcDbLine
 10
21.64919264909347
 20
283.8327741929769
 11
39.89638366032943
 21
283.8327741929769
  0
LINE
  5
198
100
AcDbEntity
  8
Skizziergeometrie (ISO)
  6
ByLayer
 62
  256
370
   -1
100
AcDbLine
 10
21.64919264909347
 20
283.8327741929769
 11
21.64919264909348
 21
275.652998912078
  0
ARC
  5
199
100
AcDbEntity
  8
Skizziergeometrie (ISO)
  6
ByLayer
 62
  256
370
   -1
100
AcDbCircle
 10
43.73458590752045
 20
264.9960101480331
 40
3.020224719101123
100
AcDbArc
 50
16.6460399123927
 51
74.28613895199187
  0
ARC
  5
19A
100
AcDbEntity
  8
Skizziergeometrie (ISO)
  6
ByLayer
 62
  256
370
   -1
100
AcDbCircle
 10
43.73458590752045
 20
264.9960101480331
 40
3.020224719101123
100
AcDbArc
 50
196.6460399123941
 51
254.2861389519916
  0
ARC
  5
19B
100
AcDbEntity
  8
Skizziergeometrie (ISO)
  6
ByLayer
 62
  256
370
   -1
100
AcDbCircle
 10
43.73458590752045
 20
264.9960101480331
 40
3.020224719101123
100
AcDbArc
 50
105.7138610480086
 51
163.3539600876059
  0
ARC
  5
19C
100
AcDbEntity
  8
Skizziergeometrie (ISO)
  6
ByLayer
 62
  256
370
   -1
100
AcDbCircle
 10
43.73458590752045
 20
264.9960101480331
 40
3.020224719101123
100
AcDbArc
 50
285.7138610480084
 51
343.3539600876073
  0
ARC
  5
19D
100
AcDbEntity
  8
Skizziergeometrie (ISO)
  6
ByLayer
 62
  256
370
   -1
100
AcDbCircle
 10
62.61099040190249
 20
258.852998912078
 40
3.020224719101123
100
AcDbArc
 50
270
 51
0
  0
LINE
  5
19E
100
AcDbEntity
  8
Skizziergeometrie (ISO)
  6
ByLayer
 62
  256
370
   -1
100
AcDbLine
 10
65.63121512100361
 20
270.9024371143252
 11
65.63121512100362
 21
258.852998912078
  0
ARC
  5
19F
100
AcDbEntity
  8
Skizziergeometrie (ISO)
  6
ByLayer
 62
  256
370
   -1
100
AcDbCircle
 10
47.57278815471145
 20
280.8125494738757
 40
3.020224719101123
100
AcDbArc
 50
90
 51
180
  0
LINE
  5
1A0
100
AcDbEntity
  8
Skizziergeometrie (ISO)
  6
ByLayer
 62
  256
370
   -1
100
AcDbLine
 10
65.63121512100359
 20
283.8327741929769
 11
65.63121512100361
 21
275.652998912078
  0
LINE
  5
1A1
100
AcDbEntity
  8
Skizziergeometrie (ISO)
  6
ByLayer
 62
  256
370
   -1
100
AcDbLine
 10
42.91660837943055
 20
267.9033577566634
 11
42.91660837943055
 21
280.8125494738757
  0
LINE
  5
1A2
100
AcDbEntity
  8
Skizziergeometrie (ISO)
  6
ByLayer
 62
  256
370
   -1
100
AcDbLine
 10
44.55256343561033
 20
280.8125494738757
 11
44.55256343561034
 21
267.9033577566635
  0
LINE
  5
1A3
100
AcDbEntity
  8
Skizziergeometrie (ISO)
  6
ByLayer
 62
  256
370
   -1
100
AcDbLine
 10
52.69332748055415
 20
275.652998912078
 11
52.69332748055415
 21
273.9226618334263
  0
LINE
  5
1A4
100
AcDbEntity
  8
Skizziergeometrie (ISO)
  6
ByLayer
 62
  256
370
   -1
100
AcDbLine
 10
52.69332748055415
 20
273.9226618334263
 11
62.61099040190249
 21
273.9226618334263
  0
ARC
  5
1A5
100
AcDbEntity
  8
Skizziergeometrie (ISO)
  6
ByLayer
 62
  256
370
   -1
100
AcDbCircle
 10
62.61099040190249
 20
270.9024371143252
 40
3.020224719101123
100
AcDbArc
 50
0
 51
90
  0
LINE
  5
1A6
100
AcDbEntity
  8
Skizziergeometrie (ISO)
  6
ByLayer
 62
  256
370
   -1
100
AcDbLine
 10
65.63121512100361
 20
275.652998912078
 11
52.69332748055415
 21
275.652998912078
  0
LINE
  5
1A7
100
AcDbEntity
  8
Skizziergeometrie (ISO)
  6
ByLayer
 62
  256
370
   -1
100
AcDbLine
 10
47.57278815471145
 20
283.8327741929769
 11
65.63121512100359
 21
283.8327741929769
  0
ARC
  5
1A8
100
AcDbEntity
  8
Skizziergeometrie (ISO)
  6
ByLayer
 62
  256
370
   -1
100
AcDbCircle
 10
39.89638366032943
 20
280.8125494738757
 40
3.020224719101123
100
AcDbArc
 50
0
 51
90
  0
CIRCLE
  5
1A9
100
AcDbEntity
  8
Skizziergeometrie (ISO)
  6
ByLayer
 62
  256
370
   -1
100
AcDbCircle
 10
39.39268050424541
 20
258.9344530617458
 40
1.006741573033707
  0
LINE
  5
1AA
100
AcDbEntity
  8
Skizziergeometrie (ISO)
  6
ByLayer
 62
  256
370
   -1
100
AcDbLine
 10
42.28739489628449
 20
259.0666954207896
 11
42.28739489628448
 21
261.6457806978283
  0
ARC
  5
1AB
100
AcDbEntity
  8
Skizziergeometrie (ISO)
  6
ByLayer
 62
  256
370
   -1
100
AcDbCircle
 10
43.73458590752045
 20
264.9960101480331
 40
3.649438202247191
100
AcDbArc
 50
204.1723466493506
 51
246.6372136800011
  0
CIRCLE
  5
1AC
100
AcDbEntity
  8
Skizziergeometrie (ISO)
  6
ByLayer
 62
  256
370
   -1
100
AcDbCircle
 10
37.68100599954401
 20
260.6429896864395
 40
1.006741573033707
  0
ARC
  5
1AD
100
AcDbEntity
  8
Skizziergeometrie (ISO)
  6
ByLayer
 62
  256
370
   -1
100
AcDbCircle
 10
43.73458590752045
 20
264.9960101480331
 40
6.103370786516855
100
AcDbArc
 50
194.1726952214242
 51
256.2837665935695
  0
ARC
  5
1AE
100
AcDbEntity
  8
Skizziergeometrie (ISO)
  6
ByLayer
 62
  256
370
   -1
100
AcDbCircle
 10
43.73458590752045
 20
264.9960101480331
 40
11.70337078651686
100
AcDbArc
 50
187.3360209645563
 51
297.0658870088749
  0
ARC
  5
1AF
100
AcDbEntity
  8
Skizziergeometrie (ISO)
  6
ByLayer
 62
  256
370
   -1
100
AcDbCircle
 10
43.73458590752045
 20
264.9960101480331
 40
12.52134831460674
100
AcDbArc
 50
183.962036094875
 51
308.5503963370994
  0
ARC
  5
1B0
100
AcDbEntity
  8
Skizziergeometrie (ISO)
  6
ByLayer
 62
  256
370
   -1
100
AcDbCircle
 10
43.73458590752046
 20
264.9960101480331
 40
8.808988764044944
100
AcDbArc
 50
189.7670546724231
 51
260.5442573173642
  0
LINE
  5
1B1
100
AcDbEntity
  8
Skizziergeometrie (ISO)
  6
ByLayer
 62
  256
370
   -1
100
AcDbLine
 10
40.84093064947222
 20
264.1308416087071
 11
31.24316296958957
 21
264.1308416087071
  0
LINE
  5
1B2
100
AcDbEntity
  8
Skizziergeometrie (ISO)
  6
ByLayer
 62
  256
370
   -1
100
AcDbLine
 10
40.40513827120988
 20
263.5016281255611
 11
37.81698864776881
 21
263.5016281255611
  0
ENDBLK
  5
F1
330
EF
100
AcDbEntity
  8
0
100
AcDbBlockEnd
  0
ENDSEC
  0
SECTION
  2
ENTITIES
  0
LINE
  5
1B3
100
AcDbEntity
  8
Sichtbar (ISO)
  6
ByLayer
 62
  256
370
   -1
100
AcDbLine
 10
26.77403887339763
 20
99.19004494467583
 11
37.77403887339755
 21
99.19004494467583
  0
LINE
  5
1B4
100
AcDbEntity
  8
Sichtbar (ISO)
  6
ByLayer
 62
  256
370
   -1
100
AcDbLine
 10
44.27403887339764
 20
99.19004494467583
 11
43.27403887339774
 21
99.19004494467583
  0
LINE
  5
1B5
100
AcDbEntity
  8
Sichtbar (ISO)
  6
ByLayer
 62
  256
370
   -1
100
AcDbLine
 10
43.27403887339771
 20
35.19004494467583
 11
44.27403887339761
 21
35.19004494467583
  0
LINE
  5
1B6
100
AcDbEntity
  8
Sichtbar (ISO)
  6
ByLayer
 62
  256
370
   -1
100
AcDbLine
 10
44.27403887339763
 20
80.24004494467583
 11
43.27403887339766
 21
80.24004494467583
  0
LINE
  5
1B7
100
AcDbEntity
  8
Sichtbar (ISO)
  6
ByLayer
 62
  256
370
   -1
100
AcDbLine
 10
43.27403887339764
 20
54.14004494467583
 11
44.27403887339763
 21
54.14004494467583
  0
LINE
  5
1B8
100
AcDbEntity
  8
Sichtbar (ISO)
  6
ByLayer
 62
  256
370
   -1
100
AcDbLine
 10
44.27403887339763
 20
54.14004494467583
 11
44.27403887339763
 21
80.24004494467583
  0
LINE
  5
1B9
100
AcDbEntity
  8
Sichtbar (ISO)
  6
ByLayer
 62
  256
370
   -1
100
AcDbLine
 10
44.27403887339761
 20
35.19004494467583
 11
44.27403887339763
 21
54.14004494467583
  0
LINE
  5
1BA
100
AcDbEntity
  8
Sichtbar (ISO)
  6
ByLayer
 62
  256
370
   -1
100
AcDbLine
 10
44.27403887339763
 20
80.24004494467583
 11
44.27403887339764
 21
99.19004494467583
  0
LINE
  5
1BB
100
AcDbEntity
  8
Sichtbar (ISO)
  6
ByLayer
 62
  256
370
   -1
100
AcDbLine
 10
66.77403887339764
 20
97.69004494467582
 11
44.27403887339764
 21
97.69004494467582
  0
ARC
  5
1BC
100
AcDbEntity
  8
Sichtbar (ISO)
  6
ByLayer
 62
  256
370
   -1
100
AcDbCircle
 10
66.77403887339766
 20
93.19004494467582
 40
4.499999999999997
100
AcDbArc
 50
0
 51
90.00000000000011
  0
LINE
  5
1BD
100
AcDbEntity
  8
Sichtbar (ISO)
  6
ByLayer
 62
  256
370
   -1
100
AcDbLine
 10
71.27403887339761
 20
41.19004494467581
 11
71.27403887339764
 21
93.19004494467582
  0
ARC
  5
1BE
100
AcDbEntity
  8
Sichtbar (ISO)
  6
ByLayer
 62
  256
370
   -1
100
AcDbCircle
 10
66.77403887339761
 20
41.19004494467581
 40
4.499999999999997
100
AcDbArc
 50
269.9999999999999
 51
0
  0
LINE
  5
1BF
100
AcDbEntity
  8
Sichtbar (ISO)
  6
ByLayer
 62
  256
370
   -1
100
AcDbLine
 10
44.27403887339763
 20
36.69004494467583
 11
66.77403887339763
 21
36.69004494467582
  0
CIRCLE
  5
1C0
100
AcDbEntity
  8
Sichtbar (ISO)
  6
ByLayer
 62
  256
370
   -1
100
AcDbCircle
 10
53.27403887339762
 20
67.19004494467582
 40
6.200000000000001
  0
LINE
  5
1C1
100
AcDbEntity
  8
Sichtbar (ISO)
  6
ByLayer
 62
  256
370
   -1
100
AcDbLine
 10
53.27403887339762
 20
52.39004494467582
 11
60.77403887339762
 21
52.39004494467582
  0
ARC
  5
1C2
100
AcDbEntity
  8
Sichtbar (ISO)
  6
ByLayer
 62
  256
370
   -1
100
AcDbCircle
 10
60.77403887339762
 20
46.19004494467581
 40
6.200000000000001
100
AcDbArc
 50
270
 51
90
  0
LINE
  5
1C3
100
AcDbEntity
  8
Sichtbar (ISO)
  6
ByLayer
 62
  256
370
   -1
100
AcDbLine
 10
60.77403887339762
 20
39.99004494467582
 11
53.27403887339762
 21
39.99004494467583
  0
ARC
  5
1C4
100
AcDbEntity
  8
Sichtbar (ISO)
  6
ByLayer
 62
  256
370
   -1
100
AcDbCircle
 10
53.27403887339762
 20
46.19004494467582
 40
6.200000000000001
100
AcDbArc
 50
90
 51
270
  0
LINE
  5
1C5
100
AcDbEntity
  8
Sichtbar (ISO)
  6
ByLayer
 62
  256
370
   -1
100
AcDbLine
 10
53.27403887339764
 20
94.39004494467582
 11
60.77403887339764
 21
94.39004494467582
  0
ARC
  5
1C6
100
AcDbEntity
  8
Sichtbar (ISO)
  6
ByLayer
 62
  256
370
   -1
100
AcDbCircle
 10
60.77403887339763
 20
88.1900449446758
 40
6.200000000000001
100
AcDbArc
 50
270
 51
90
  0
LINE
  5
1C7
100
AcDbEntity
  8
Sichtbar (ISO)
  6
ByLayer
 62
  256
370
   -1
100
AcDbLine
 10
60.77403887339762
 20
81.99004494467582
 11
53.27403887339763
 21
81.99004494467582
  0
ARC
  5
1C8
100
AcDbEntity
  8
Sichtbar (ISO)
  6
ByLayer
 62
  256
370
   -1
100
AcDbCircle
 10
53.27403887339764
 20
88.1900449446758
 40
6.200000000000001
100
AcDbArc
 50
90
 51
270
  0
CIRCLE
  5
1C9
100
AcDbEntity
  8
Sichtbar (ISO)
  6
ByLayer
 62
  256
370
   -1
100
AcDbCircle
 10
53.27403887339763
 20
67.19004494467582
 40
4.2
  0
ARC
  5
1CA
100
AcDbEntity
  8
Sichtbar (ISO)
  6
ByLayer
 62
  256
370
   -1
100
AcDbCircle
 10
60.77403887339764
 20
88.1900449446758
 40
3.200000000000002
100
AcDbArc
 50
269.9999999999998
 51
89.99999999999984
  0
LINE
  5
1CB
100
AcDbEntity
  8
Sichtbar (ISO)
  6
ByLayer
 62
  256
370
   -1
100
AcDbLine
 10
60.77403887339764
 20
84.99004494467582
 11
58.34946988957745
 21
84.99004494467582
  0
LINE
  5
1CC
100
AcDbEntity
  8
Sichtbar (ISO)
  6
ByLayer
 62
  256
370
   -1
100
AcDbLine
 10
58.34946988957745
 20
91.39004494467584
 11
60.77403887339764
 21
91.39004494467584
  0
LINE
  5
1CD
100
AcDbEntity
  8
Sichtbar (ISO)
  6
ByLayer
 62
  256
370
   -1
100
AcDbLine
 10
60.77403887339762
 20
42.99004494467581
 11
58.34946988957742
 21
42.99004494467581
  0
LINE
  5
1CE
100
AcDbEntity
  8
Sichtbar (ISO)
  6
ByLayer
 62
  256
370
   -1
100
AcDbLine
 10
58.34946988957742
 20
49.39004494467582
 11
60.77403887339762
 21
49.39004494467582
  0
ARC
  5
1CF
100
AcDbEntity
  8
Sichtbar (ISO)
  6
ByLayer
 62
  256
370
   -1
100
AcDbCircle
 10
60.77403887339762
 20
46.19004494467581
 40
3.2
100
AcDbArc
 50
269.9999999999998
 51
89.99999999999984
  0
LINE
  5
1D0
100
AcDbEntity
  8
Sichtbar (ISO)
  6
ByLayer
 62
  256
370
   -1
100
AcDbLine
 10
37.77403887339752
 20
35.19004494467583
 11
26.77403887339761
 21
35.19004494467584
  0
LINE
  5
1D1
100
AcDbEntity
  8
Sichtbar (ISO)
  6
ByLayer
 62
  256
370
   -1
100
AcDbLine
 10
36.0740388733973
 20
81.39004494467585
 11
35.27403887339757
 21
81.39004494467585
  0
LINE
  5
1D2
100
AcDbEntity
  8
Sichtbar (ISO)
  6
ByLayer
 62
  256
370
   -1
100
AcDbLine
 10
35.27403887339755
 20
52.99004494467581
 11
36.07403887339729
 21
52.99004494467581
  0
LINE
  5
1D3
100
AcDbEntity
  8
Sichtbar (ISO)
  6
ByLayer
 62
  256
370
   -1
100
AcDbLine
 10
21.27403887339843
 20
35.1900449446758
 11
26.77403887339794
 21
35.1900449446758
  0
LINE
  5
1D4
100
AcDbEntity
  8
Sichtbar (ISO)
  6
ByLayer
 62
  256
370
   -1
100
AcDbLine
 10
26.774038873398
 20
99.19004494467588
 11
21.27403887339849
 21
99.19004494467588
  0
LINE
  5
1D5
100
AcDbEntity
  8
Sichtbar (ISO)
  6
ByLayer
 62
  256
370
   -1
100
AcDbLine
 10
21.27403887339849
 20
99.19004494467588
 11
21.27403887339843
 21
35.1900449446758
  0
LINE
  5
1D6
100
AcDbEntity
  8
Sichtbar (ISO)
  6
ByLayer
 62
  256
370
   -1
100
AcDbLine
 10
26.77403887339794
 20
35.1900449446758
 11
26.774038873398
 21
99.19004494467588
  0
LINE
  5
1D7
100
AcDbEntity
  8
Sichtbar (ISO)
  6
ByLayer
 62
  256
370
   -1
100
AcDbLine
 10
28.47403887339829
 20
90.19004494467585
 11
29.27403887339801
 21
90.19004494467585
  0
LINE
  5
1D8
100
AcDbEntity
  8
Sichtbar (ISO)
  6
ByLayer
 62
  256
370
   -1
100
AcDbLine
 10
29.27403887339797
 20
44.1900449446758
 11
28.47403887339825
 21
44.1900449446758
  0
LINE
  5
1D9
100
AcDbEntity
  8
Sichtbar (ISO)
  6
ByLayer
 62
  256
370
   -1
100
AcDbLine
 10
36.0740388733976
 20
97.9900449446754
 11
37.77403887339762
 21
97.9900449446754
  0
LINE
  5
1DA
100
AcDbEntity
  8
Sichtbar (ISO)
  6
ByLayer
 62
  256
370
   -1
100
AcDbLine
 10
36.0740388733976
 20
94.49004494467538
 11
36.0740388733976
 21
97.9900449446754
  0
LINE
  5
1DB
100
AcDbEntity
  8
Sichtbar (ISO)
  6
ByLayer
 62
  256
370
   -1
100
AcDbLine
 10
36.0740388733976
 20
36.39004494467616
 11
37.77403887339757
 21
36.39004494467617
  0
LINE
  5
1DC
100
AcDbEntity
  8
Sichtbar (ISO)
  6
ByLayer
 62
  256
370
   -1
100
AcDbLine
 10
36.0740388733976
 20
39.89004494467606
 11
36.0740388733976
 21
36.39004494467616
  0
LINE
  5
1DD
100
AcDbEntity
  8
Sichtbar (ISO)
  6
ByLayer
 62
  256
370
   -1
100
AcDbLine
 10
36.0740388733976
 20
39.89004494467606
 11
36.0740388733976
 21
94.49004494467538
  0
LINE
  5
1DE
100
AcDbEntity
  8
Sichtbar (ISO)
  6
ByLayer
 62
  256
370
   -1
100
AcDbLine
 10
26.77403887339761
 20
97.99004494467547
 11
28.47403887339807
 21
97.99004494467547
  0
LINE
  5
1DF
100
AcDbEntity
  8
Sichtbar (ISO)
  6
ByLayer
 62
  256
370
   -1
100
AcDbLine
 10
28.47403887339807
 20
94.49004494467539
 11
28.47403887339807
 21
97.99004494467547
  0
LINE
  5
1E0
100
AcDbEntity
  8
Sichtbar (ISO)
  6
ByLayer
 62
  256
370
   -1
100
AcDbLine
 10
26.77403887339755
 20
36.39004494467556
 11
28.47403887339802
 21
36.39004494467556
  0
LINE
  5
1E1
100
AcDbEntity
  8
Sichtbar (ISO)
  6
ByLayer
 62
  256
370
   -1
100
AcDbLine
 10
28.47403887339802
 20
39.89004494467548
 11
28.47403887339802
 21
36.39004494467555
  0
LINE
  5
1E2
100
AcDbEntity
  8
Sichtbar (ISO)
  6
ByLayer
 62
  256
370
   -1
100
AcDbLine
 10
28.47403887339807
 20
94.49004494467542
 11
28.47403887339802
 21
39.89004494467548
  0
LINE
  5
1E3
100
AcDbEntity
  8
Sichtbar (ISO)
  6
ByLayer
 62
  256
370
   -1
100
AcDbLine
 10
35.27403887339788
 20
85.19004494467583
 11
35.27403887339789
 21
90.69004494467582
  0
LINE
  5
1E4
100
AcDbEntity
  8
Sichtbar (ISO)
  6
ByLayer
 62
  256
370
   -1
100
AcDbLine
 10
29.27403887339782
 20
85.19004494467585
 11
29.27403887339783
 21
90.69004494467583
  0
LINE
  5
1E5
100
AcDbEntity
  8
Sichtbar (ISO)
  6
ByLayer
 62
  256
370
   -1
100
AcDbLine
 10
35.27403887339789
 20
90.69004494467583
 11
29.27403887339783
 21
90.69004494467583
  0
LINE
  5
1E6
100
AcDbEntity
  8
Sichtbar (ISO)
  6
ByLayer
 62
  256
370
   -1
100
AcDbLine
 10
35.27403887339784
 20
49.1900449446758
 11
35.27403887339784
 21
43.6900449446758
  0
LINE
  5
1E7
100
AcDbEntity
  8
Sichtbar (ISO)
  6
ByLayer
 62
  256
370
   -1
100
AcDbLine
 10
29.27403887339779
 20
49.1900449446758
 11
29.27403887339779
 21
43.6900449446758
  0
LINE
  5
1E8
100
AcDbEntity
  8
Sichtbar (ISO)
  6
ByLayer
 62
  256
370
   -1
100
AcDbLine
 10
35.27403887339788
 20
85.19004494467583
 11
35.27403887339784
 21
49.1900449446758
  0
LINE
  5
1E9
100
AcDbEntity
  8
Sichtbar (ISO)
  6
ByLayer
 62
  256
370
   -1
100
AcDbLine
 10
29.27403887339779
 20
49.1900449446758
 11
29.27403887339782
 21
85.19004494467583
  0
LINE
  5
1EA
100
AcDbEntity
  8
Sichtbar (ISO)
  6
ByLayer
 62
  256
370
   -1
100
AcDbLine
 10
29.27403887339779
 20
43.6900449446758
 11
35.27403887339784
 21
43.6900449446758
  0
ARC
  5
1EB
100
AcDbEntity
  8
Sichtbar (ISO)
  6
ByLayer
 62
  256
370
   -1
100
AcDbCircle
 10
35.57403887339758
 20
52.19004494467596
 40
0.3000000000000018
100
AcDbArc
 50
90
 51
180
  0
ARC
  5
1EC
100
AcDbEntity
  8
Sichtbar (ISO)
  6
ByLayer
 62
  256
370
   -1
100
AcDbCircle
 10
35.57403887339759
 20
82.19004494467585
 40
0.3000000000000029
100
AcDbArc
 50
180
 51
270
  0
ARC
  5
1ED
100
AcDbEntity
  8
Sichtbar (ISO)
  6
ByLayer
 62
  256
370
   -1
100
AcDbCircle
 10
35.57403887339759
 20
52.35277689191423
 40
0.3000000000000026
100
AcDbArc
 50
90
 51
180
  0
ARC
  5
1EE
100
AcDbEntity
  8
Sichtbar (ISO)
  6
ByLayer
 62
  256
370
   -1
100
AcDbCircle
 10
35.57403887339761
 20
44.49004494467597
 40
0.3000000000000026
100
AcDbArc
 50
180
 51
270
  0
ARC
  5
1EF
100
AcDbEntity
  8
Sichtbar (ISO)
  6
ByLayer
 62
  256
370
   -1
100
AcDbCircle
 10
35.57403887339761
 20
89.89004494467582
 40
0.3000000000000026
100
AcDbArc
 50
90
 51
180
  0
ARC
  5
1F0
100
AcDbEntity
  8
Sichtbar (ISO)
  6
ByLayer
 62
  256
370
   -1
100
AcDbCircle
 10
35.5740388733976
 20
82.02731299743758
 40
0.3000000000000026
100
AcDbArc
 50
180
 51
270
  0
LINE
  5
1F1
100
AcDbEntity
  8
Sichtbar (ISO)
  6
ByLayer
 62
  256
370
   -1
100
AcDbLine
 10
36.07403887339762
 20
52.49004494467602
 11
35.5740388733976
 21
52.49004494467602
  0
LINE
  5
1F2
100
AcDbEntity
  8
Sichtbar (ISO)
  6
ByLayer
 62
  256
370
   -1
100
AcDbLine
 10
35.57403887339761
 20
81.89004494467591
 11
36.0740388733976
 21
81.89004494467591
  0
LINE
  5
1F3
100
AcDbEntity
  8
Sichtbar (ISO)
  6
ByLayer
 62
  256
370
   -1
100
AcDbLine
 10
36.07403887339759
 20
81.72731299743756
 11
35.5740388733976
 21
81.72731299743756
  0
LINE
  5
1F4
100
AcDbEntity
  8
Sichtbar (ISO)
  6
ByLayer
 62
  256
370
   -1
100
AcDbLine
 10
36.0740388733976
 20
52.65277689191423
 11
35.57403887339759
 21
52.65277689191423
  0
LINE
  5
1F5
100
AcDbEntity
  8
Sichtbar (ISO)
  6
ByLayer
 62
  256
370
   -1
100
AcDbLine
 10
35.57403887339761
 20
44.19004494467599
 11
36.07403887339761
 21
44.19004494467597
  0
LINE
  5
1F6
100
AcDbEntity
  8
Sichtbar (ISO)
  6
ByLayer
 62
  256
370
   -1
100
AcDbLine
 10
36.07403887339758
 20
90.19004494467582
 11
35.57403887339761
 21
90.19004494467582
  0
LINE
  5
1F7
100
AcDbEntity
  8
Sichtbar (ISO)
  6
ByLayer
 62
  256
370
   -1
100
AcDbLine
 10
43.27403887339745
 20
99.19004494467609
 11
43.27403887339745
 21
35.19004494467643
  0
LINE
  5
1F8
100
AcDbEntity
  8
Sichtbar (ISO)
  6
ByLayer
 62
  256
370
   -1
100
AcDbLine
 10
43.27403887339745
 20
99.19004494467609
 11
37.77403887339749
 21
99.19004494467609
  0
LINE
  5
1F9
100
AcDbEntity
  8
Sichtbar (ISO)
  6
ByLayer
 62
  256
370
   -1
100
AcDbLine
 10
37.77403887339749
 20
35.19004494467643
 11
43.27403887339745
 21
35.19004494467643
  0
LINE
  5
1FA
100
AcDbEntity
  8
Sichtbar (ISO)
  6
ByLayer
 62
  256
370
   -1
100
AcDbLine
 10
37.77403887339749
 20
35.19004494467643
 11
37.77403887339749
 21
99.19004494467609
  0
LINE
  5
1FB
100
AcDbEntity
  8
Sichtbar (ISO)
  6
ByLayer
 62
  256
370
   -1
100
AcDbLine
 10
47.77403887339762
 20
43.79212918301946
 11
47.77403887339762
 21
48.58796070633219
  0
ARC
  5
1FC
100
AcDbEntity
  8
Sichtbar (ISO)
  6
ByLayer
 62
  256
370
   -1
100
AcDbCircle
 10
53.27403887339762
 20
46.19004494467582
 40
6.000000000000003
100
AcDbArc
 50
203.5564643091012
 51
156.4435356908987
  0
LINE
  5
1FD
100
AcDbEntity
  8
Sichtbar (ISO)
  6
ByLayer
 62
  256
370
   -1
100
AcDbLine
 10
47.77403887339764
 20
85.79212918301945
 11
47.77403887339764
 21
90.5879607063322
  0
ARC
  5
1FE
100
AcDbEntity
  8
Sichtbar (ISO)
  6
ByLayer
 62
  256
370
   -1
100
AcDbCircle
 10
53.27403887339764
 20
88.1900449446758
 40
6.000000000000001
100
AcDbArc
 50
203.5564643091012
 51
156.4435356908987
  0
LINE
  5
1FF
100
AcDbEntity
  8
Mittelpunktmarkierung (ISO)
  6
CONTINUOUS
 62
  256
370
   -1
100
AcDbLine
 10
60.22403887339763
 20
67.19004494467582
 11
46.32403887339762
 21
67.19004494467582
  0
LINE
  5
200
100
AcDbEntity
  8
Mittelpunktmarkierung (ISO)
  6
CONTINUOUS
 62
  256
370
   -1
100
AcDbLine
 10
53.27403887339762
 20
74.14004494467582
 11
53.27403887339762
 21
60.24004494467583
  0
LINE
  5
201
100
AcDbEntity
  8
Mittelpunktmarkierung (ISO)
  6
CONTINUOUS
 62
  256
370
   -1
100
AcDbLine
 10
53.52403887339765
 20
88.1900449446758
 11
46.32403887339764
 21
88.1900449446758
  0
LINE
  5
202
100
AcDbEntity
  8
Mittelpunktmarkierung (ISO)
  6
CONTINUOUS
 62
  256
370
   -1
100
AcDbLine
 10
53.27403887339764
 20
95.14004494467584
 11
53.27403887339764
 21
81.24004494467582
  0
LINE
  5
203
100
AcDbEntity
  8
Mittelpunktmarkierung (ISO)
  6
CONTINUOUS
 62
  256
370
   -1
100
AcDbLine
 10
67.72403887339765
 20
88.1900449446758
 11
60.52403887339764
 21
88.1900449446758
  0
LINE
  5
204
100
AcDbEntity
  8
Mittelpunktmarkierung (ISO)
  6
CONTINUOUS
 62
  256
370
   -1
100
AcDbLine
 10
60.77403887339763
 20
95.14004494467584
 11
60.77403887339763
 21
81.24004494467582
  0
LINE
  5
205
100
AcDbEntity
  8
Mittelpunktmarkierung (ISO)
  6
CONTINUOUS
 62
  256
370
   -1
100
AcDbLine
 10
67.72403887339762
 20
46.19004494467581
 11
60.52403887339761
 21
46.19004494467581
  0
LINE
  5
206
100
AcDbEntity
  8
Mittelpunktmarkierung (ISO)
  6
CONTINUOUS
 62
  256
370
   -1
100
AcDbLine
 10
60.77403887339762
 20
53.14004494467582
 11
60.77403887339762
 21
39.24004494467581
  0
LINE
  5
207
100
AcDbEntity
  8
Mittelpunktmarkierung (ISO)
  6
CONTINUOUS
 62
  256
370
   -1
100
AcDbLine
 10
53.52403887339763
 20
46.19004494467582
 11
46.32403887339762
 21
46.19004494467582
  0
LINE
  5
208
100
AcDbEntity
  8
Mittelpunktmarkierung (ISO)
  6
CONTINUOUS
 62
  256
370
   -1
100
AcDbLine
 10
53.27403887339762
 20
53.14004494467583
 11
53.27403887339762
 21
39.24004494467583
  0
DIMENSION
  5
209
100
AcDbEntity
  8
Bemaßung (ISO)
  6
CONTINUOUS
 62
    7
370
   18
100
AcDbDimension
  2
*D1
 10
50.30419039241373
 20
64.22019646369279
 30
0
 11
60.50796165304196
 21
74.423967724318
 31
0
 70
   35
  1
<>
 71
    5
  3
Pauli_DINGroßer Text
 53
0
210
0
220
0
230
1
100
AcDbDiametricDimension
 15
56.24388735438161
 25
70.15989342565891
 35
0
 40
0
  0
DIMENSION
  5
20A
100
AcDbEntity
  8
Bemaßung (ISO)
  6
CONTINUOUS
 62
    7
370
   18
100
AcDbDimension
  2
*D2
 10
58.51129717360037
 20
43.92730324487921
 30
0
 11
68.6131803832381
 21
54.02918645451402
 31
0
 70
   35
  1
<>
 71
    5
  3
Pauli_DINGroßer Text
 53
0
210
0
220
0
230
1
100
AcDbDiametricDimension
 15
63.03678057319493
 25
48.45278664447246
 35
0
 40
0
  0
DIMENSION
  5
20B
100
AcDbEntity
  8
Bemaßung (ISO)
  6
CONTINUOUS
 62
    7
370
   18
100
AcDbDimension
  2
*D3
 10
76.27403887339766
 20
46.19004494467583
 30
0
 11
76.27403887339766
 21
67.19504494467583
 31
0
 70
   32
  1
<>
 71
    5
  3
Pauli_DINGroßer Text
 53
0
210
0
220
0
230
1
100
AcDbAlignedDimension
 13
67.72403887339765
 23
88.1900449446758
 33
0
 14
67.72403887339762
 24
46.19004494467581
 34
0
 50
90
100
AcDbRotatedDimension
  0
DIMENSION
  5
20C
100
AcDbEntity
  8
Bemaßung (ISO)
  6
CONTINUOUS
 62
    7
370
   18
100
AcDbDimension
  2
*D4
 10
80.27403887339764
 20
36.69004494467584
 30
0
 11
80.27403887339764
 21
67.19504494467581
 31
0
 70
   32
  1
<>
 71
    5
  3
Pauli_DINGroßer Text
 53
0
210
0
220
0
230
1
100
AcDbAlignedDimension
 13
66.77403887339764
 23
97.69004494467582
 33
0
 14
66.77403887339763
 24
36.69004494467582
 34
0
 50
90
100
AcDbRotatedDimension
  0
DIMENSION
  5
20D
100
AcDbEntity
  8
Bemaßung (ISO)
  6
CONTINUOUS
 62
    7
370
   18
100
AcDbDimension
  2
*D5
 10
84.27403887339767
 20
35.19004494467586
 30
0
 11
84.27403887339767
 21
67.19504494467583
 31
0
 70
   32
  1
<>
 71
    5
  3
Pauli_DINGroßer Text
 53
0
210
0
220
0
230
1
100
AcDbAlignedDimension
 13
44.27403887339764
 23
99.19004494467583
 33
0
 14
44.27403887339761
 24
35.19004494467583
 34
0
 50
90
100
AcDbRotatedDimension
  0
DIMENSION
  5
20E
100
AcDbEntity
  8
Bemaßung (ISO)
  6
CONTINUOUS
 62
    7
370
   18
100
AcDbDimension
  2
*D6
 10
53.27403887339762
 20
30.19004494467639
 30
0
 11
44.67903887339761
 21
30.19004494467639
 31
0
 70
   32
  1
<>
 71
    5
  3
Pauli_DINGroßer Text
 53
0
210
0
220
0
230
1
100
AcDbAlignedDimension
 13
36.0740388733976
 23
36.39004494467617
 33
0
 14
53.27403887339762
 24
60.24004494467583
 34
0
 50
180
100
AcDbRotatedDimension
  0
DIMENSION
  5
20F
100
AcDbEntity
  8
Bemaßung (ISO)
  6
CONTINUOUS
 62
    7
370
   18
100
AcDbDimension
  2
*D7
 10
60.77403887339762
 20
26.19004494467639
 30
0
 11
48.42903887339759
 21
26.19004494467639
 31
0
 70
   32
  1
<>
 71
    5
  3
Pauli_DINGroßer Text
 53
0
210
0
220
0
230
1
100
AcDbAlignedDimension
 13
36.0740388733976
 23
36.39004494467617
 33
0
 14
60.77403887339762
 24
39.99004494467582
 34
0
 50
180
100
AcDbRotatedDimension
  0
DIMENSION
  5
210
100
AcDbEntity
  8
Bemaßung (ISO)
  6
CONTINUOUS
 62
    7
370
   18
100
AcDbDimension
  2
*D8
 10
71.27403887339761
 20
22.1900449446764
 30
0
 11
53.6790388733976
 21
22.1900449446764
 31
0
 70
   32
  1
<>
 71
    5
  3
Pauli_DINGroßer Text
 53
0
210
0
220
0
230
1
100
AcDbAlignedDimension
 13
36.0740388733976
 23
36.39004494467617
 33
0
 14
71.27403887339761
 24
41.19004494467581
 34
0
100
AcDbRotatedDimension
  0
ENDSEC
  0
SECTION
  2
OBJECTS
  0
DICTIONARY
  5
C
330
0
100
AcDbDictionary
281
    1
  3
ACAD_GROUP
350
D
  0
DICTIONARY
  5
D
330
C
100
AcDbDictionary
281
    1
  0
ENDSEC
  0
EOF
