999
dxfrw 0.6.3
  0
SECTION
  2
HEADER
  9
$ACADVER
  1
AC1021
  9
$DWGCODEPAGE
  3
ANSI_1252
  9
$INSBASE
 10
0
 20
0
 30
0
  9
$EXTMIN
 10
10000000000
 20
10000000000
 30
0
  9
$EXTMAX
 10
-10000000000
 20
-10000000000
 30
0
  9
$LIMMIN
 10
0
 20
0
  9
$LIMMAX
 10
420
 20
297
  9
$ORTHOMODE
 70
    0
  9
$REGENMODE
 70
    1
  9
$FILLMODE
 70
    1
  9
$QTEXTMODE
 70
    0
  9
$MIRRTEXT
 70
    0
  9
$LTSCALE
 40
1
  9
$ATTMODE
 70
    1
  9
$TEXTSIZE
 40
0.2
  9
$TRACEWID
 40
0.05
  9
$TEXTSTYLE
  7
Standard
  9
$CLAYER
  8
0
  9
$CELTYPE
  6
ByLayer
  9
$CECOLOR
 62
  256
  9
$CELTSCALE
 40
1
  9
$DISPSILH
 70
    0
  9
$DIMSCALE
 40
1
  9
$DIMASZ
 40
0.18
  9
$DIMEXO
 40
0.0625
  9
$DIMDLI
 40
0.38
  9
$DIMRND
 40
0
  9
$DIMDLE
 40
0
  9
$DIMEXE
 40
0.18
  9
$DIMTP
 40
0
  9
$DIMTM
 40
0
  9
$DIMTXT
 40
0.18
  9
$DIMCEN
 40
0.09
  9
$DIMTSZ
 40
0
  9
$DIMTOL
 70
    0
  9
$DIMLIM
 70
    0
  9
$DIMTIH
 70
    1
  9
$DIMTOH
 70
    1
  9
$DIMSE1
 70
    0
  9
$DIMSE2
 70
    0
  9
$DIMTAD
 70
    0
  9
$DIMZIN
 70
    0
  9
$DIMBLK
  1

  9
$DIMASO
 70
    1
  9
$DIMSHO
 70
    1
  9
$DIMPOST
  1

  9
$DIMAPOST
  1

  9
$DIMALT
 70
    0
  9
$DIMALTD
 70
    2
  9
$DIMALTF
 40
25.4
  9
$DIMLFAC
 40
1
  9
$DIMTOFL
 70
    0
  9
$DIMTVP
 40
0
  9
$DIMTIX
 70
    0
  9
$DIMSOXD
 70
    0
  9
$DIMSAH
 70
    0
  9
$DIMBLK1
  1

  9
$DIMBLK2
  1

  9
$DIMSTYLE
  2
Standard
  9
$DIMCLRD
 70
    0
  9
$DIMCLRE
 70
    0
  9
$DIMCLRT
 70
    0
  9
$DIMTFAC
 40
1
  9
$DIMGAP
 40
0.09
  9
$DIMJUST
 70
    0
  9
$DIMSD1
 70
    0
  9
$DIMSD2
 70
    0
  9
$DIMTOLJ
 70
    1
  9
$DIMTZIN
 70
    0
  9
$DIMALTZ
 70
    0
  9
$DIMALTTZ
 70
    0
  9
$DIMUPT
 70
    0
  9
$DIMDEC
 70
    4
  9
$DIMTDEC
 70
    4
  9
$DIMALTU
 70
    2
  9
$DIMALTTD
 70
    2
  9
$DIMTXSTY
  7
Standard
  9
$DIMAUNIT
 70
    0
  9
$DIMADEC
 70
    0
  9
$DIMALTRND
 40
0
  9
$DIMAZIN
 70
    0
  9
$DIMDSEP
 70
   46
  9
$DIMATFIT
 70
    3
  9
$DIMFRAC
 70
    0
  9
$DIMLDRBLK
  1

  9
$DIMLUNIT
 70
    2
  9
$DIMLWD
 70
   -2
  9
$DIMLWE
 70
   -2
  9
$DIMTMOVE
 70
    0
  9
$DIMFXL
 40
1
  9
$DIMFXLON
 70
    0
  9
$DIMJOGANG
 40
0.7853981633974483
  9
$DIMTFILL
 70
    0
  9
$DIMTFILLCLR
 70
    0
  9
$DIMARCSYM
 70
    0
  9
$DIMLTYPE
  6

  9
$DIMLTEX1
  6

  9
$DIMLTEX2
  6

  9
$LUNITS
 70
    2
  9
$LUPREC
 70
    4
  9
$SKETCHINC
 40
0.1
  9
$FILLETRAD
 40
0
  9
$AUNITS
 70
    0
  9
$AUPREC
 70
    0
  9
$MENU
  1
.
  9
$ELEVATION
 40
0
  9
$PELEVATION
 40
0
  9
$THICKNESS
 40
0
  9
$LIMCHECK
 70
    0
  9
$CHAMFERA
 40
0
  9
$CHAMFERB
 40
0
  9
$CHAMFERC
 40
0
  9
$CHAMFERD
 40
0
  9
$SKPOLY
 70
    0
  9
$USRTIMER
 70
    1
  9
$ANGBASE
 50
0
  9
$ANGDIR
 70
    0
  9
$PDMODE
 70
    0
  9
$PDSIZE
 40
0
  9
$PLINEWID
 40
0
  9
$SPLFRAME
 70
    0
  9
$SPLINETYPE
 70
    6
  9
$SPLINESEGS
 70
    8
  9
$HANDSEED
  5
20000
  9
$SURFTAB1
 70
    6
  9
$SURFTAB2
 70
    6
  9
$SURFTYPE
 70
    6
  9
$SURFU
 70
    6
  9
$SURFV
 70
    6
  9
$UCSBASE
  2

  9
$UCSNAME
  2

  9
$UCSORG
 10
0
 20
0
 30
0
  9
$UCSXDIR
 10
1
 20
0
 30
0
  9
$UCSYDIR
 10
0
 20
1
 30
0
  9
$UCSORTHOREF
  2

  9
$UCSORTHOVIEW
 70
    0
  9
$UCSORGTOP
 10
0
 20
0
 30
0
  9
$UCSORGBOTTOM
 10
0
 20
0
 30
0
  9
$UCSORGLEFT
 10
0
 20
0
 30
0
  9
$UCSORGRIGHT
 10
0
 20
0
 30
0
  9
$UCSORGFRONT
 10
0
 20
0
 30
0
  9
$UCSORGBACK
 10
0
 20
0
 30
0
  9
$PUCSBASE
  2

  9
$PUCSNAME
  2

  9
$PUCSORG
 10
0
 20
0
 30
0
  9
$PUCSXDIR
 10
1
 20
0
 30
0
  9
$PUCSYDIR
 10
0
 20
1
 30
0
  9
$PUCSORTHOREF
  2

  9
$PUCSORTHOVIEW
 70
    0
  9
$PUCSORGTOP
 10
0
 20
0
 30
0
  9
$PUCSORGBOTTOM
 10
0
 20
0
 30
0
  9
$PUCSORGLEFT
 10
0
 20
0
 30
0
  9
$PUCSORGRIGHT
 10
0
 20
0
 30
0
  9
$PUCSORGFRONT
 10
0
 20
0
 30
0
  9
$PUCSORGBACK
 10
0
 20
0
 30
0
  9
$USERI1
 70
    0
  9
$USERI2
 70
    0
  9
$USERI3
 70
    0
  9
$USERI4
 70
    0
  9
$USERI5
 70
    0
  9
$USERR1
 40
0
  9
$USERR2
 40
0
  9
$USERR3
 40
0
  9
$USERR4
 40
0
  9
$USERR5
 40
0
  9
$WORLDVIEW
 70
    1
  9
$SHADEDGE
 70
    3
  9
$SHADEDIF
 70
   70
  9
$TILEMODE
 70
    1
  9
$MAXACTVP
 70
   64
  9
$PINSBASE
 10
0
 20
0
 30
0
  9
$PLIMCHECK
 70
    0
  9
$PEXTMIN
 10
0
 20
0
 30
0
  9
$PEXTMAX
 10
420
 20
297
 30
0
  9
$GRIDMODE
 70
    0
  9
$SNAPSTYLE
 70
    0
  9
$PLIMMIN
 10
0
 20
0
  9
$PLIMMAX
 10
420
 20
297
  9
$UNITMODE
 70
    0
  9
$VISRETAIN
 70
    1
  9
$PLINEGEN
 70
    0
  9
$PSLTSCALE
 70
    1
  9
$TREEDEPTH
 70
 3020
  9
$CMLSTYLE
  2
Standard
  9
$CMLJUST
 70
    0
  9
$CMLSCALE
 40
1
  9
$PROXYGRAPHICS
 70
    1
  9
$MEASUREMENT
 70
    1
  9
$CELWEIGHT
370
   -1
  9
$ENDCAPS
280
    0
  9
$JOINSTYLE
280
    0
  9
$LWDISPLAY
290
    0
  9
$INSUNITS
 70
    4
  9
$HYPERLINKBASE
  1

  9
$STYLESHEET
  1

  9
$XEDIT
290
    1
  9
$CEPSNTYPE
380
    0
  9
$PSTYLEMODE
290
    1
  9
$EXTNAMES
290
    1
  9
$PSVPSCALE
 40
0
  9
$OLESTARTUP
290
    0
  9
$SORTENTS
280
  127
  9
$INDEXCTL
280
    0
  9
$HIDETEXT
280
    1
  9
$XCLIPFRAME
290
    2
  9
$HALOGAP
280
    0
  9
$OBSCOLOR
 70
  257
  9
$OBSLTYPE
280
    0
  9
$INTERSECTIONDISPLAY
280
    0
  9
$INTERSECTIONCOLOR
 70
  257
  9
$DIMASSOC
280
    1
  9
$PROJECTNAME
  1

  9
$CAMERADISPLAY
290
    0
  9
$LENSLENGTH
 40
50
  9
$CAMERAHEIGHT
 40
0
  9
$STEPSPERSEC
 40
2
  9
$STEPSIZE
 40
6
  9
$3DDWFPREC
 40
2
  9
$PSOLWIDTH
 40
0.25
  9
$PSOLHEIGHT
 40
4
  9
$LOFTANG1
 40
1.570796326794896
  9
$LOFTANG2
 40
1.570796326794896
  9
$LOFTMAG1
 40
0
  9
$LOFTMAG2
 40
0
  9
$LOFTPARAM
 70
    7
  9
$LOFTNORMALS
280
    1
  9
$LATITUDE
 40
37.795
  9
$LONGITUDE
 40
-122.394
  9
$NORTHDIRECTION
 40
0
  9
$TIMEZONE
 70
-8000
  9
$LIGHTGLYPHDISPLAY
280
    1
  9
$TILEMODELIGHTSYNCH
280
    1
  9
$SOLIDHIST
280
    0
  9
$SHOWHIST
280
    1
  9
$DWFFRAME
280
    2
  9
$DGNFRAME
280
    0
  9
$REALWORLDSCALE
290
    1
  9
$INTERFERECOLOR
 62
    1
  9
$CSHADOW
280
    0
  9
$SHADOWPLANELOCATION
 40
0
  0
ENDSEC
  0
SECTION
  2
CLASSES
  0
ENDSEC
  0
SECTION
  2
TABLES
  0
TABLE
  2
VPORT
  5
8
330
0
100
AcDbSymbolTable
 70
    1
  0
VPORT
  5
31
330
2
100
AcDbSymbolTableRecord
100
AcDbViewportTableRecord
  2
*ACTIVE
 70
    0
 10
0
 20
0
 11
1
 21
1
 12
280.9429121462323
 22
146.7433920990597
 13
0
 23
0
 14
10
 24
10
 15
10
 25
10
 16
0
 26
0
 36
1
 17
0
 27
0
 37
0
 40
337.689000000007
 41
2.200471698113208
 42
50
 43
0
 44
0
 50
0
 51
0
 71
    0
 72
  100
 73
    1
 74
    3
 75
    0
 76
    0
 77
    0
 78
    0
281
    0
 65
    1
110
0
120
0
130
0
111
1
121
0
131
0
112
0
122
1
132
0
 79
    0
146
0
348
10020
 60
    7
 61
    5
292
1
282
    1
141
0
142
0
 63
  250
421
3358443
  0
ENDTAB
  0
TABLE
  2
LTYPE
  5
5
330
0
100
AcDbSymbolTable
 70
    4
  0
LTYPE
  5
14
330
5
100
AcDbSymbolTableRecord
100
AcDbLinetypeTableRecord
  2
ByBlock
 70
    0
  3

 72
   65
 73
    0
 40
0
  0
LTYPE
  5
15
330
5
100
AcDbSymbolTableRecord
100
AcDbLinetypeTableRecord
  2
ByLayer
 70
    0
  3

 72
   65
 73
    0
 40
0
  0
LTYPE
  5
16
330
5
100
AcDbSymbolTableRecord
100
AcDbLinetypeTableRecord
  2
Continuous
 70
    0
  3
Solid line
 72
   65
 73
    0
 40
0
  0
LTYPE
  5
32
330
5
100
AcDbSymbolTableRecord
100
AcDbLinetypeTableRecord
  2
DOT
 70
    0
  3
Dot . . . . . . . . . . . . . . . . . . . . . .
 72
   65
 73
    2
 40
6.35
 49
0
 74
    0
 49
-6.35
 74
    0
  0
LTYPE
  5
33
330
5
100
AcDbSymbolTableRecord
100
AcDbLinetypeTableRecord
  2
DOTTINY
 70
    0
  3
Dot (.15x) .....................................
 72
   65
 73
    2
 40
0.9525
 49
0
 74
    0
 49
-0.9525
 74
    0
  0
LTYPE
  5
34
330
5
100
AcDbSymbolTableRecord
100
AcDbLinetypeTableRecord
  2
DOT2
 70
    0
  3
Dot (.5x) .....................................
 72
   65
 73
    2
 40
3.175
 49
0
 74
    0
 49
-3.175
 74
    0
  0
LTYPE
  5
35
330
5
100
AcDbSymbolTableRecord
100
AcDbLinetypeTableRecord
  2
DOTX2
 70
    0
  3
Dot (2x) .  .  .  .  .  .  .  .  .  .  .  .  .
 72
   65
 73
    2
 40
12.7
 49
0
 74
    0
 49
-12.7
 74
    0
  0
LTYPE
  5
36
330
5
100
AcDbSymbolTableRecord
100
AcDbLinetypeTableRecord
  2
DASHED
 70
    0
  3
Dashed _ _ _ _ _ _ _ _ _ _ _ _ _ _ _ _ _
 72
   65
 73
    2
 40
19.05
 49
12.7
 74
    0
 49
-6.35
 74
    0
  0
LTYPE
  5
37
330
5
100
AcDbSymbolTableRecord
100
AcDbLinetypeTableRecord
  2
DASHEDTINY
 70
    0
  3
Dashed (.15x) _ _ _ _ _ _ _ _ _ _ _ _ _ _ _ _ _
 72
   65
 73
    2
 40
2.8575
 49
1.905
 74
    0
 49
-0.9525
 74
    0
  0
LTYPE
  5
38
330
5
100
AcDbSymbolTableRecord
100
AcDbLinetypeTableRecord
  2
DASHED2
 70
    0
  3
Dashed (.5x) _ _ _ _ _ _ _ _ _ _ _ _ _ _ _ _ _
 72
   65
 73
    2
 40
9.524999999999999
 49
6.35
 74
    0
 49
-3.175
 74
    0
  0
LTYPE
  5
39
330
5
100
AcDbSymbolTableRecord
100
AcDbLinetypeTableRecord
  2
DASHEDX2
 70
    0
  3
Dashed (2x) ____  ____  ____  ____  ____  ___
 72
   65
 73
    2
 40
38.09999999999999
 49
25.4
 74
    0
 49
-12.7
 74
    0
  0
LTYPE
  5
3A
330
5
100
AcDbSymbolTableRecord
100
AcDbLinetypeTableRecord
  2
DASHDOT
 70
    0
  3
Dash dot __ . __ . __ . __ . __ . __ . __ . __
 72
   65
 73
    4
 40
25.4
 49
12.7
 74
    0
 49
-6.35
 74
    0
 49
0
 74
    0
 49
-6.35
 74
    0
  0
LTYPE
  5
3B
330
5
100
AcDbSymbolTableRecord
100
AcDbLinetypeTableRecord
  2
DASHDOTTINY
 70
    0
  3
Dash dot (.15x) _._._._._._._._._._._._._._._.
 72
   65
 73
    4
 40
3.81
 49
1.905
 74
    0
 49
-0.9525
 74
    0
 49
0
 74
    0
 49
-0.9525
 74
    0
  0
LTYPE
  5
3C
330
5
100
AcDbSymbolTableRecord
100
AcDbLinetypeTableRecord
  2
DASHDOT2
 70
    0
  3
Dash dot (.5x) _._._._._._._._._._._._._._._.
 72
   65
 73
    4
 40
12.7
 49
6.35
 74
    0
 49
-3.175
 74
    0
 49
0
 74
    0
 49
-3.175
 74
    0
  0
LTYPE
  5
3D
330
5
100
AcDbSymbolTableRecord
100
AcDbLinetypeTableRecord
  2
DASHDOTX2
 70
    0
  3
Dash dot (2x) ____  .  ____  .  ____  .  ___
 72
   65
 73
    4
 40
50.8
 49
25.4
 74
    0
 49
-12.7
 74
    0
 49
0
 74
    0
 49
-12.7
 74
    0
  0
LTYPE
  5
3E
330
5
100
AcDbSymbolTableRecord
100
AcDbLinetypeTableRecord
  2
DIVIDE
 70
    0
  3
Divide ____ . . ____ . . ____ . . ____ . . ____
 72
   65
 73
    6
 40
31.75
 49
12.7
 74
    0
 49
-6.35
 74
    0
 49
0
 74
    0
 49
-6.35
 74
    0
 49
0
 74
    0
 49
-6.35
 74
    0
  0
LTYPE
  5
3F
330
5
100
AcDbSymbolTableRecord
100
AcDbLinetypeTableRecord
  2
DIVIDETINY
 70
    0
  3
Divide (.15x) __..__..__..__..__..__..__..__.._
 72
   65
 73
    6
 40
4.7625
 49
1.905
 74
    0
 49
-0.9525
 74
    0
 49
0
 74
    0
 49
-0.9525
 74
    0
 49
0
 74
    0
 49
-0.9525
 74
    0
  0
LTYPE
  5
40
330
5
100
AcDbSymbolTableRecord
100
AcDbLinetypeTableRecord
  2
DIVIDE2
 70
    0
  3
Divide (.5x) __..__..__..__..__..__..__..__.._
 72
   65
 73
    6
 40
15.875
 49
6.35
 74
    0
 49
-3.175
 74
    0
 49
0
 74
    0
 49
-3.175
 74
    0
 49
0
 74
    0
 49
-3.175
 74
    0
  0
LTYPE
  5
41
330
5
100
AcDbSymbolTableRecord
100
AcDbLinetypeTableRecord
  2
DIVIDEX2
 70
    0
  3
Divide (2x) ________  .  .  ________  .  .  _
 72
   65
 73
    6
 40
63.5
 49
25.4
 74
    0
 49
-12.7
 74
    0
 49
0
 74
    0
 49
-12.7
 74
    0
 49
0
 74
    0
 49
-12.7
 74
    0
  0
LTYPE
  5
42
330
5
100
AcDbSymbolTableRecord
100
AcDbLinetypeTableRecord
  2
BORDER
 70
    0
  3
Border __ __ . __ __ . __ __ . __ __ . __ __ .
 72
   65
 73
    6
 40
44.45
 49
12.7
 74
    0
 49
-6.35
 74
    0
 49
12.7
 74
    0
 49
-6.35
 74
    0
 49
0
 74
    0
 49
-6.35
 74
    0
  0
LTYPE
  5
43
330
5
100
AcDbSymbolTableRecord
100
AcDbLinetypeTableRecord
  2
BORDERTINY
 70
    0
  3
Border (.15x) __.__.__.__.__.__.__.__.__.__.__.
 72
   65
 73
    6
 40
6.6675
 49
1.905
 74
    0
 49
-0.9525
 74
    0
 49
1.905
 74
    0
 49
-0.9525
 74
    0
 49
0
 74
    0
 49
-0.9525
 74
    0
  0
LTYPE
  5
44
330
5
100
AcDbSymbolTableRecord
100
AcDbLinetypeTableRecord
  2
BORDER2
 70
    0
  3
Border (.5x) __.__.__.__.__.__.__.__.__.__.__.
 72
   65
 73
    6
 40
22.225
 49
6.35
 74
    0
 49
-3.175
 74
    0
 49
6.35
 74
    0
 49
-3.175
 74
    0
 49
0
 74
    0
 49
-3.175
 74
    0
  0
LTYPE
  5
45
330
5
100
AcDbSymbolTableRecord
100
AcDbLinetypeTableRecord
  2
BORDERX2
 70
    0
  3
Border (2x) ____  ____  .  ____  ____  .  ___
 72
   65
 73
    6
 40
88.89999999999999
 49
25.4
 74
    0
 49
-12.7
 74
    0
 49
25.4
 74
    0
 49
-12.7
 74
    0
 49
0
 74
    0
 49
-12.7
 74
    0
  0
LTYPE
  5
46
330
5
100
AcDbSymbolTableRecord
100
AcDbLinetypeTableRecord
  2
CENTER
 70
    0
  3
Center ____ _ ____ _ ____ _ ____ _ ____ _ ____
 72
   65
 73
    4
 40
50.8
 49
31.75
 74
    0
 49
-6.35
 74
    0
 49
6.35
 74
    0
 49
-6.35
 74
    0
  0
LTYPE
  5
47
330
5
100
AcDbSymbolTableRecord
100
AcDbLinetypeTableRecord
  2
CENTERTINY
 70
    0
  3
Center (.15x) ___ _ ___ _ ___ _ ___ _ ___ _ ___
 72
   65
 73
    4
 40
7.62
 49
4.7625
 74
    0
 49
-0.9525
 74
    0
 49
0.9525
 74
    0
 49
-0.9525
 74
    0
  0
LTYPE
  5
48
330
5
100
AcDbSymbolTableRecord
100
AcDbLinetypeTableRecord
  2
CENTER2
 70
    0
  3
Center (.5x) ___ _ ___ _ ___ _ ___ _ ___ _ ___
 72
   65
 73
    4
 40
28.575
 49
19.05
 74
    0
 49
-3.175
 74
    0
 49
3.175
 74
    0
 49
-3.175
 74
    0
  0
LTYPE
  5
49
330
5
100
AcDbSymbolTableRecord
100
AcDbLinetypeTableRecord
  2
CENTERX2
 70
    0
  3
Center (2x) ________  __  ________  __  _____
 72
   65
 73
    4
 40
101.6
 49
63.5
 74
    0
 49
-12.7
 74
    0
 49
12.7
 74
    0
 49
-12.7
 74
    0
  0
ENDTAB
  0
TABLE
  2
LAYER
  5
2
330
0
100
AcDbSymbolTable
 70
    1
  0
LAYER
  5
10
330
2
100
AcDbSymbolTableRecord
100
AcDbLayerTableRecord
  2
0
 70
    0
 62
    7
  6
CONTINUOUS
370
   -3
390
F
  0
LAYER
  5
4A
330
2
100
AcDbSymbolTableRecord
100
AcDbLayerTableRecord
  2
Bemaßung (ISO)
 70
    0
 62
    7
  6
CONTINUOUS
370
    9
390
F
  0
LAYER
  5
4B
330
2
100
AcDbSymbolTableRecord
100
AcDbLayerTableRecord
  2
Defpoints
 70
    0
 62
    7
  6
CONTINUOUS
290
0
370
   -3
390
F
  0
LAYER
  5
4C
330
2
100
AcDbSymbolTableRecord
100
AcDbLayerTableRecord
  2
Mittellinie (ISO)
 70
    0
 62
    1
  6
CONTINUOUS
370
    9
390
F
  0
LAYER
  5
4D
330
2
100
AcDbSymbolTableRecord
100
AcDbLayerTableRecord
  2
Mittelpunktmarkierung (ISO)
 70
    0
 62
    1
  6
CONTINUOUS
370
    9
390
F
  0
LAYER
  5
4E
330
2
100
AcDbSymbolTableRecord
100
AcDbLayerTableRecord
  2
Schraffur
 70
    0
 62
    1
  6
CONTINUOUS
370
    9
390
F
  0
LAYER
  5
4F
330
2
100
AcDbSymbolTableRecord
100
AcDbLayerTableRecord
  2
Schraffur (ISO)
 70
    0
 62
    6
  6
CONTINUOUS
370
    9
390
F
  0
LAYER
  5
50
330
2
100
AcDbSymbolTableRecord
100
AcDbLayerTableRecord
  2
Sichtbar (ISO)
 70
    0
 62
    7
  6
CONTINUOUS
370
   25
390
F
  0
LAYER
  5
51
330
2
100
AcDbSymbolTableRecord
100
AcDbLayerTableRecord
  2
Skizziergeometrie (ISO)
 70
    0
 62
    7
  6
CONTINUOUS
370
   18
390
F
  0
LAYER
  5
52
330
2
100
AcDbSymbolTableRecord
100
AcDbLayerTableRecord
  2
Skizziergeometrie(DIN)
 70
    0
 62
  179
420
2500185
  6
CONTINUOUS
370
   35
390
F
  0
LAYER
  5
53
330
2
100
AcDbSymbolTableRecord
100
AcDbLayerTableRecord
  2
Symbol (ISO)
 70
    0
 62
    5
  6
CONTINUOUS
370
    9
390
F
  0
LAYER
  5
54
330
2
100
AcDbSymbolTableRecord
100
AcDbLayerTableRecord
  2
Symbole(DIN)
 70
    0
 62
    7
  6
CONTINUOUS
370
   18
390
F
  0
ENDTAB
  0
TABLE
  2
STYLE
  5
3
330
0
100
AcDbSymbolTable
 70
    3
  0
STYLE
  5
55
330
2
100
AcDbSymbolTableRecord
100
AcDbTextStyleTableRecord
  2
aktuell-din
 70
    0
 40
0
 41
1
 50
0
 71
    0
 42
1
  3
aktuell-din
  4

  0
STYLE
  5
56
330
2
100
AcDbSymbolTableRecord
100
AcDbTextStyleTableRecord
  2
notiztext (din)
 70
    0
 40
0
 41
1
 50
0
 71
    0
 42
1
  3
notiztext (din)
  4

  0
STYLE
  5
57
330
2
100
AcDbSymbolTableRecord
100
AcDbTextStyleTableRecord
  2
Standard
 70
    0
 40
0
 41
1
 50
0
 71
    0
 42
1
  3
txt
  4

  0
ENDTAB
  0
TABLE
  2
VIEW
  5
6
330
0
100
AcDbSymbolTable
 70
    0
  0
ENDTAB
  0
TABLE
  2
UCS
  5
7
330
0
100
AcDbSymbolTable
 70
    0
  0
ENDTAB
  0
TABLE
  2
APPID
  5
9
330
0
100
AcDbSymbolTable
 70
    1
  0
APPID
  5
12
330
9
100
AcDbSymbolTableRecord
100
AcDbRegAppTableRecord
  2
ACAD
 70
    0
  0
APPID
  5
58
330
9
100
AcDbSymbolTableRecord
100
AcDbRegAppTableRecord
  2
LibreCad
 70
    0
  0
ENDTAB
  0
TABLE
  2
DIMSTYLE
  5
A
330
0
100
AcDbSymbolTable
 70
    1
100
AcDbDimStyleTable
 71
    1
  0
DIMSTYLE
105
59
330
A
100
AcDbSymbolTableRecord
100
AcDbDimStyleTableRecord
  2
Standard
 70
    0
 40
1
 41
0.18
 42
0.0625
 43
0.38
 44
0.18
 45
0
 46
0
 47
0
 48
0
 49
1
140
0.18
141
0.09
142
0
143
25.4
144
1
145
0
146
1
147
0.09
148
0
 71
    0
 72
    0
 73
    1
 74
    1
 75
    0
 76
    0
 77
    0
 78
    0
 79
    0
170
    0
171
    2
172
    0
173
    0
174
    0
175
    0
176
    0
177
    0
178
    0
179
    0
271
    4
272
    4
273
    2
274
    2
275
    0
276
    0
277
    2
278
   46
279
    0
280
    0
281
    0
282
    0
283
    1
284
    0
285
    0
286
    0
288
    0
289
    3
340
Standard
341

371
   -2
372
   -2
  0
ENDTAB
  0
TABLE
  2
BLOCK_RECORD
  5
1
330
0
100
AcDbSymbolTable
 70
    2
  0
BLOCK_RECORD
  5
1F
330
1
100
AcDbSymbolTableRecord
100
AcDbBlockTableRecord
  2
*Model_Space
 70
    0
280
    1
281
    0
  0
BLOCK_RECORD
  5
1E
330
1
100
AcDbSymbolTableRecord
100
AcDbBlockTableRecord
  2
*Paper_Space
 70
    0
280
    1
281
    0
  0
BLOCK_RECORD
  5
5A
330
1
100
AcDbSymbolTableRecord
100
AcDbBlockTableRecord
  2
*D8
 70
    0
280
    1
281
    0
  0
BLOCK_RECORD
  5
5D
330
1
100
AcDbSymbolTableRecord
100
AcDbBlockTableRecord
  2
*D2
 70
    0
280
    1
281
    0
  0
BLOCK_RECORD
  5
60
330
1
100
AcDbSymbolTableRecord
100
AcDbBlockTableRecord
  2
*D1
 70
    0
280
    1
281
    0
  0
BLOCK_RECORD
  5
63
330
1
100
AcDbSymbolTableRecord
100
AcDbBlockTableRecord
  2
*D6
 70
    0
280
    1
281
    0
  0
BLOCK_RECORD
  5
66
330
1
100
AcDbSymbolTableRecord
100
AcDbBlockTableRecord
  2
*D7
 70
    0
280
    1
281
    0
  0
BLOCK_RECORD
  5
69
330
1
100
AcDbSymbolTableRecord
100
AcDbBlockTableRecord
  2
*D10
 70
    0
280
    1
281
    0
  0
BLOCK_RECORD
  5
6C
330
1
100
AcDbSymbolTableRecord
100
AcDbBlockTableRecord
  2
*D4
 70
    0
280
    1
281
    0
  0
BLOCK_RECORD
  5
6F
330
1
100
AcDbSymbolTableRecord
100
AcDbBlockTableRecord
  2
*D3
 70
    0
280
    1
281
    0
  0
BLOCK_RECORD
  5
72
330
1
100
AcDbSymbolTableRecord
100
AcDbBlockTableRecord
  2
*D5
 70
    0
280
    1
281
    0
  0
BLOCK_RECORD
  5
75
330
1
100
AcDbSymbolTableRecord
100
AcDbBlockTableRecord
  2
*D9
 70
    0
280
    1
281
    0
  0
BLOCK_RECORD
  5
78
330
1
100
AcDbSymbolTableRecord
100
AcDbBlockTableRecord
  2
*D11
 70
    0
280
    1
281
    0
  0
BLOCK_RECORD
  5
7B
330
1
100
AcDbSymbolTableRecord
100
AcDbBlockTableRecord
  2
Filled-1
 70
    0
280
    1
281
    0
  0
BLOCK_RECORD
  5
7E
330
1
100
AcDbSymbolTableRecord
100
AcDbBlockTableRecord
  2
DatumFilled45
 70
    0
280
    1
281
    0
  0
BLOCK_RECORD
  5
81
330
1
100
AcDbSymbolTableRecord
100
AcDbBlockTableRecord
  2
Glasbearbeitung
 70
    0
280
    1
281
    0
  0
BLOCK_RECORD
  5
84
330
1
100
AcDbSymbolTableRecord
100
AcDbBlockTableRecord
  2
unbemaßte_Kanten
 70
    0
280
    1
281
    0
  0
BLOCK_RECORD
  5
87
330
1
100
AcDbSymbolTableRecord
100
AcDbBlockTableRecord
  2
Schleifrichtung
 70
    0
280
    1
281
    0
  0
BLOCK_RECORD
  5
8A
330
1
100
AcDbSymbolTableRecord
100
AcDbBlockTableRecord
  2
Senkung DIN 974-1 für Zylinderkopfschrauben
 70
    0
280
    1
281
    0
  0
BLOCK_RECORD
  5
8D
330
1
100
AcDbSymbolTableRecord
100
AcDbBlockTableRecord
  2
Senkung DIN 74-1 B (f) f. Senkschrauben
 70
    0
280
    1
281
    0
  0
BLOCK_RECORD
  5
90
330
1
100
AcDbSymbolTableRecord
100
AcDbBlockTableRecord
  2
Rz4(Rz16)
 70
    0
280
    1
281
    0
  0
BLOCK_RECORD
  5
93
330
1
100
AcDbSymbolTableRecord
100
AcDbBlockTableRecord
  2
Rz16(Rz4)
 70
    0
280
    1
281
    0
  0
BLOCK_RECORD
  5
96
330
1
100
AcDbSymbolTableRecord
100
AcDbBlockTableRecord
  2
unbemaßte_Kanten 0_5
 70
    0
280
    1
281
    0
  0
BLOCK_RECORD
  5
99
330
1
100
AcDbSymbolTableRecord
100
AcDbBlockTableRecord
  2
unbemaßte_Kanten 1
 70
    0
280
    1
281
    0
  0
BLOCK_RECORD
  5
9C
330
1
100
AcDbSymbolTableRecord
100
AcDbBlockTableRecord
  2
Schleifrichtung rund
 70
    0
280
    1
281
    0
  0
BLOCK_RECORD
  5
9F
330
1
100
AcDbSymbolTableRecord
100
AcDbBlockTableRecord
  2
Prototyp
 70
    0
280
    1
281
    0
  0
BLOCK_RECORD
  5
A2
330
1
100
AcDbSymbolTableRecord
100
AcDbBlockTableRecord
  2
Freigabe
 70
    0
280
    1
281
    0
  0
BLOCK_RECORD
  5
A5
330
1
100
AcDbSymbolTableRecord
100
AcDbBlockTableRecord
  2
Freigabe(Englisch)
 70
    0
280
    1
281
    0
  0
BLOCK_RECORD
  5
A8
330
1
100
AcDbSymbolTableRecord
100
AcDbBlockTableRecord
  2
Freigabe(Französisch)
 70
    0
280
    1
281
    0
  0
BLOCK_RECORD
  5
AB
330
1
100
AcDbSymbolTableRecord
100
AcDbBlockTableRecord
  2
Freigabe(Spanisch)
 70
    0
280
    1
281
    0
  0
BLOCK_RECORD
  5
AE
330
1
100
AcDbSymbolTableRecord
100
AcDbBlockTableRecord
  2
Schleifrichtung 30°
 70
    0
280
    1
281
    0
  0
BLOCK_RECORD
  5
B1
330
1
100
AcDbSymbolTableRecord
100
AcDbBlockTableRecord
  2
Schleifrichtung 60°
 70
    0
280
    1
281
    0
  0
BLOCK_RECORD
  5
B4
330
1
100
AcDbSymbolTableRecord
100
AcDbBlockTableRecord
  2
Schleifrichtung 40°
 70
    0
280
    1
281
    0
  0
BLOCK_RECORD
  5
B7
330
1
100
AcDbSymbolTableRecord
100
AcDbBlockTableRecord
  2
Schleifrichtung 90°
 70
    0
280
    1
281
    0
  0
BLOCK_RECORD
  5
BA
330
1
100
AcDbSymbolTableRecord
100
AcDbBlockTableRecord
  2
Schleifrichtung 20°
 70
    0
280
    1
281
    0
  0
BLOCK_RECORD
  5
BD
330
1
100
AcDbSymbolTableRecord
100
AcDbBlockTableRecord
  2
Schleifrichtung 15°
 70
    0
280
    1
281
    0
  0
BLOCK_RECORD
  5
C0
330
1
100
AcDbSymbolTableRecord
100
AcDbBlockTableRecord
  2
Schleifrichtung -30°
 70
    0
280
    1
281
    0
  0
BLOCK_RECORD
  5
C3
330
1
100
AcDbSymbolTableRecord
100
AcDbBlockTableRecord
  2
Schleifrichtung -15°
 70
    0
280
    1
281
    0
  0
BLOCK_RECORD
  5
C6
330
1
100
AcDbSymbolTableRecord
100
AcDbBlockTableRecord
  2
Schleifrichtung -40°
 70
    0
280
    1
281
    0
  0
BLOCK_RECORD
  5
C9
330
1
100
AcDbSymbolTableRecord
100
AcDbBlockTableRecord
  2
Schleifrichtung -60°
 70
    0
280
    1
281
    0
  0
BLOCK_RECORD
  5
CC
330
1
100
AcDbSymbolTableRecord
100
AcDbBlockTableRecord
  2
Schleifrichtung -50°
 70
    0
280
    1
281
    0
  0
BLOCK_RECORD
  5
CF
330
1
100
AcDbSymbolTableRecord
100
AcDbBlockTableRecord
  2
Flächen Galvanik
 70
    0
280
    1
281
    0
  0
BLOCK_RECORD
  5
D2
330
1
100
AcDbSymbolTableRecord
100
AcDbBlockTableRecord
  2
Duschenglas 8mm
 70
    0
280
    1
281
    0
  0
BLOCK_RECORD
  5
D5
330
1
100
AcDbSymbolTableRecord
100
AcDbBlockTableRecord
  2
Außerhalb der AbZ 85
 70
    0
280
    1
281
    0
  0
BLOCK_RECORD
  5
D8
330
1
100
AcDbSymbolTableRecord
100
AcDbBlockTableRecord
  2
Duschenglas 6mm
 70
    0
280
    1
281
    0
  0
BLOCK_RECORD
  5
DB
330
1
100
AcDbSymbolTableRecord
100
AcDbBlockTableRecord
  2
unbemaßte Kanten R_0_2 runden
 70
    0
280
    1
281
    0
  0
BLOCK_RECORD
  5
DE
330
1
100
AcDbSymbolTableRecord
100
AcDbBlockTableRecord
  2
Prüfzertifikat nach DIN EN 10204 (3.1) erforderlich
 70
    0
280
    1
281
    0
  0
BLOCK_RECORD
  5
E1
330
1
100
AcDbSymbolTableRecord
100
AcDbBlockTableRecord
  2
Reinigen
 70
    0
280
    1
281
    0
  0
BLOCK_RECORD
  5
E4
330
1
100
AcDbSymbolTableRecord
100
AcDbBlockTableRecord
  2
Schleifrichtung rund-2
 70
    0
280
    1
281
    0
  0
BLOCK_RECORD
  5
E7
330
1
100
AcDbSymbolTableRecord
100
AcDbBlockTableRecord
  2
EPDM-washer
 70
    0
280
    1
281
    0
  0
BLOCK_RECORD
  5
EA
330
1
100
AcDbSymbolTableRecord
100
AcDbBlockTableRecord
  2
isometric view
 70
    0
280
    1
281
    0
  0
BLOCK_RECORD
  5
ED
330
1
100
AcDbSymbolTableRecord
100
AcDbBlockTableRecord
  2
glazing
 70
    0
280
    1
281
    0
  0
BLOCK_RECORD
  5
F0
330
1
100
AcDbSymbolTableRecord
100
AcDbBlockTableRecord
  2
countersink screw EN ISO A2
 70
    0
280
    1
281
    0
  0
BLOCK_RECORD
  5
F3
330
1
100
AcDbSymbolTableRecord
100
AcDbBlockTableRecord
  2
cylinder head screw EN ISO A2
 70
    0
280
    1
281
    0
  0
BLOCK_RECORD
  5
F6
330
1
100
AcDbSymbolTableRecord
100
AcDbBlockTableRecord
  2
P+S glass clamp
 70
    0
280
    1
281
    0
  0
ENDTAB
  0
ENDSEC
  0
SECTION
  2
BLOCKS
  0
BLOCK
  5
20
330
1F
100
AcDbEntity
  8
0
100
AcDbBlockBegin
  2
*Model_Space
 70
    0
 10
0
 20
0
 30
0
  3
*Model_Space
  1

  0
ENDBLK
  5
21
330
1F
100
AcDbEntity
  8
0
100
AcDbBlockEnd
  0
BLOCK
  5
1C
330
1B
100
AcDbEntity
  8
0
100
AcDbBlockBegin
  2
*Paper_Space
 70
    0
 10
0
 20
0
 30
0
  3
*Paper_Space
  1

  0
ENDBLK
  5
1D
330
1F
100
AcDbEntity
  8
0
100
AcDbBlockEnd
  0
BLOCK
  5
5B
330
5A
100
AcDbEntity
  8
0
100
AcDbBlockBegin
  2
*D8
 70
    1
 10
0
 20
0
  3
*D8
  1

  0
SOLID
  5
F9
100
AcDbEntity
  8
Bemaßung (ISO)
  6
ByBlock
 62
    0
370
   -2
100
AcDbTrace
 10
354.8963482512824
 20
118.9156822692363
 30
0
 11
354.7902627853867
 21
118.7672092939049
 31
0
 12
354.7478752759509
 22
118.8095968033406
 32
0
 13
354.7478752759509
 23
118.8095968033406
 33
0
  0
LINE
  5
FA
100
AcDbEntity
  8
Bemaßung (ISO)
  6
ByBlock
 62
    0
370
   -2
100
AcDbLine
 10
349.239494001789
 20
113.2588280197447
 11
354.8963482512824
 21
118.9156822692363
  0
MTEXT
  5
FB
100
AcDbEntity
  8
Bemaßung (ISO)
  6
CONTINUOUS
 62
    0
370
   -2
100
AcDbMText
 10
362.7542291214885
 20
130.6126561694139
 30
0
 40
0.18
 41
0.7
 71
    5
 72
    1
  1
8.0000
  7
Standard
210
0
220
0
230
1
 50
44.99999999999093
 73
    2
 44
1
  0
ENDBLK
  5
5C
330
5A
100
AcDbEntity
  8
0
100
AcDbBlockEnd
  0
BLOCK
  5
5E
330
5D
100
AcDbEntity
  8
0
100
AcDbBlockBegin
  2
*D2
 70
    1
 10
0
 20
0
  3
*D2
  1

  0
LINE
  5
FC
100
AcDbEntity
  8
Bemaßung (ISO)
  6
ByBlock
 62
    0
370
   -2
100
AcDbLine
 10
340.596021693419
 20
222.6895922760235
 11
340.596021693419
 21
214.6895922760235
  0
SOLID
  5
FD
100
AcDbEntity
  8
Bemaßung (ISO)
  6
ByBlock
 62
    0
370
   -2
100
AcDbTrace
 10
340.596021693419
 20
222.6895922760235
 30
0
 11
340.6259941887786
 21
222.5095922760235
 31
0
 12
340.5660491980594
 22
222.5095922760235
 32
0
 13
340.5660491980594
 23
222.5095922760235
 33
0
  0
SOLID
  5
FE
100
AcDbEntity
  8
Bemaßung (ISO)
  6
ByBlock
 62
    0
370
   -2
100
AcDbTrace
 10
340.596021693419
 20
214.6895922760235
 30
0
 11
340.5660491980594
 21
214.8695922760235
 31
0
 12
340.6259941887786
 22
214.8695922760235
 32
0
 13
340.6259941887786
 23
214.8695922760235
 33
0
  0
MTEXT
  5
FF
100
AcDbEntity
  8
Bemaßung (ISO)
  6
CONTINUOUS
 62
    0
370
   -2
100
AcDbMText
 10
340.596021693419
 20
188.0441794962058
 30
0
 40
0.18
 41
1.495000000000028
 71
    5
 72
    1
  1
 6, 8 o. 10mm
  7
Standard
210
0
220
0
230
1
 50
0
 73
    2
 44
1
  0
LINE
  5
100
100
AcDbEntity
  8
Bemaßung (ISO)
  6
ByBlock
 62
    0
370
   -2
100
AcDbLine
 10
322.6585216934191
 20
222.6895922760235
 11
340.776021693419
 21
222.6895922760235
  0
LINE
  5
101
100
AcDbEntity
  8
Bemaßung (ISO)
  6
ByBlock
 62
    0
370
   -2
100
AcDbLine
 10
322.6585216934191
 20
214.6895922760235
 11
340.776021693419
 21
214.6895922760235
  0
ENDBLK
  5
5F
330
5D
100
AcDbEntity
  8
0
100
AcDbBlockEnd
  0
BLOCK
  5
61
330
60
100
AcDbEntity
  8
0
100
AcDbBlockBegin
  2
*D1
 70
    1
 10
0
 20
0
  3
*D1
  1

  0
LINE
  5
102
100
AcDbEntity
  8
Bemaßung (ISO)
  6
ByBlock
 62
    0
370
   -2
100
AcDbLine
 10
340.596021693419
 20
222.6895922760235
 11
340.596021693419
 21
240.7595922760233
  0
SOLID
  5
103
100
AcDbEntity
  8
Bemaßung (ISO)
  6
ByBlock
 62
    0
370
   -2
100
AcDbTrace
 10
340.596021693419
 20
222.6895922760235
 30
0
 11
340.5660491980594
 21
222.8695922760235
 31
0
 12
340.6259941887786
 22
222.8695922760235
 32
0
 13
340.6259941887786
 23
222.8695922760235
 33
0
  0
SOLID
  5
104
100
AcDbEntity
  8
Bemaßung (ISO)
  6
ByBlock
 62
    0
370
   -2
100
AcDbTrace
 10
340.596021693419
 20
259.189592276023
 30
0
 11
340.6259941887786
 21
259.009592276023
 31
0
 12
340.5660491980594
 22
259.009592276023
 32
0
 13
340.5660491980594
 23
259.009592276023
 33
0
  0
LINE
  5
105
100
AcDbEntity
  8
Bemaßung (ISO)
  6
ByBlock
 62
    0
370
   -2
100
AcDbLine
 10
340.596021693419
 20
241.1195922760233
 11
340.596021693419
 21
259.189592276023
  0
MTEXT
  5
106
100
AcDbEntity
  8
Bemaßung (ISO)
  6
CONTINUOUS
 62
    0
370
   -2
100
AcDbMText
 10
340.596021693419
 20
240.9395922760233
 30
0
 40
0.18
 41
1.29500000000005
 71
    5
 72
    1
  1
ca. 36.5000
  7
Standard
210
0
220
0
230
1
 50
0
 73
    2
 44
1
  0
LINE
  5
107
100
AcDbEntity
  8
Bemaßung (ISO)
  6
ByBlock
 62
    0
370
   -2
100
AcDbLine
 10
322.6585216934191
 20
222.6895922760235
 11
340.776021693419
 21
222.6895922760235
  0
LINE
  5
108
100
AcDbEntity
  8
Bemaßung (ISO)
  6
ByBlock
 62
    0
370
   -2
100
AcDbLine
 10
237.1585216934191
 20
259.189592276023
 11
340.776021693419
 21
259.189592276023
  0
ENDBLK
  5
62
330
60
100
AcDbEntity
  8
0
100
AcDbBlockEnd
  0
BLOCK
  5
64
330
63
100
AcDbEntity
  8
0
100
AcDbBlockBegin
  2
*D6
 70
    1
 10
0
 20
0
  3
*D6
  1

  0
LINE
  5
109
100
AcDbEntity
  8
Bemaßung (ISO)
  6
ByBlock
 62
    0
370
   -2
100
AcDbLine
 10
289.2394940017904
 20
118.2588280197449
 11
289.2394940017904
 21
95.43882801974537
  0
SOLID
  5
10A
100
AcDbEntity
  8
Bemaßung (ISO)
  6
ByBlock
 62
    0
370
   -2
100
AcDbTrace
 10
289.2394940017904
 20
118.2588280197449
 30
0
 11
289.26946649715
 21
118.0788280197449
 31
0
 12
289.2095215064307
 22
118.0788280197449
 32
0
 13
289.2095215064307
 23
118.0788280197449
 33
0
  0
SOLID
  5
10B
100
AcDbEntity
  8
Bemaßung (ISO)
  6
ByBlock
 62
    0
370
   -2
100
AcDbTrace
 10
289.2394940017904
 20
72.25882801974495
 30
0
 11
289.2095215064307
 21
72.43882801974496
 31
0
 12
289.26946649715
 22
72.43882801974496
 32
0
 13
289.26946649715
 23
72.43882801974496
 33
0
  0
LINE
  5
10C
100
AcDbEntity
  8
Bemaßung (ISO)
  6
ByBlock
 62
    0
370
   -2
100
AcDbLine
 10
289.2394940017904
 20
95.07882801974536
 11
289.2394940017904
 21
72.25882801974495
  0
MTEXT
  5
10D
100
AcDbEntity
  8
Bemaßung (ISO)
  6
CONTINUOUS
 62
    0
370
   -2
100
AcDbMText
 10
289.2394940017903
 20
95.25882801974537
 30
0
 40
0.18
 41
0.8600000000000112
 71
    5
 72
    1
  1
46.0000
  7
Standard
210
0
220
0
230
1
 50
0
 73
    2
 44
1
  0
LINE
  5
10E
100
AcDbEntity
  8
Bemaßung (ISO)
  6
ByBlock
 62
    0
370
   -2
100
AcDbLine
 10
299.1769940017895
 20
118.2588280197449
 11
289.0594940017904
 21
118.2588280197449
  0
LINE
  5
10F
100
AcDbEntity
  8
Bemaßung (ISO)
  6
ByBlock
 62
    0
370
   -2
100
AcDbLine
 10
299.1769940017895
 20
72.25882801974495
 11
289.0594940017904
 21
72.25882801974495
  0
ENDBLK
  5
65
330
63
100
AcDbEntity
  8
0
100
AcDbBlockEnd
  0
BLOCK
  5
67
330
66
100
AcDbEntity
  8
0
100
AcDbBlockBegin
  2
*D7
 70
    1
 10
0
 20
0
  3
*D7
  1

  0
LINE
  5
110
100
AcDbEntity
  8
Bemaßung (ISO)
  6
ByBlock
 62
    0
370
   -2
100
AcDbLine
 10
335.3283648183569
 20
113.2588280197449
 11
335.3283648183569
 21
95.43882801974492
  0
SOLID
  5
111
100
AcDbEntity
  8
Bemaßung (ISO)
  6
ByBlock
 62
    0
370
   -2
100
AcDbTrace
 10
335.3283648183569
 20
113.2588280197449
 30
0
 11
335.3583373137165
 21
113.0788280197449
 31
0
 12
335.2983923229972
 22
113.0788280197449
 32
0
 13
335.2983923229972
 23
113.0788280197449
 33
0
  0
SOLID
  5
112
100
AcDbEntity
  8
Bemaßung (ISO)
  6
ByBlock
 62
    0
370
   -2
100
AcDbTrace
 10
335.3283648183569
 20
77.25882801974493
 30
0
 11
335.2983923229972
 21
77.43882801974493
 31
0
 12
335.3583373137165
 22
77.43882801974493
 32
0
 13
335.3583373137165
 23
77.43882801974493
 33
0
  0
LINE
  5
113
100
AcDbEntity
  8
Bemaßung (ISO)
  6
ByBlock
 62
    0
370
   -2
100
AcDbLine
 10
335.3283648183569
 20
95.0788280197449
 11
335.3283648183569
 21
77.25882801974493
  0
MTEXT
  5
114
100
AcDbEntity
  8
Bemaßung (ISO)
  6
CONTINUOUS
 62
    0
370
   -2
100
AcDbMText
 10
335.3283648183568
 20
95.25882801974491
 30
0
 40
0.18
 41
0.8400000000000223
 71
    5
 72
    1
  1
36.0000
  7
Standard
210
0
220
0
230
1
 50
0
 73
    2
 44
1
  0
LINE
  5
115
100
AcDbEntity
  8
Bemaßung (ISO)
  6
ByBlock
 62
    0
370
   -2
100
AcDbLine
 10
348.6769940017895
 20
113.2588280197449
 11
335.1483648183569
 21
113.2588280197449
  0
LINE
  5
116
100
AcDbEntity
  8
Bemaßung (ISO)
  6
ByBlock
 62
    0
370
   -2
100
AcDbLine
 10
348.6769940017895
 20
77.25882801974493
 11
335.1483648183569
 21
77.25882801974493
  0
ENDBLK
  5
68
330
66
100
AcDbEntity
  8
0
100
AcDbBlockEnd
  0
BLOCK
  5
6A
330
69
100
AcDbEntity
  8
0
100
AcDbBlockBegin
  2
*D10
 70
    1
 10
0
 20
0
  3
*D10
  1

  0
LINE
  5
117
100
AcDbEntity
  8
Bemaßung (ISO)
  6
ByBlock
 62
    0
370
   -2
100
AcDbLine
 10
254.7702277605591
 20
127.2588280197449
 11
254.7702277605591
 21
95.43882801974493
  0
SOLID
  5
118
100
AcDbEntity
  8
Bemaßung (ISO)
  6
ByBlock
 62
    0
370
   -2
100
AcDbTrace
 10
254.7702277605591
 20
127.2588280197449
 30
0
 11
254.8002002559188
 21
127.0788280197449
 31
0
 12
254.7402552651994
 22
127.0788280197449
 32
0
 13
254.7402552651994
 23
127.0788280197449
 33
0
  0
SOLID
  5
119
100
AcDbEntity
  8
Bemaßung (ISO)
  6
ByBlock
 62
    0
370
   -2
100
AcDbTrace
 10
254.7702277605591
 20
63.25882801974488
 30
0
 11
254.7402552651994
 21
63.43882801974488
 31
0
 12
254.8002002559188
 22
63.43882801974488
 32
0
 13
254.8002002559188
 23
63.43882801974488
 33
0
  0
LINE
  5
11A
100
AcDbEntity
  8
Bemaßung (ISO)
  6
ByBlock
 62
    0
370
   -2
100
AcDbLine
 10
254.7702277605591
 20
95.07882801974492
 11
254.7702277605591
 21
63.25882801974488
  0
MTEXT
  5
11B
100
AcDbEntity
  8
Bemaßung (ISO)
  6
CONTINUOUS
 62
    0
370
   -2
100
AcDbMText
 10
254.7702277605591
 20
95.25882801974493
 30
0
 40
0.18
 41
0.8600000000000112
 71
    5
 72
    1
  1
64.0000
  7
Standard
210
0
220
0
230
1
 50
0
 73
    2
 44
1
  0
LINE
  5
11C
100
AcDbEntity
  8
Bemaßung (ISO)
  6
ByBlock
 62
    0
370
   -2
100
AcDbLine
 10
244.8327277605591
 20
127.2588280197449
 11
254.9502277605591
 21
127.2588280197449
  0
LINE
  5
11D
100
AcDbEntity
  8
Bemaßung (ISO)
  6
ByBlock
 62
    0
370
   -2
100
AcDbLine
 10
244.8327277605591
 20
63.25882801974488
 11
254.9502277605591
 21
63.25882801974488
  0
ENDBLK
  5
6B
330
69
100
AcDbEntity
  8
0
100
AcDbBlockEnd
  0
BLOCK
  5
6D
330
6C
100
AcDbEntity
  8
0
100
AcDbBlockBegin
  2
*D4
 70
    1
 10
0
 20
0
  3
*D4
  1

  0
LINE
  5
11E
100
AcDbEntity
  8
Bemaßung (ISO)
  6
ByBlock
 62
    0
370
   -2
100
AcDbLine
 10
211.2652312348135
 20
259.189592276023
 11
211.2652312348135
 21
233.6195922760232
  0
SOLID
  5
11F
100
AcDbEntity
  8
Bemaßung (ISO)
  6
ByBlock
 62
    0
370
   -2
100
AcDbTrace
 10
211.2652312348135
 20
259.189592276023
 30
0
 11
211.2952037301732
 21
259.009592276023
 31
0
 12
211.2352587394539
 22
259.009592276023
 32
0
 13
211.2352587394539
 23
259.009592276023
 33
0
  0
SOLID
  5
120
100
AcDbEntity
  8
Bemaßung (ISO)
  6
ByBlock
 62
    0
370
   -2
100
AcDbTrace
 10
211.2652312348135
 20
207.6895922760231
 30
0
 11
211.2352587394539
 21
207.8695922760231
 31
0
 12
211.2952037301732
 22
207.8695922760231
 32
0
 13
211.2952037301732
 23
207.8695922760231
 33
0
  0
LINE
  5
121
100
AcDbEntity
  8
Bemaßung (ISO)
  6
ByBlock
 62
    0
370
   -2
100
AcDbLine
 10
211.2652312348135
 20
233.2595922760232
 11
211.2652312348135
 21
207.6895922760231
  0
MTEXT
  5
122
100
AcDbEntity
  8
Bemaßung (ISO)
  6
CONTINUOUS
 62
    0
370
   -2
100
AcDbMText
 10
211.2652312348135
 20
233.4395922760232
 30
0
 40
0.18
 41
0.8000000000000224
 71
    5
 72
    1
  1
51.5000
  7
Standard
210
0
220
0
230
1
 50
0
 73
    2
 44
1
  0
LINE
  5
123
100
AcDbEntity
  8
Bemaßung (ISO)
  6
ByBlock
 62
    0
370
   -2
100
AcDbLine
 10
229.6335216934191
 20
259.189592276023
 11
211.0852312348135
 21
259.189592276023
  0
LINE
  5
124
100
AcDbEntity
  8
Bemaßung (ISO)
  6
ByBlock
 62
    0
370
   -2
100
AcDbLine
 10
229.5335216934191
 20
207.6895922760231
 11
211.0852312348135
 21
207.6895922760231
  0
ENDBLK
  5
6E
330
6C
100
AcDbEntity
  8
0
100
AcDbBlockEnd
  0
BLOCK
  5
70
330
6F
100
AcDbEntity
  8
0
100
AcDbBlockBegin
  2
*D3
 70
    1
 10
0
 20
0
  3
*D3
  1

  0
LINE
  5
125
100
AcDbEntity
  8
Bemaßung (ISO)
  6
ByBlock
 62
    0
370
   -2
100
AcDbLine
 10
221.819190517374
 20
229.6895922760231
 11
221.819190517374
 21
218.8695922760231
  0
SOLID
  5
126
100
AcDbEntity
  8
Bemaßung (ISO)
  6
ByBlock
 62
    0
370
   -2
100
AcDbTrace
 10
221.819190517374
 20
229.6895922760231
 30
0
 11
221.8491630127337
 21
229.5095922760231
 31
0
 12
221.7892180220144
 22
229.5095922760231
 32
0
 13
221.7892180220144
 23
229.5095922760231
 33
0
  0
SOLID
  5
127
100
AcDbEntity
  8
Bemaßung (ISO)
  6
ByBlock
 62
    0
370
   -2
100
AcDbTrace
 10
221.819190517374
 20
207.689592276023
 30
0
 11
221.7892180220144
 21
207.869592276023
 31
0
 12
221.8491630127337
 22
207.869592276023
 32
0
 13
221.8491630127337
 23
207.869592276023
 33
0
  0
LINE
  5
128
100
AcDbEntity
  8
Bemaßung (ISO)
  6
ByBlock
 62
    0
370
   -2
100
AcDbLine
 10
221.819190517374
 20
218.5095922760231
 11
221.819190517374
 21
207.689592276023
  0
MTEXT
  5
129
100
AcDbEntity
  8
Bemaßung (ISO)
  6
CONTINUOUS
 62
    0
370
   -2
100
AcDbMText
 10
221.819190517374
 20
218.6895922760231
 30
0
 40
0.18
 41
0.8400000000000001
 71
    5
 72
    1
  1
22.0000
  7
Standard
210
0
220
0
230
1
 50
0
 73
    2
 44
1
  0
LINE
  5
12A
100
AcDbEntity
  8
Bemaßung (ISO)
  6
ByBlock
 62
    0
370
   -2
100
AcDbLine
 10
239.7566905173688
 20
229.6895922760231
 11
221.639190517374
 21
229.6895922760231
  0
LINE
  5
12B
100
AcDbEntity
  8
Bemaßung (ISO)
  6
ByBlock
 62
    0
370
   -2
100
AcDbLine
 10
229.5335216934191
 20
207.689592276023
 11
221.639190517374
 21
207.689592276023
  0
ENDBLK
  5
71
330
6F
100
AcDbEntity
  8
0
100
AcDbBlockEnd
  0
BLOCK
  5
73
330
72
100
AcDbEntity
  8
0
100
AcDbBlockBegin
  2
*D5
 70
    1
 10
0
 20
0
  3
*D5
  1

  0
LINE
  5
12C
100
AcDbEntity
  8
Bemaßung (ISO)
  6
ByBlock
 62
    0
370
   -2
100
AcDbLine
 10
229.5960216934191
 20
195.8895922760235
 11
233.656021693419
 21
195.8895922760235
  0
SOLID
  5
12D
100
AcDbEntity
  8
Bemaßung (ISO)
  6
ByBlock
 62
    0
370
   -2
100
AcDbTrace
 10
229.5960216934191
 20
195.8895922760235
 30
0
 11
229.7760216934191
 21
195.9195647713832
 31
0
 12
229.7760216934191
 22
195.8596197806638
 32
0
 13
229.7760216934191
 23
195.8596197806638
 33
0
  0
SOLID
  5
12E
100
AcDbEntity
  8
Bemaßung (ISO)
  6
ByBlock
 62
    0
370
   -2
100
AcDbTrace
 10
238.596021693419
 20
195.8895922760235
 30
0
 11
238.416021693419
 21
195.8596197806638
 31
0
 12
238.416021693419
 22
195.9195647713832
 32
0
 13
238.416021693419
 23
195.9195647713832
 33
0
  0
LINE
  5
12F
100
AcDbEntity
  8
Bemaßung (ISO)
  6
ByBlock
 62
    0
370
   -2
100
AcDbLine
 10
234.536021693419
 20
195.8895922760235
 11
238.596021693419
 21
195.8895922760235
  0
MTEXT
  5
130
100
AcDbEntity
  8
Bemaßung (ISO)
  6
CONTINUOUS
 62
    0
370
   -2
100
AcDbMText
 10
234.096021693419
 20
195.8895922760235
 30
0
 40
0.18
 41
0.7000000000000113
 71
    5
 72
    1
  1
9.0000
  7
Standard
210
0
220
0
230
1
 50
0
 73
    2
 44
1
  0
LINE
  5
131
100
AcDbEntity
  8
Bemaßung (ISO)
  6
ByBlock
 62
    0
370
   -2
100
AcDbLine
 10
229.5960216934191
 20
207.6270922760231
 11
229.5960216934191
 21
195.7095922760235
  0
LINE
  5
132
100
AcDbEntity
  8
Bemaßung (ISO)
  6
ByBlock
 62
    0
370
   -2
100
AcDbLine
 10
238.596021693419
 20
215.4270922760235
 11
238.596021693419
 21
195.7095922760235
  0
ENDBLK
  5
74
330
72
100
AcDbEntity
  8
0
100
AcDbBlockEnd
  0
BLOCK
  5
76
330
75
100
AcDbEntity
  8
0
100
AcDbBlockBegin
  2
*D9
 70
    1
 10
0
 20
0
  3
*D9
  1

  0
LINE
  5
133
100
AcDbEntity
  8
Bemaßung (ISO)
  6
ByBlock
 62
    0
370
   -2
100
AcDbLine
 10
299.2394940017895
 20
33.75882801974496
 11
323.7294940017895
 21
33.75882801974495
  0
SOLID
  5
134
100
AcDbEntity
  8
Bemaßung (ISO)
  6
ByBlock
 62
    0
370
   -2
100
AcDbTrace
 10
299.2394940017895
 20
33.75882801974496
 30
0
 11
299.4194940017895
 21
33.7888005151046
 31
0
 12
299.4194940017895
 22
33.72885552438532
 32
0
 13
299.4194940017895
 23
33.72885552438532
 33
0
  0
SOLID
  5
135
100
AcDbEntity
  8
Bemaßung (ISO)
  6
ByBlock
 62
    0
370
   -2
100
AcDbTrace
 10
349.2394940017895
 20
33.75882801974495
 30
0
 11
349.0594940017895
 21
33.72885552438531
 31
0
 12
349.0594940017895
 22
33.7888005151046
 32
0
 13
349.0594940017895
 23
33.7888005151046
 33
0
  0
LINE
  5
136
100
AcDbEntity
  8
Bemaßung (ISO)
  6
ByBlock
 62
    0
370
   -2
100
AcDbLine
 10
324.7494940017895
 20
33.75882801974495
 11
349.2394940017895
 21
33.75882801974495
  0
MTEXT
  5
137
100
AcDbEntity
  8
Bemaßung (ISO)
  6
CONTINUOUS
 62
    0
370
   -2
100
AcDbMText
 10
324.2394940017895
 20
33.75882801974495
 30
0
 40
0.18
 41
0.8400000000000112
 71
    5
 72
    1
  1
50.0000
  7
Standard
210
0
220
0
230
1
 50
0
 73
    2
 44
1
  0
LINE
  5
138
100
AcDbEntity
  8
Bemaßung (ISO)
  6
ByBlock
 62
    0
370
   -2
100
AcDbLine
 10
299.2394940017895
 20
45.19632801974496
 11
299.2394940017895
 21
33.57882801974496
  0
LINE
  5
139
100
AcDbEntity
  8
Bemaßung (ISO)
  6
ByBlock
 62
    0
370
   -2
100
AcDbLine
 10
349.2394940017895
 20
67.69632801974495
 11
349.2394940017895
 21
33.57882801974495
  0
ENDBLK
  5
77
330
75
100
AcDbEntity
  8
0
100
AcDbBlockEnd
  0
BLOCK
  5
79
330
78
100
AcDbEntity
  8
0
100
AcDbBlockBegin
  2
*D11
 70
    1
 10
0
 20
0
  3
*D11
  1

  0
LINE
  5
13A
100
AcDbEntity
  8
Bemaßung (ISO)
  6
ByBlock
 62
    0
370
   -2
100
AcDbLine
 10
166.7702277605636
 20
53.2588280197449
 11
205.2602277605613
 21
53.25882801974489
  0
SOLID
  5
13B
100
AcDbEntity
  8
Bemaßung (ISO)
  6
ByBlock
 62
    0
370
   -2
100
AcDbTrace
 10
166.7702277605636
 20
53.2588280197449
 30
0
 11
166.9502277605636
 21
53.28880051510454
 31
0
 12
166.9502277605636
 22
53.22885552438525
 32
0
 13
166.9502277605636
 23
53.22885552438525
 33
0
  0
SOLID
  5
13C
100
AcDbEntity
  8
Bemaßung (ISO)
  6
ByBlock
 62
    0
370
   -2
100
AcDbTrace
 10
244.7702277605591
 20
53.25882801974488
 30
0
 11
244.5902277605591
 21
53.22885552438524
 31
0
 12
244.5902277605591
 22
53.28880051510453
 32
0
 13
244.5902277605591
 23
53.28880051510453
 33
0
  0
LINE
  5
13D
100
AcDbEntity
  8
Bemaßung (ISO)
  6
ByBlock
 62
    0
370
   -2
100
AcDbLine
 10
206.2802277605613
 20
53.25882801974489
 11
244.7702277605591
 21
53.25882801974488
  0
MTEXT
  5
13E
100
AcDbEntity
  8
Bemaßung (ISO)
  6
CONTINUOUS
 62
    0
370
   -2
100
AcDbMText
 10
205.7702277605613
 20
53.25882801974488
 30
0
 40
0.18
 41
0.8400000000000001
 71
    5
 72
    1
  1
78.0000
  7
Standard
210
0
220
0
230
1
 50
0
 73
    2
 44
1
  0
LINE
  5
13F
100
AcDbEntity
  8
Bemaßung (ISO)
  6
ByBlock
 62
    0
370
   -2
100
AcDbLine
 10
166.7702277605636
 20
63.19632801974493
 11
166.7702277605636
 21
53.0788280197449
  0
LINE
  5
140
100
AcDbEntity
  8
Bemaßung (ISO)
  6
ByBlock
 62
    0
370
   -2
100
AcDbLine
 10
244.7702277605591
 20
63.19632801974488
 11
244.7702277605591
 21
53.07882801974488
  0
ENDBLK
  5
7A
330
78
100
AcDbEntity
  8
0
100
AcDbBlockEnd
  0
BLOCK
  5
7C
330
7B
100
AcDbEntity
  8
0
100
AcDbBlockBegin
  2
Filled-1
 70
    0
 10
0
 20
0
  3
Filled-1
  1

  0
LINE
  5
141
100
AcDbEntity
  8
0
  6
ByLayer
 62
    0
370
   -1
100
AcDbLine
 10
-1
 20
0
 11
0
 21
0
  0
LWPOLYLINE
  5
142
100
AcDbEntity
  8
0
  6
ByLayer
 62
    0
370
   -1
100
AcDbPolyline
 90
    4
 70
    0
 43
0
 10
-1
 20
-0.1
 10
0
 20
0
 10
-1
 20
0.1
 10
-1
 20
-0.1
  0
SOLID
  5
143
100
AcDbEntity
  8
0
  6
ByLayer
 62
    0
370
   -1
100
AcDbTrace
 10
-1
 20
-0.1
 30
0
 11
0
 21
0
 31
0
 12
-1
 22
0.1
 32
0
 13
-1
 23
-0.1
 33
0
  0
LINE
  5
144
100
AcDbEntity
  8
0
  6
ByLayer
 62
    0
370
   -1
100
AcDbLine
 10
-1
 20
-0.1
 11
0
 21
0
  0
LINE
  5
145
100
AcDbEntity
  8
0
  6
ByLayer
 62
    0
370
   -1
100
AcDbLine
 10
0
 20
0
 11
-1
 21
0.1
  0
LINE
  5
146
100
AcDbEntity
  8
0
  6
ByLayer
 62
    0
370
   -1
100
AcDbLine
 10
-1
 20
0.1
 11
-1
 21
-0.1
  0
ENDBLK
  5
7D
330
7B
100
AcDbEntity
  8
0
100
AcDbBlockEnd
  0
BLOCK
  5
7F
330
7E
100
AcDbEntity
  8
0
100
AcDbBlockBegin
  2
DatumFilled45
 70
    0
 10
0
 20
0
  3
DatumFilled45
  1

  0
LWPOLYLINE
  5
147
100
AcDbEntity
  8
0
  6
ByLayer
 62
    0
370
   -1
100
AcDbPolyline
 90
    4
 70
    0
 43
0
 10
0
 20
1
 10
0
 20
-1
 10
-1
 20
0
 10
0
 20
1
  0
SOLID
  5
148
100
AcDbEntity
  8
0
  6
ByLayer
 62
    0
370
   -1
100
AcDbTrace
 10
0
 20
1
 30
0
 11
0
 21
-1
 31
0
 12
-1
 22
0
 32
0
 13
0
 23
1
 33
0
  0
ENDBLK
  5
80
330
7E
100
AcDbEntity
  8
0
100
AcDbBlockEnd
  0
BLOCK
  5
82
330
81
100
AcDbEntity
  8
0
100
AcDbBlockBegin
  2
Glasbearbeitung
 70
    0
 10
0
 20
0
  3
Glasbearbeitung
  1

  0
MTEXT
  5
149
100
AcDbEntity
  8
Symbole(DIN)
  6
ByLayer
 62
    7
370
   -1
100
AcDbMText
 10
-36.95807933807373
 20
2.29287352412939
 30
0
 40
3.499999940395355
 41
131.0555551236998
 71
    1
 72
    1
  1
\fArial|b0|i0;\H3.5000;Alle Kanten geschliffen und poliert
  7
aktuell-din
210
0
220
0
230
1
 50
0
 73
    1
 44
1
  0
ENDBLK
  5
83
330
81
100
AcDbEntity
  8
0
100
AcDbBlockEnd
  0
BLOCK
  5
85
330
84
100
AcDbEntity
  8
0
100
AcDbBlockBegin
  2
unbemaßte_Kanten
 70
    0
 10
0
 20
0
  3
unbemaßte_Kanten
  1

  0
MTEXT
  5
14A
100
AcDbEntity
  8
Symbole(DIN)
  6
ByLayer
 62
    7
370
   -1
100
AcDbMText
 10
-25.81729110330343
 20
1.518673673272132
 30
0
 40
2.5
 41
124.9305568412757
 71
    1
 72
    1
  1
unbemaßte Kanten 0,2x45\fAIGDT|b0|i0;\H2.5000;~\fArial|b0|i0;\H2.5000; fasen
  7
aktuell-din
210
0
220
0
230
1
 50
0
 73
    1
 44
1
  0
ENDBLK
  5
86
330
84
100
AcDbEntity
  8
0
100
AcDbBlockEnd
  0
BLOCK
  5
88
330
87
100
AcDbEntity
  8
0
100
AcDbBlockBegin
  2
Schleifrichtung
 70
    0
 10
0
 20
0
  3
Schleifrichtung
  1

  0
HATCH
  5
14B
100
AcDbEntity
  8
Schraffur
  6
ByLayer
 62
  179
420
2500185
370
   -1
100
AcDbHatch
 10
0
 20
0
 30
0
210
0
220
0
230
1
  2
SOLID
 70
    1
 71
    0
 91
    1
 92
    0
 93
    3
 72
    1
 10
0
 20
5
 11
-0.4999999999999983
 21
2.78774508444858
 72
    1
 10
-0.4999999999999983
 20
2.78774508444858
 11
0.4999999999999983
 21
2.78774508444858
 72
    1
 10
0.4999999999999983
 20
2.78774508444858
 11
0
 21
5
 97
    0
 75
    0
 76
    1
 98
    0
  0
HATCH
  5
14C
100
AcDbEntity
  8
Schraffur
  6
ByLayer
 62
  179
420
2500185
370
   -1
100
AcDbHatch
 10
0
 20
0
 30
0
210
0
220
0
230
1
  2
SOLID
 70
    1
 71
    0
 91
    1
 92
    0
 93
    3
 72
    1
 10
0
 20
-5
 11
0.4999999999999983
 21
-2.78774508444858
 72
    1
 10
0.4999999999999983
 20
-2.78774508444858
 11
-0.4999999999999983
 21
-2.78774508444858
 72
    1
 10
-0.4999999999999983
 20
-2.78774508444858
 11
0
 21
-5
 97
    0
 75
    0
 76
    1
 98
    0
  0
LINE
  5
14D
100
AcDbEntity
  8
Skizziergeometrie(DIN)
  6
ByLayer
 62
  256
370
   -1
100
AcDbLine
 10
0
 20
5
 11
0
 21
-5
  0
LINE
  5
14E
100
AcDbEntity
  8
Skizziergeometrie(DIN)
  6
ByLayer
 62
  256
370
   -1
100
AcDbLine
 10
0
 20
5
 11
-0.4999999999999983
 21
2.78774508444858
  0
LINE
  5
14F
100
AcDbEntity
  8
Skizziergeometrie(DIN)
  6
ByLayer
 62
  256
370
   -1
100
AcDbLine
 10
-0.4999999999999983
 20
2.78774508444858
 11
0.4999999999999983
 21
2.78774508444858
  0
LINE
  5
150
100
AcDbEntity
  8
Skizziergeometrie(DIN)
  6
ByLayer
 62
  256
370
   -1
100
AcDbLine
 10
0.4999999999999983
 20
2.78774508444858
 11
0
 21
5
  0
LINE
  5
151
100
AcDbEntity
  8
Skizziergeometrie(DIN)
  6
ByLayer
 62
  256
370
   -1
100
AcDbLine
 10
0
 20
-5
 11
-0.4999999999999983
 21
-2.78774508444858
  0
LINE
  5
152
100
AcDbEntity
  8
Skizziergeometrie(DIN)
  6
ByLayer
 62
  256
370
   -1
100
AcDbLine
 10
-0.4999999999999983
 20
-2.78774508444858
 11
0.4999999999999983
 21
-2.78774508444858
  0
LINE
  5
153
100
AcDbEntity
  8
Skizziergeometrie(DIN)
  6
ByLayer
 62
  256
370
   -1
100
AcDbLine
 10
0.4999999999999983
 20
-2.78774508444858
 11
0
 21
-5
  0
ENDBLK
  5
89
330
87
100
AcDbEntity
  8
0
100
AcDbBlockEnd
  0
BLOCK
  5
8B
330
8A
100
AcDbEntity
  8
0
100
AcDbBlockBegin
  2
Senkung DIN 974-1 für Zylinderkopfschrauben
 70
    0
 10
0
 20
0
  3
Senkung DIN 974-1 für Zylinderkopfschrauben
  1

  0
MTEXT
  5
154
100
AcDbEntity
  8
Symbole(DIN)
  6
ByLayer
 62
    7
370
   -1
100
AcDbMText
 10
-22.51524209976196
 20
1.639672182500362
 30
0
 40
2.5
 41
45.90277696999526
 71
    1
 72
    1
  1
Senkung DIN 974-1 (Reihe1)
  7
aktuell-din
210
0
220
0
230
1
 50
0
 73
    1
 44
1
  0
ENDBLK
  5
8C
330
8A
100
AcDbEntity
  8
0
100
AcDbBlockEnd
  0
BLOCK
  5
8E
330
8D
100
AcDbEntity
  8
0
100
AcDbBlockBegin
  2
Senkung DIN 74-1 B (f) f. Senkschrauben
 70
    0
 10
0
 20
0
  3
Senkung DIN 74-1 B (f) f. Senkschrauben
  1

  0
MTEXT
  5
155
100
AcDbEntity
  8
Symbole(DIN)
  6
ByLayer
 62
    7
370
   -1
100
AcDbMText
 10
-18.14691185951233
 20
1.639672182500362
 30
0
 40
2.5
 41
39.4444436366618
 71
    1
 72
    1
  1
Senkung DIN 74-1 B (f)
  7
aktuell-din
210
0
220
0
230
1
 50
0
 73
    1
 44
1
  0
ENDBLK
  5
8F
330
8D
100
AcDbEntity
  8
0
100
AcDbBlockEnd
  0
BLOCK
  5
91
330
90
100
AcDbEntity
  8
0
100
AcDbBlockBegin
  2
Rz4(Rz16)
 70
    0
 10
0
 20
0
  3
Rz4(Rz16)
  1

  0
LINE
  5
156
100
AcDbEntity
  8
Skizziergeometrie(DIN)
  6
ByLayer
 62
  256
370
   -1
100
AcDbLine
 10
-13.35665995719496
 20
-0.624154925091176
 11
-11.35665995719495
 21
-4.124154925091172
  0
LINE
  5
157
100
AcDbEntity
  8
Skizziergeometrie(DIN)
  6
ByLayer
 62
  256
370
   -1
100
AcDbLine
 10
-11.35665995719495
 20
-4.124154925091172
 11
-9.356659957194953
 21
-0.624154925091176
  0
LINE
  5
158
100
AcDbEntity
  8
Skizziergeometrie(DIN)
  6
ByLayer
 62
  256
370
   -1
100
AcDbLine
 10
-9.356659957194953
 20
-0.624154925091176
 11
-13.35665995719496
 21
-0.624154925091176
  0
LINE
  5
159
100
AcDbEntity
  8
Skizziergeometrie(DIN)
  6
ByLayer
 62
  256
370
   -1
100
AcDbLine
 10
-9.356659957194953
 20
-0.624154925091176
 11
-6.643340042805041
 21
4.12415492509119
  0
LINE
  5
15A
100
AcDbEntity
  8
Skizziergeometrie(DIN)
  6
ByLayer
 62
  256
370
   -1
100
AcDbLine
 10
-6.643340042805041
 20
4.12415492509119
 11
13.35665995719496
 21
4.124154925091172
  0
MTEXT
  5
15B
100
AcDbEntity
  8
Symbole(DIN)
  6
ByLayer
 62
    7
370
   -1
100
AcDbMText
 10
-6.476606384140213
 20
3.265635088166192
 30
0
 40
2.5
 41
20.90277750000016
 71
    1
 72
    1
  1
Rz 4 (Rz 16)
  7
aktuell-din
210
0
220
0
230
1
 50
0
 73
    1
 44
1
  0
ENDBLK
  5
92
330
90
100
AcDbEntity
  8
0
100
AcDbBlockEnd
  0
BLOCK
  5
94
330
93
100
AcDbEntity
  8
0
100
AcDbBlockBegin
  2
Rz16(Rz4)
 70
    0
 10
0
 20
0
  3
Rz16(Rz4)
  1

  0
LINE
  5
15C
100
AcDbEntity
  8
Skizziergeometrie(DIN)
  6
ByLayer
 62
  256
370
   -1
100
AcDbLine
 10
-13.35665995719496
 20
-0.624154925091176
 11
-11.35665995719495
 21
-4.124154925091172
  0
LINE
  5
15D
100
AcDbEntity
  8
Skizziergeometrie(DIN)
  6
ByLayer
 62
  256
370
   -1
100
AcDbLine
 10
-11.35665995719495
 20
-4.124154925091172
 11
-9.356659957194953
 21
-0.624154925091176
  0
LINE
  5
15E
100
AcDbEntity
  8
Skizziergeometrie(DIN)
  6
ByLayer
 62
  256
370
   -1
100
AcDbLine
 10
-9.356659957194953
 20
-0.624154925091176
 11
-13.35665995719496
 21
-0.624154925091176
  0
LINE
  5
15F
100
AcDbEntity
  8
Skizziergeometrie(DIN)
  6
ByLayer
 62
  256
370
   -1
100
AcDbLine
 10
-9.356659957194953
 20
-0.624154925091176
 11
-6.643340042805041
 21
4.12415492509119
  0
LINE
  5
160
100
AcDbEntity
  8
Skizziergeometrie(DIN)
  6
ByLayer
 62
  256
370
   -1
100
AcDbLine
 10
-6.643340042805041
 20
4.12415492509119
 11
13.35665995719496
 21
4.124154925091172
  0
MTEXT
  5
161
100
AcDbEntity
  8
Symbole(DIN)
  6
ByLayer
 62
    7
370
   -1
100
AcDbMText
 10
-6.476606384140213
 20
3.265635088166192
 30
0
 40
2.5
 41
20.90277750000016
 71
    1
 72
    1
  1
Rz 16 (Rz 4)
  7
aktuell-din
210
0
220
0
230
1
 50
0
 73
    1
 44
1
  0
ENDBLK
  5
95
330
93
100
AcDbEntity
  8
0
100
AcDbBlockEnd
  0
BLOCK
  5
97
330
96
100
AcDbEntity
  8
0
100
AcDbBlockBegin
  2
unbemaßte_Kanten 0_5
 70
    0
 10
0
 20
0
  3
unbemaßte_Kanten 0_5
  1

  0
MTEXT
  5
162
100
AcDbEntity
  8
Symbole(DIN)
  6
ByLayer
 62
    7
370
   -1
100
AcDbMText
 10
-25.81729110330343
 20
1.518673673272132
 30
0
 40
2.5
 41
124.9305568412758
 71
    1
 72
    1
  1
unbemaßte Kanten 0,5x45\fAIGDT|b0|i0;\H2.5000;~\fArial|b0|i0;\H2.5000; fasen
  7
aktuell-din
210
0
220
0
230
1
 50
0
 73
    1
 44
1
  0
ENDBLK
  5
98
330
96
100
AcDbEntity
  8
0
100
AcDbBlockEnd
  0
BLOCK
  5
9A
330
99
100
AcDbEntity
  8
0
100
AcDbBlockBegin
  2
unbemaßte_Kanten 1
 70
    0
 10
0
 20
0
  3
unbemaßte_Kanten 1
  1

  0
MTEXT
  5
163
100
AcDbEntity
  8
Symbole(DIN)
  6
ByLayer
 62
    7
370
   -1
100
AcDbMText
 10
-24.36149891465902
 20
1.291920635849237
 30
0
 40
2.5
 41
121.4583346190534
 71
    1
 72
    1
  1
unbemaßte Kanten 1x45\fAIGDT|b0|i0;\H2.5000;~\fArial|b0|i0;\H2.5000; fasen
  7
aktuell-din
210
0
220
0
230
1
 50
0
 73
    1
 44
1
  0
ENDBLK
  5
9B
330
99
100
AcDbEntity
  8
0
100
AcDbBlockEnd
  0
BLOCK
  5
9D
330
9C
100
AcDbEntity
  8
0
100
AcDbBlockBegin
  2
Schleifrichtung rund
 70
    0
 10
0
 20
0
  3
Schleifrichtung rund
  1

  0
HATCH
  5
164
100
AcDbEntity
  8
Schraffur
  6
ByLayer
 62
  179
420
2500185
370
   -1
100
AcDbHatch
 10
0
 20
0
 30
0
210
0
220
0
230
1
  2
SOLID
 70
    1
 71
    0
 91
    1
 92
    0
 93
    3
 72
    1
 10
2.685970543868814
 20
1.033598154028645
 11
1.500695516670456
 21
2.910062754248521
 72
    1
 10
1.500695516670456
 20
2.910062754248521
 11
0.8087002570814227
 21
2.218067494659514
 72
    1
 10
0.8087002570814227
 20
2.218067494659514
 11
2.685970543868814
 21
1.033598154028645
 97
    0
 75
    0
 76
    1
 98
    0
  0
HATCH
  5
165
100
AcDbEntity
  8
Schraffur
  6
ByLayer
 62
  179
420
2500185
370
   -1
100
AcDbHatch
 10
0
 20
0
 30
0
210
0
220
0
230
1
  2
SOLID
 70
    1
 71
    0
 91
    1
 92
    0
 93
    3
 72
    1
 10
2.746159792612967
 20
-0.9654959543953012
 11
0.9437208322689283
 21
-2.260567411965119
 72
    1
 10
0.9437208322689283
 20
-2.260567411965119
 11
1.675752716096035
 21
-2.910062754248556
 72
    1
 10
1.675752716096035
 20
-2.910062754248556
 11
2.746159792612967
 21
-0.9654959543953012
 97
    0
 75
    0
 76
    1
 98
    0
  0
LINE
  5
166
100
AcDbEntity
  8
Skizziergeometrie(DIN)
  6
ByLayer
 62
  256
370
   -1
100
AcDbLine
 10
2.685970543868814
 20
1.033598154028645
 11
1.500695516670456
 21
2.910062754248521
  0
LINE
  5
167
100
AcDbEntity
  8
Skizziergeometrie(DIN)
  6
ByLayer
 62
  256
370
   -1
100
AcDbLine
 10
1.500695516670456
 20
2.910062754248521
 11
0.8087002570814227
 21
2.218067494659514
  0
LINE
  5
168
100
AcDbEntity
  8
Skizziergeometrie(DIN)
  6
ByLayer
 62
  256
370
   -1
100
AcDbLine
 10
0.8087002570814227
 20
2.218067494659514
 11
2.685970543868814
 21
1.033598154028645
  0
LINE
  5
169
100
AcDbEntity
  8
Skizziergeometrie(DIN)
  6
ByLayer
 62
  256
370
   -1
100
AcDbLine
 10
2.746159792612967
 20
-0.9654959543953012
 11
1.675752716096035
 21
-2.910062754248556
  0
LINE
  5
16A
100
AcDbEntity
  8
Skizziergeometrie(DIN)
  6
ByLayer
 62
  256
370
   -1
100
AcDbLine
 10
1.675752716096035
 20
-2.910062754248556
 11
0.9437208322689283
 21
-2.260567411965119
  0
LINE
  5
16B
100
AcDbEntity
  8
Skizziergeometrie(DIN)
  6
ByLayer
 62
  256
370
   -1
100
AcDbLine
 10
0.9437208322689283
 20
-2.260567411965119
 11
2.746159792612967
 21
-0.9654959543953012
  0
ARC
  5
16C
100
AcDbEntity
  8
Skizziergeometrie (ISO)
  6
ByLayer
 62
  256
370
   -1
100
AcDbCircle
 10
0.07706842498974351
 20
-0.0454045049720975
 40
2.823228117602702
100
AcDbArc
 50
67.56090338518598
 51
295.8882073090315
  0
ENDBLK
  5
9E
330
9C
100
AcDbEntity
  8
0
100
AcDbBlockEnd
  0
BLOCK
  5
A0
330
9F
100
AcDbEntity
  8
0
100
AcDbBlockBegin
  2
Prototyp
 70
    0
 10
0
 20
0
  3
Prototyp
  1

  0
MTEXT
  5
16D
100
AcDbEntity
  8
Symbol (ISO)
  6
ByLayer
 62
    1
370
   -1
100
AcDbMText
 10
-38.43368768692016
 20
5.167682543396949
 30
0
 40
10
 41
232.2222222222232
 71
    1
 72
    1
  1
\fArial|b1|i0;\H10.0000;\LPROTOTYP\l
  7
notiztext (din)
210
0
220
0
230
1
 50
0
 73
    1
 44
1
  0
ENDBLK
  5
A1
330
9F
100
AcDbEntity
  8
0
100
AcDbBlockEnd
  0
BLOCK
  5
A3
330
A2
100
AcDbEntity
  8
0
100
AcDbBlockBegin
  2
Freigabe
 70
    0
 10
0
 20
0
  3
Freigabe
  1

  0
MTEXT
  5
16E
100
AcDbEntity
  8
Symbole(DIN)
  6
ByLayer
 62
    7
370
   -1
100
AcDbMText
 10
-44.64234352111816
 20
18.7593937292695
 30
0
 40
3.499999940395355
 41
191.6249967366486
 71
    1
 72
    1
  1
\fArial|b1|i0;\H3.5000;\LWir bitten um Freigabe zur Fertigung:\l\fArial|b1|i0;\H3.5000;\P\fArial|b0|i0;\H3.5000; \PDatum:___________________________\P \PName: ___________________________\P \PUnterschrift:_______________________
  7
aktuell-din
210
0
220
0
230
1
 50
0
 73
    2
 44
0.9442214965820312
  0
ENDBLK
  5
A4
330
A2
100
AcDbEntity
  8
0
100
AcDbBlockEnd
  0
BLOCK
  5
A6
330
A5
100
AcDbEntity
  8
0
100
AcDbBlockBegin
  2
Freigabe(Englisch)
 70
    0
 10
0
 20
0
  3
Freigabe(Englisch)
  1

  0
MTEXT
  5
16F
100
AcDbEntity
  8
Symbole(DIN)
  6
ByLayer
 62
    7
370
   -1
100
AcDbMText
 10
-44.64234352111816
 20
18.75806000083685
 30
0
 40
3.499999940395355
 41
161.6805528021524
 71
    1
 72
    1
  1
\fArial|b1|i0;\H3.5000;\LWe ask for release for our production:\P\l\fArial|b0|i0;\H3.5000; \PDate:___________________________\P \PName: ___________________________\P \PSignature:_______________________
  7
aktuell-din
210
0
220
0
230
1
 50
0
 73
    2
 44
0.9442214965820312
  0
ENDBLK
  5
A7
330
A5
100
AcDbEntity
  8
0
100
AcDbBlockEnd
  0
BLOCK
  5
A9
330
A8
100
AcDbEntity
  8
0
100
AcDbBlockBegin
  2
Freigabe(Französisch)
 70
    0
 10
0
 20
0
  3
Freigabe(Französisch)
  1

  0
MTEXT
  5
170
100
AcDbEntity
  8
Symbole(DIN)
  6
ByLayer
 62
    7
370
   -1
100
AcDbMText
 10
-59.52934741973876
 20
18.78740441054105
 30
0
 40
3.499999940395355
 41
171.4027802588235
 71
    1
 72
    1
  1
\fArial|b1|i0;\H3.5000;\LNous demandons l'autorisation pour la production:\P\l\fArial|b0|i0;\H3.5000; \PDate:___________________________\P \PNom: ___________________________\P \PSignature:_______________________
  7
aktuell-din
210
0
220
0
230
1
 50
0
 73
    2
 44
0.9442214965820312
  0
ENDBLK
  5
AA
330
A8
100
AcDbEntity
  8
0
100
AcDbBlockEnd
  0
BLOCK
  5
AC
330
AB
100
AcDbEntity
  8
0
100
AcDbBlockBegin
  2
Freigabe(Spanisch)
 70
    0
 10
0
 20
0
  3
Freigabe(Spanisch)
  1

  0
MTEXT
  5
171
100
AcDbEntity
  8
Symbole(DIN)
  6
ByLayer
 62
    7
370
   -1
100
AcDbMText
 10
-46.81517124176025
 20
18.71937859803438
 30
0
 40
3.499999940395355
 41
166.7361082716124
 71
    1
 72
    1
  1
\fArial|b1|i0;\H3.5000;\LPor favor, dénos permiso para producir:\P\l\fArial|b0|i0;\H3.5000; \PFecha:___________________________\P \PNombre: ___________________________\P \PFirma:_______________________
  7
aktuell-din
210
0
220
0
230
1
 50
0
 73
    2
 44
0.9442214965820312
  0
ENDBLK
  5
AD
330
AB
100
AcDbEntity
  8
0
100
AcDbBlockEnd
  0
BLOCK
  5
AF
330
AE
100
AcDbEntity
  8
0
100
AcDbBlockBegin
  2
Schleifrichtung 30°
 70
    0
 10
0
 20
0
  3
Schleifrichtung 30°
  1

  0
MTEXT
  5
172
100
AcDbEntity
  8
Symbol (ISO)
  6
ByLayer
 62
  256
370
   -1
100
AcDbMText
 10
-1.291992841288447
 20
2.237797244126866
 30
0
 40
2.000000029802322
 41
45.77777803591607
 71
    2
 72
    1
  1
\fAIGDT|b0|i0;\H2.0000;#\P\fArial|b0|i0;\H2.0000;Schleifrichtung
  7
notiztext (din)
210
0
220
0
230
1
 50
29.99999999999999
 73
    2
 44
0.75
  0
ENDBLK
  5
B0
330
AE
100
AcDbEntity
  8
0
100
AcDbBlockEnd
  0
BLOCK
  5
B2
330
B1
100
AcDbEntity
  8
0
100
AcDbBlockBegin
  2
Schleifrichtung 60°
 70
    0
 10
0
 20
0
  3
Schleifrichtung 60°
  1

  0
MTEXT
  5
173
100
AcDbEntity
  8
Symbol (ISO)
  6
ByLayer
 62
  256
370
   -1
100
AcDbMText
 10
-2.237797244126848
 20
1.291992841288447
 30
0
 40
2.000000029802322
 41
45.77777803591607
 71
    2
 72
    1
  1
\fAIGDT|b0|i0;\H2.0000;#\P\fArial|b0|i0;\H2.0000;Schleifrichtung
  7
notiztext (din)
210
0
220
0
230
1
 50
60.00000000000005
 73
    2
 44
0.75
  0
ENDBLK
  5
B3
330
B1
100
AcDbEntity
  8
0
100
AcDbBlockEnd
  0
BLOCK
  5
B5
330
B4
100
AcDbEntity
  8
0
100
AcDbBlockBegin
  2
Schleifrichtung 40°
 70
    0
 10
0
 20
0
  3
Schleifrichtung 40°
  1

  0
MTEXT
  5
174
100
AcDbEntity
  8
Symbol (ISO)
  6
ByLayer
 62
  256
370
   -1
100
AcDbMText
 10
-1.660953980367843
 20
1.979447873236992
 30
0
 40
2.000000029802322
 41
45.77777803591607
 71
    2
 72
    1
  1
\fAIGDT|b0|i0;\H2.0000;#\P\fArial|b0|i0;\H2.0000;Schleifrichtung
  7
notiztext (din)
210
0
220
0
230
1
 50
39.99999999999999
 73
    2
 44
0.75
  0
ENDBLK
  5
B6
330
B4
100
AcDbEntity
  8
0
100
AcDbBlockEnd
  0
BLOCK
  5
B8
330
B7
100
AcDbEntity
  8
0
100
AcDbBlockBegin
  2
Schleifrichtung 90°
 70
    0
 10
0
 20
0
  3
Schleifrichtung 90°
  1

  0
MTEXT
  5
175
100
AcDbEntity
  8
Symbol (ISO)
  6
ByLayer
 62
  256
370
   -1
100
AcDbMText
 10
-2.583985682576894
 20
0
 30
0
 40
2.000000029802322
 41
45.77777803591607
 71
    2
 72
    1
  1
\fAIGDT|b0|i0;\H2.0000;#\P\fArial|b0|i0;\H2.0000;Schleifrichtung
  7
notiztext (din)
210
0
220
0
230
1
 50
89.99999999999991
 73
    2
 44
0.75
  0
ENDBLK
  5
B9
330
B7
100
AcDbEntity
  8
0
100
AcDbBlockEnd
  0
BLOCK
  5
BB
330
BA
100
AcDbEntity
  8
0
100
AcDbBlockBegin
  2
Schleifrichtung 20°
 70
    0
 10
0
 20
0
  3
Schleifrichtung 20°
  1

  0
MTEXT
  5
176
100
AcDbEntity
  8
Symbol (ISO)
  6
ByLayer
 62
  256
370
   -1
100
AcDbMText
 10
-0.8837751535064342
 20
2.428152278134021
 30
0
 40
2.000000029802322
 41
45.77777803591607
 71
    2
 72
    1
  1
\fAIGDT|b0|i0;\H2.0000;#\P\fArial|b0|i0;\H2.0000;Schleifrichtung
  7
notiztext (din)
210
0
220
0
230
1
 50
20.00000000000012
 73
    2
 44
0.75
  0
ENDBLK
  5
BC
330
BA
100
AcDbEntity
  8
0
100
AcDbBlockEnd
  0
BLOCK
  5
BE
330
BD
100
AcDbEntity
  8
0
100
AcDbBlockBegin
  2
Schleifrichtung 15°
 70
    0
 10
0
 20
0
  3
Schleifrichtung 15°
  1

  0
MTEXT
  5
177
100
AcDbEntity
  8
Symbol (ISO)
  6
ByLayer
 62
  256
370
   -1
100
AcDbMText
 10
-0.6687847069231267
 20
2.495938505562165
 30
0
 40
2.000000029802322
 41
45.77777803591607
 71
    2
 72
    1
  1
\fAIGDT|b0|i0;\H2.0000;#\P\fArial|b0|i0;\H2.0000;Schleifrichtung
  7
notiztext (din)
210
0
220
0
230
1
 50
15.00000000000012
 73
    2
 44
0.75
  0
ENDBLK
  5
BF
330
BD
100
AcDbEntity
  8
0
100
AcDbBlockEnd
  0
BLOCK
  5
C1
330
C0
100
AcDbEntity
  8
0
100
AcDbBlockBegin
  2
Schleifrichtung -30°
 70
    0
 10
0
 20
0
  3
Schleifrichtung -30°
  1

  0
MTEXT
  5
178
100
AcDbEntity
  8
Symbol (ISO)
  6
ByLayer
 62
  256
370
   -1
100
AcDbMText
 10
1.291992841288447
 20
2.237797244126795
 30
0
 40
2.000000029802322
 41
45.77777803591607
 71
    2
 72
    1
  1
\fAIGDT|b0|i0;\H2.0000;#\P\fArial|b0|i0;\H2.0000;Schleifrichtung
  7
notiztext (din)
210
0
220
0
230
1
 50
-30.00000000000004
 73
    2
 44
0.75
  0
ENDBLK
  5
C2
330
C0
100
AcDbEntity
  8
0
100
AcDbBlockEnd
  0
BLOCK
  5
C4
330
C3
100
AcDbEntity
  8
0
100
AcDbBlockBegin
  2
Schleifrichtung -15°
 70
    0
 10
0
 20
0
  3
Schleifrichtung -15°
  1

  0
MTEXT
  5
179
100
AcDbEntity
  8
Symbol (ISO)
  6
ByLayer
 62
  256
370
   -1
100
AcDbMText
 10
0.6687847069231267
 20
2.495938505562236
 30
0
 40
2.000000029802322
 41
45.77777803591607
 71
    2
 72
    1
  1
\fAIGDT|b0|i0;\H2.0000;#\P\fArial|b0|i0;\H2.0000;Schleifrichtung
  7
notiztext (din)
210
0
220
0
230
1
 50
-14.9999999999998
 73
    2
 44
0.75
  0
ENDBLK
  5
C5
330
C3
100
AcDbEntity
  8
0
100
AcDbBlockEnd
  0
BLOCK
  5
C7
330
C6
100
AcDbEntity
  8
0
100
AcDbBlockBegin
  2
Schleifrichtung -40°
 70
    0
 10
0
 20
0
  3
Schleifrichtung -40°
  1

  0
MTEXT
  5
17A
100
AcDbEntity
  8
Symbol (ISO)
  6
ByLayer
 62
  256
370
   -1
100
AcDbMText
 10
1.660953980367843
 20
1.979447873236992
 30
0
 40
2.000000029802322
 41
45.77777803591607
 71
    2
 72
    1
  1
\fAIGDT|b0|i0;\H2.0000;#\P\fArial|b0|i0;\H2.0000;Schleifrichtung
  7
notiztext (din)
210
0
220
0
230
1
 50
-40.00000000000016
 73
    2
 44
0.75
  0
ENDBLK
  5
C8
330
C6
100
AcDbEntity
  8
0
100
AcDbBlockEnd
  0
BLOCK
  5
CA
330
C9
100
AcDbEntity
  8
0
100
AcDbBlockBegin
  2
Schleifrichtung -60°
 70
    0
 10
0
 20
0
  3
Schleifrichtung -60°
  1

  0
MTEXT
  5
17B
100
AcDbEntity
  8
Symbol (ISO)
  6
ByLayer
 62
  256
370
   -1
100
AcDbMText
 10
2.237797244126848
 20
1.291992841288447
 30
0
 40
2.000000029802322
 41
45.77777803591607
 71
    2
 72
    1
  1
\fAIGDT|b0|i0;\H2.0000;#\P\fArial|b0|i0;\H2.0000;Schleifrichtung
  7
notiztext (din)
210
0
220
0
230
1
 50
-59.99999999999974
 73
    2
 44
0.75
  0
ENDBLK
  5
CB
330
C9
100
AcDbEntity
  8
0
100
AcDbBlockEnd
  0
BLOCK
  5
CD
330
CC
100
AcDbEntity
  8
0
100
AcDbBlockBegin
  2
Schleifrichtung -50°
 70
    0
 10
0
 20
0
  3
Schleifrichtung -50°
  1

  0
MTEXT
  5
17C
100
AcDbEntity
  8
Symbol (ISO)
  6
ByLayer
 62
  256
370
   -1
100
AcDbMText
 10
1.979447873237027
 20
1.660953980367807
 30
0
 40
2.000000029802322
 41
45.77777803591607
 71
    2
 72
    1
  1
\fAIGDT|b0|i0;\H2.0000;#\P\fArial|b0|i0;\H2.0000;Schleifrichtung
  7
notiztext (din)
210
0
220
0
230
1
 50
-49.99999999999986
 73
    2
 44
0.75
  0
ENDBLK
  5
CE
330
CC
100
AcDbEntity
  8
0
100
AcDbBlockEnd
  0
BLOCK
  5
D0
330
CF
100
AcDbEntity
  8
0
100
AcDbBlockBegin
  2
Flächen Galvanik
 70
    0
 10
0
 20
0
  3
Flächen Galvanik
  1

  0
MTEXT
  5
17D
100
AcDbEntity
  8
Symbol (ISO)
  6
ByLayer
 62
    8
370
   -1
100
AcDbMText
 10
-70.91235160827635
 20
11.89210736808782
 30
0
 40
6.99999988079071
 41
179.4722176818141
 71
    1
 72
    1
  1
\fArial|b1|i0;\H7.0000;FLÄCHE SCHLEIFEN!\P
  7
notiztext (din)
210
0
220
0
230
1
 50
0
 73
    2
 44
0.8571428656578063
  0
MTEXT
  5
17E
100
AcDbEntity
  8
Symbol (ISO)
  6
ByLayer
 62
    1
370
   -1
100
AcDbMText
 10
-70.91235160827635
 20
3.200806027419123
 30
0
 40
6.99999988079071
 41
219.7222184803757
 71
    1
 72
    1
  1
\fArial|b1|i0;\H7.0000;FLÄCHE NICHT BEARBEITEN!
  7
notiztext (din)
210
0
220
0
230
1
 50
0
 73
    1
 44
1
  0
MTEXT
  5
17F
100
AcDbEntity
  8
Symbol (ISO)
  6
ByLayer
 62
    5
370
   -1
100
AcDbMText
 10
-70.91235160827635
 20
-8.518632516837172
 30
0
 40
5
 41
185.6944444444452
 71
    1
 72
    1
  1
\fArial|b0|i0;\H5.0000;ACHTUNG! ALLE KANTEN GRATFREI!
  7
notiztext (din)
210
0
220
0
230
1
 50
0
 73
    1
 44
1
  0
ENDBLK
  5
D1
330
CF
100
AcDbEntity
  8
0
100
AcDbBlockEnd
  0
BLOCK
  5
D3
330
D2
100
AcDbEntity
  8
0
100
AcDbBlockBegin
  2
Duschenglas 8mm
 70
    0
 10
0
 20
0
  3
Duschenglas 8mm
  1

  0
MTEXT
  5
180
100
AcDbEntity
  8
Symbol (ISO)
  6
ByLayer
 62
    5
370
   -1
100
AcDbMText
 10
-45.90224742889404
 20
7.150431517511606
 30
0
 40
2.5
 41
97.84722398587674
 71
    1
 72
    1
  1
ESG 8mm klar gefertigt nach DIN EN14428 (Duschenglas).\PEin entsprechender Nachweis (Stempel) ist erforderlich.\PKanten umlaufend geschliffen und poliert.\PAlle Ecken stoßen oder leicht runden.
  7
notiztext (din)
210
0
220
0
230
1
 50
0
 73
    2
 44
0.9442214965820312
  0
ENDBLK
  5
D4
330
D2
100
AcDbEntity
  8
0
100
AcDbBlockEnd
  0
BLOCK
  5
D6
330
D5
100
AcDbEntity
  8
0
100
AcDbBlockBegin
  2
Außerhalb der AbZ 85
 70
    0
 10
0
 20
0
  3
Außerhalb der AbZ 85
  1

  0
MTEXT
  5
181
100
AcDbEntity
  8
Symbol (ISO)
  6
ByLayer
 62
  256
370
   -1
100
AcDbMText
 10
-61.90739154815673
 20
2.585746762342751
 30
0
 40
5
 41
204.4444444444475
 71
    1
 72
    1
  1
\fArial|b1|i0;\H5.0000;\LVordach außerhalb der AbZ Z-70.3-85
  7
notiztext (din)
210
0
220
0
230
1
 50
0
 73
    1
 44
1
  0
ENDBLK
  5
D7
330
D5
100
AcDbEntity
  8
0
100
AcDbBlockEnd
  0
BLOCK
  5
D9
330
D8
100
AcDbEntity
  8
0
100
AcDbBlockBegin
  2
Duschenglas 6mm
 70
    0
 10
0
 20
0
  3
Duschenglas 6mm
  1

  0
MTEXT
  5
182
100
AcDbEntity
  8
Symbol (ISO)
  6
ByLayer
 62
    5
370
   -1
100
AcDbMText
 10
-45.90224742889404
 20
7.150431517511606
 30
0
 40
2.5
 41
97.84722398587689
 71
    1
 72
    1
  1
ESG 6mm klar gefertigt nach DIN EN14428 (Duschenglas).\PEin entsprechender Nachweis (Stempel) ist erforderlich.\PKanten umlaufend geschliffen und poliert.\PAlle Ecken stoßen oder leicht runden.
  7
notiztext (din)
210
0
220
0
230
1
 50
0
 73
    2
 44
0.9442214965820312
  0
ENDBLK
  5
DA
330
D8
100
AcDbEntity
  8
0
100
AcDbBlockEnd
  0
BLOCK
  5
DC
330
DB
100
AcDbEntity
  8
0
100
AcDbBlockBegin
  2
unbemaßte Kanten R_0_2 runden
 70
    0
 10
0
 20
0
  3
unbemaßte Kanten R_0_2 runden
  1

  0
MTEXT
  5
183
100
AcDbEntity
  8
Symbol (ISO)
  6
ByLayer
 62
  256
370
   -1
100
AcDbMText
 10
-25.96322298049927
 20
1.518673673272132
 30
0
 40
2.5
 41
54.93055555555673
 71
    1
 72
    1
  1
unbemaßte Kanten R=0,2 runden
  7
notiztext (din)
210
0
220
0
230
1
 50
0
 73
    1
 44
1
  0
ENDBLK
  5
DD
330
DB
100
AcDbEntity
  8
0
100
AcDbBlockEnd
  0
BLOCK
  5
DF
330
DE
100
AcDbEntity
  8
0
100
AcDbBlockBegin
  2
Prüfzertifikat nach DIN EN 10204 (3.1) erforderlich
 70
    0
 10
0
 20
0
  3
Prüfzertifikat nach DIN EN 10204 (3.1) erforderlich
  1

  0
MTEXT
  5
184
100
AcDbEntity
  8
Symbol (ISO)
  6
ByLayer
 62
  256
370
   -1
100
AcDbMText
 10
-39.00819301605224
 20
1.638719402253627
 30
0
 40
2.5
 41
86.80555527777867
 71
    1
 72
    1
  1
Prüfzertifikat nach DIN EN 10204 (3.1) erforderlich
  7
notiztext (din)
210
0
220
0
230
1
 50
0
 73
    1
 44
1
  0
ENDBLK
  5
E0
330
DE
100
AcDbEntity
  8
0
100
AcDbBlockEnd
  0
BLOCK
  5
E2
330
E1
100
AcDbEntity
  8
0
100
AcDbBlockBegin
  2
Reinigen
 70
    0
 10
0
 20
0
  3
Reinigen
  1

  0
MTEXT
  5
185
100
AcDbEntity
  8
Symbol (ISO)
  6
ByLayer
 62
  256
370
   -1
100
AcDbMText
 10
-53.57374191284179
 20
3.583934530615806
 30
0
 40
2.5
 41
119.5138914603266
 71
    1
 72
    1
  1
Nach der Bearbeitung von Dreh- und Frästeilen müssen \PBearbeitungsöle und -emulsionen von den Bauteilen entfernt werden.
  7
notiztext (din)
210
0
220
0
230
1
 50
0
 73
    2
 44
0.9442214965820312
  0
ENDBLK
  5
E3
330
E1
100
AcDbEntity
  8
0
100
AcDbBlockEnd
  0
BLOCK
  5
E5
330
E4
100
AcDbEntity
  8
0
100
AcDbBlockBegin
  2
Schleifrichtung rund-2
 70
    0
 10
0
 20
0
  3
Schleifrichtung rund-2
  1

  0
HATCH
  5
186
100
AcDbEntity
  8
Schraffur (ISO)
  6
ByLayer
 62
  156
420
16512
370
   -1
100
AcDbHatch
 10
0
 20
0
 30
0
210
0
220
0
230
1
  2
SOLID
 70
    1
 71
    0
 91
    1
 92
    0
 93
    3
 72
    1
 10
-10.47794571960972
 20
20.90644694881277
 11
-6.849893015193186
 21
13.46116476233097
 72
    1
 10
-6.849893015193186
 20
13.46116476233097
 11
-3.613318818075255
 21
16.27266978918406
 72
    1
 10
-3.613318818075255
 20
16.27266978918406
 11
-10.47794571960972
 21
20.90644694881277
 97
    0
 75
    0
 76
    1
 98
    0
  0
HATCH
  5
187
100
AcDbEntity
  8
Schraffur (ISO)
  6
ByLayer
 62
    7
370
   -1
100
AcDbHatch
 10
0
 20
0
 30
0
210
0
220
0
230
1
  2
SOLID
 70
    1
 71
    0
 91
    1
 92
    0
 93
    3
 72
    1
 10
8.373591724927785
 20
-13.05289092354922
 11
9.897290434662391
 21
-20.90644694881275
 72
    1
 10
9.897290434662391
 20
-20.90644694881275
 11
10.47794571960972
 21
-12.6446170847675
 72
    1
 10
10.47794571960972
 20
-12.6446170847675
 11
8.373591724927785
 21
-13.05289092354922
 97
    0
 75
    0
 76
    1
 98
    0
  0
HATCH
  5
188
100
AcDbEntity
  8
Schraffur (ISO)
  6
ByLayer
 62
    7
370
   -1
100
AcDbHatch
 10
0
 20
0
 30
0
210
0
220
0
230
1
  2
SOLID
 70
    1
 71
    0
 91
    1
 92
    0
 93
    3
 72
    1
 10
8.373591724927785
 20
-13.05289092354922
 11
6.269237730245844
 21
-13.46116476233096
 72
    1
 10
6.269237730245844
 20
-13.46116476233096
 11
9.897290434662391
 21
-20.90644694881275
 72
    1
 10
9.897290434662391
 20
-20.90644694881275
 11
8.373591724927785
 21
-13.05289092354922
 97
    0
 75
    0
 76
    1
 98
    0
  0
HATCH
  5
189
100
AcDbEntity
  8
Schraffur (ISO)
  6
ByLayer
 62
    7
370
   -1
100
AcDbHatch
 10
0
 20
0
 30
0
210
0
220
0
230
1
  2
SOLID
 70
    1
 71
    0
 91
    1
 92
    0
 93
    3
 72
    1
 10
-5.231605916634229
 20
14.86691727575753
 11
-10.47794571960972
 21
20.90644694881277
 72
    1
 10
-10.47794571960972
 20
20.90644694881277
 11
-6.849893015193186
 21
13.46116476233097
 72
    1
 10
-6.849893015193186
 20
13.46116476233097
 11
-5.231605916634229
 21
14.86691727575753
 97
    0
 75
    0
 76
    1
 98
    0
  0
HATCH
  5
18A
100
AcDbEntity
  8
Schraffur (ISO)
  6
ByLayer
 62
    7
370
   -1
100
AcDbHatch
 10
0
 20
0
 30
0
210
0
220
0
230
1
  2
SOLID
 70
    1
 71
    0
 91
    1
 92
    0
 93
    3
 72
    1
 10
-5.231605916634229
 20
14.86691727575753
 11
-3.613318818075255
 21
16.27266978918406
 72
    1
 10
-3.613318818075255
 20
16.27266978918406
 11
-10.47794571960972
 21
20.90644694881277
 72
    1
 10
-10.47794571960972
 20
20.90644694881277
 11
-5.231605916634229
 21
14.86691727575753
 97
    0
 75
    0
 76
    1
 98
    0
  0
ARC
  5
18B
100
AcDbEntity
  8
Skizziergeometrie (ISO)
  6
ByLayer
 62
  256
370
   -1
100
AcDbCircle
 10
-50.5280784645487
 20
-24.48063124655874
 40
60
100
AcDbArc
 50
10.97976698014274
 51
40.9797669801427
  0
LINE
  5
18C
100
AcDbEntity
  8
Skizziergeometrie (ISO)
  6
ByLayer
 62
  256
370
   -1
100
AcDbLine
 10
-5.231605916634229
 20
14.86691727575753
 11
-10.47794571960972
 21
20.90644694881277
  0
LINE
  5
18D
100
AcDbEntity
  8
Skizziergeometrie (ISO)
  6
ByLayer
 62
  256
370
   -1
100
AcDbLine
 10
-10.47794571960972
 20
20.90644694881277
 11
-6.849893015193186
 21
13.46116476233097
  0
LINE
  5
18E
100
AcDbEntity
  8
Skizziergeometrie (ISO)
  6
ByLayer
 62
  256
370
   -1
100
AcDbLine
 10
-6.849893015193186
 20
13.46116476233097
 11
-3.613318818075255
 21
16.27266978918406
  0
LINE
  5
18F
100
AcDbEntity
  8
Skizziergeometrie (ISO)
  6
ByLayer
 62
  256
370
   -1
100
AcDbLine
 10
-3.613318818075255
 20
16.27266978918406
 11
-10.47794571960972
 21
20.90644694881277
  0
LINE
  5
190
100
AcDbEntity
  8
Skizziergeometrie (ISO)
  6
ByLayer
 62
  256
370
   -1
100
AcDbLine
 10
8.373591724927785
 20
-13.05289092354922
 11
9.897290434662391
 21
-20.90644694881275
  0
LINE
  5
191
100
AcDbEntity
  8
Skizziergeometrie (ISO)
  6
ByLayer
 62
  256
370
   -1
100
AcDbLine
 10
9.897290434662391
 20
-20.90644694881275
 11
6.269237730245844
 21
-13.46116476233096
  0
LINE
  5
192
100
AcDbEntity
  8
Skizziergeometrie (ISO)
  6
ByLayer
 62
  256
370
   -1
100
AcDbLine
 10
6.269237730245844
 20
-13.46116476233096
 11
10.47794571960972
 21
-12.6446170847675
  0
LINE
  5
193
100
AcDbEntity
  8
Skizziergeometrie (ISO)
  6
ByLayer
 62
  256
370
   -1
100
AcDbLine
 10
10.47794571960972
 20
-12.6446170847675
 11
9.897290434662391
 21
-20.90644694881275
  0
ENDBLK
  5
E6
330
E4
100
AcDbEntity
  8
0
100
AcDbBlockEnd
  0
BLOCK
  5
E8
330
E7
100
AcDbEntity
  8
0
100
AcDbBlockBegin
  2
EPDM-washer
 70
    0
 10
0
 20
0
  3
EPDM-washer
  1

  0
MTEXT
  5
194
100
AcDbEntity
  8
Symbole(DIN)
  6
ByLayer
 62
    7
370
   -1
100
AcDbMText
 10
-11.25666856765747
 20
1.270007696002721
 30
0
 40
2.5
 41
21.94444573016283
 71
    1
 72
    1
  1
EPDM-washer
  7
aktuell-din
210
0
220
0
230
1
 50
0
 73
    1
 44
1
  0
ENDBLK
  5
E9
330
E7
100
AcDbEntity
  8
0
100
AcDbBlockEnd
  0
BLOCK
  5
EB
330
EA
100
AcDbEntity
  8
0
100
AcDbBlockBegin
  2
isometric view
 70
    0
 10
0
 20
0
  3
isometric view
  1

  0
MTEXT
  5
195
100
AcDbEntity
  8
Symbole(DIN)
  6
ByLayer
 62
    7
370
   -1
100
AcDbMText
 10
-10.96417665481567
 20
1.270007696002721
 30
0
 40
2.5
 41
23.263890174607
 71
    1
 72
    1
  1
isometric view
  7
aktuell-din
210
0
220
0
230
1
 50
0
 73
    1
 44
1
  0
ENDBLK
  5
EC
330
EA
100
AcDbEntity
  8
0
100
AcDbBlockEnd
  0
BLOCK
  5
EE
330
ED
100
AcDbEntity
  8
0
100
AcDbBlockBegin
  2
glazing
 70
    0
 10
0
 20
0
  3
glazing
  1

  0
MTEXT
  5
196
100
AcDbEntity
  8
Symbole(DIN)
  6
ByLayer
 62
    7
370
   -1
100
AcDbMText
 10
-5.532583594322204
 20
1.616806462407112
 30
0
 40
2.5
 41
10.83333333333391
 71
    1
 72
    1
  1
glazing
  7
aktuell-din
210
0
220
0
230
1
 50
0
 73
    1
 44
1
  0
ENDBLK
  5
EF
330
ED
100
AcDbEntity
  8
0
100
AcDbBlockEnd
  0
BLOCK
  5
F1
330
F0
100
AcDbEntity
  8
0
100
AcDbBlockBegin
  2
countersink screw EN ISO A2
 70
    0
 10
0
 20
0
  3
countersink screw EN ISO A2
  1

  0
MTEXT
  5
197
100
AcDbEntity
  8
Symbole(DIN)
  6
ByLayer
 62
    7
370
   -1
100
AcDbMText
 10
-16.98551774024963
 20
5.20426383242011
 30
0
 40
2.5
 41
33.40277724777287
 71
    1
 72
    1
  1
countersink screw\PEN ISO 10642 M6x16\Pmaterial: A2
  7
aktuell-din
210
0
220
0
230
1
 50
0
 73
    2
 44
0.9442214965820312
  0
ENDBLK
  5
F2
330
F0
100
AcDbEntity
  8
0
100
AcDbBlockEnd
  0
BLOCK
  5
F4
330
F3
100
AcDbEntity
  8
0
100
AcDbBlockBegin
  2
cylinder head screw EN ISO A2
 70
    0
 10
0
 20
0
  3
cylinder head screw EN ISO A2
  1

  0
MTEXT
  5
198
100
AcDbEntity
  8
Symbole(DIN)
  6
ByLayer
 62
    7
370
   -1
100
AcDbMText
 10
-16.01467132568359
 20
5.20426383242011
 30
0
 40
2.5
 41
33.47222350794068
 71
    1
 72
    1
  1
cylinder head screw\PEN ISO 4762 M8x20\Pmaterial: A2
  7
aktuell-din
210
0
220
0
230
1
 50
0
 73
    2
 44
0.9442214965820312
  0
ENDBLK
  5
F5
330
F3
100
AcDbEntity
  8
0
100
AcDbBlockEnd
  0
BLOCK
  5
F7
330
F6
100
AcDbEntity
  8
0
100
AcDbBlockBegin
  2
P+S glass clamp
 70
    0
 10
0
 20
0
  3
P+S glass clamp
  1

  0
MTEXT
  5
199
100
AcDbEntity
  8
Symbole(DIN)
  6
ByLayer
 62
    7
370
   -1
100
AcDbMText
 10
-26.10899209976196
 20
3.277438879013061
 30
0
 40
5
 41
120.8333374161963
 71
    1
 72
    1
  1
\fArial|b0|i0;\H5.0000;P+S glass clamp
  7
aktuell-din
210
0
220
0
230
1
 50
0
 73
    1
 44
1
  0
ENDBLK
  5
F8
330
F6
100
AcDbEntity
  8
0
100
AcDbBlockEnd
  0
ENDSEC
  0
SECTION
  2
ENTITIES
  0
LINE
  5
19A
100
AcDbEntity
  8
Sichtbar (ISO)
  6
ByLayer
 62
  256
370
   -1
100
AcDbLine
 10
66.80659864893587
 20
130.9162157730276
 11
66.13088841693488
 21
131.3063372573676
  0
LINE
  5
19B
100
AcDbEntity
  8
Sichtbar (ISO)
  6
ByLayer
 62
  256
370
   -1
100
AcDbLine
 10
66.80659864893586
 20
115.4436055644472
 11
66.80659864893587
 21
130.9162157730276
  0
LINE
  5
19C
100
AcDbEntity
  8
Sichtbar (ISO)
  6
ByLayer
 62
  256
370
   -1
100
AcDbLine
 10
75.22116934505577
 20
120.3017602209672
 11
66.80659864893586
 21
115.4436055644472
  0
LINE
  5
19D
100
AcDbEntity
  8
Sichtbar (ISO)
  6
ByLayer
 62
  256
370
   -1
100
AcDbLine
 10
75.22116934505578
 20
98.99119945875353
 11
66.80659864893583
 21
94.13304480223358
  0
LINE
  5
19E
100
AcDbEntity
  8
Sichtbar (ISO)
  6
ByLayer
 62
  256
370
   -1
100
AcDbLine
 10
72.26820473300911
 20
104.1040509958275
 11
75.22116934505576
 21
105.8089459095
  0
LINE
  5
19F
100
AcDbEntity
  8
Sichtbar (ISO)
  6
ByLayer
 62
  256
370
   -1
100
AcDbLine
 10
75.22116934505577
 20
113.4840137702206
 11
72.26820473300913
 21
111.7791188565481
  0
ELLIPSE
  5
1A0
100
AcDbEntity
  8
Sichtbar (ISO)
  6
ByLayer
 62
  256
370
   -1
100
AcDbEllipse
 10
67.44299475200368
 20
124.7924914160697
 30
0
 11
11.00000000000007
 21
-1.39e-014
 31
0
 40
0.5773502691896253
 41
5.497787143782137
 42
5.856459662517575
  0
ELLIPSE
  5
1A1
100
AcDbEntity
  8
Sichtbar (ISO)
  6
ByLayer
 62
  256
370
   -1
100
AcDbEllipse
 10
67.44299475200373
 20
117.9747449653232
 30
0
 11
11.00000000000003
 21
-2.7e-014
 31
0
 40
0.5773502691896252
 41
5.497787143782142
 42
6.28318530717959
  0
ELLIPSE
  5
1A2
100
AcDbEntity
  8
Sichtbar (ISO)
  6
ByLayer
 62
  256
370
   -1
100
AcDbEllipse
 10
67.44299475200371
 20
103.481930653856
 30
0
 11
11.00000000000002
 21
-3.54e-014
 31
0
 40
0.5773502691896253
 41
5.49778714378215
 42
6.283185307179601
  0
ELLIPSE
  5
1A3
100
AcDbEntity
  8
Sichtbar (ISO)
  6
ByLayer
 62
  256
370
   -1
100
AcDbEllipse
 10
67.44299475200371
 20
110.2996771046026
 30
0
 11
11.00000000000003
 21
-8.3e-015
 31
0
 40
0.5773502691896252
 41
5.497787143782137
 42
6.29604214830981
  0
LINE
  5
1A4
100
AcDbEntity
  8
Sichtbar (ISO)
  6
ByLayer
 62
  256
370
   -1
100
AcDbLine
 10
66.80659864893587
 20
130.9162157730276
 11
61.78614050251137
 21
128.0176529107342
  0
LINE
  5
1A5
100
AcDbEntity
  8
Sichtbar (ISO)
  6
ByLayer
 62
  256
370
   -1
100
AcDbLine
 10
61.78614050251135
 20
75.76187173135973
 11
66.80659864893583
 21
78.66043459365316
  0
LINE
  5
1A6
100
AcDbEntity
  8
Sichtbar (ISO)
  6
ByLayer
 62
  256
370
   -1
100
AcDbLine
 10
50.82598539411987
 20
140.4692257698821
 11
51.79705320598498
 21
139.9085795073003
  0
LINE
  5
1A7
100
AcDbEntity
  8
Sichtbar (ISO)
  6
ByLayer
 62
  256
370
   -1
100
AcDbLine
 10
78.44299475200377
 20
122.7334295936
 11
78.44299475200376
 21
117.9747449653231
  0
LINE
  5
1A8
100
AcDbEntity
  8
Sichtbar (ISO)
  6
ByLayer
 62
  256
370
   -1
100
AcDbLine
 10
78.44299475200376
 20
110.2996771046025
 11
78.44299475200376
 21
103.481930653856
  0
LINE
  5
1A9
100
AcDbEntity
  8
Sichtbar (ISO)
  6
ByLayer
 62
  256
370
   -1
100
AcDbLine
 10
61.78614050251137
 20
128.0176529107342
 11
61.78614050251134
 21
75.76187173135973
  0
LINE
  5
1AA
100
AcDbEntity
  8
Sichtbar (ISO)
  6
ByLayer
 62
  256
370
   -1
100
AcDbLine
 10
61.78614050251137
 20
128.0176529107342
 11
56.08327426144711
 21
131.3102042701651
  0
LINE
  5
1AB
100
AcDbEntity
  8
Sichtbar (ISO)
  6
ByLayer
 62
  256
370
   -1
100
AcDbLine
 10
51.93265755747092
 20
133.7065639415087
 11
45.52268453522078
 21
137.4073635914031
  0
LINE
  5
1AC
100
AcDbEntity
  8
Sichtbar (ISO)
  6
ByLayer
 62
  256
370
   -1
100
AcDbLine
 10
45.52268453522073
 20
85.15158241202862
 11
61.78614050251135
 21
75.76187173135972
  0
LINE
  5
1AD
100
AcDbEntity
  8
Sichtbar (ISO)
  6
ByLayer
 62
  256
370
   -1
100
AcDbLine
 10
66.80659864893583
 20
78.66043459365316
 11
66.80659864893583
 21
94.13304480223358
  0
LINE
  5
1AE
100
AcDbEntity
  8
Sichtbar (ISO)
  6
ByLayer
 62
  256
370
   -1
100
AcDbLine
 10
72.26820473300913
 20
111.7791188565481
 11
72.26820473300913
 21
104.1040509958275
  0
ELLIPSE
  5
1AF
100
AcDbEntity
  8
Sichtbar (ISO)
  6
ByLayer
 62
  256
370
   -1
100
AcDbEllipse
 10
67.44299475200378
 20
140.2651016246502
 30
0
 11
-15.57241150239756
 21
1.83e-014
 31
0
 40
0.5773502691896252
 41
1.146067919195395
 42
1.48643791765511
  0
LINE
  5
1B0
100
AcDbEntity
  8
Sichtbar (ISO)
  6
ByLayer
 62
  256
370
   -1
100
AcDbLine
 10
50.82598539411987
 20
140.4692257698821
 11
45.52268453522078
 21
137.4073635914031
  0
ELLIPSE
  5
1B1
100
AcDbEntity
  8
Sichtbar (ISO)
  6
ByLayer
 62
  256
370
   -1
100
AcDbEllipse
 10
29.61278195852341
 20
141.6939706412737
 30
0
 11
-2.249999999999992
 21
3.897114317029977
 31
0
 40
0.5773502691896253
 41
5.497787143782137
 42
7.068583470577035
  0
LINE
  5
1B2
100
AcDbEntity
  8
Sichtbar (ISO)
  6
ByLayer
 62
  256
370
   -1
100
AcDbLine
 10
26.43080144318397
 20
143.531087948361
 11
26.43080144318394
 21
101.0732657401193
  0
ELLIPSE
  5
1B3
100
AcDbEntity
  8
Sichtbar (ISO)
  6
ByLayer
 62
  256
370
   -1
100
AcDbEllipse
 10
29.61278195852338
 20
99.23614843303191
 30
0
 11
2.250000000000227
 21
-3.897114317029841
 31
0
 40
0.5773502691896275
 41
3.926990816987
 42
5.497787143781893
  0
LINE
  5
1B4
100
AcDbEntity
  8
Sichtbar (ISO)
  6
ByLayer
 62
  256
370
   -1
100
AcDbLine
 10
29.6127819585234
 20
95.56191381885709
 11
45.52268453522073
 21
86.3763272834202
  0
LINE
  5
1B5
100
AcDbEntity
  8
Sichtbar (ISO)
  6
ByLayer
 62
  256
370
   -1
100
AcDbLine
 10
45.52268453522078
 20
137.4073635914031
 11
45.52268453522078
 21
136.1826187200115
  0
LINE
  5
1B6
100
AcDbEntity
  8
Sichtbar (ISO)
  6
ByLayer
 62
  256
370
   -1
100
AcDbLine
 10
45.52268453522073
 20
86.3763272834202
 11
45.52268453522073
 21
85.15158241202862
  0
LINE
  5
1B7
100
AcDbEntity
  8
Sichtbar (ISO)
  6
ByLayer
 62
  256
370
   -1
100
AcDbLine
 10
45.52268453522078
 20
136.1826187200115
 11
29.61278195852346
 21
145.3682052554484
  0
LINE
  5
1B8
100
AcDbEntity
  8
Sichtbar (ISO)
  6
ByLayer
 62
  256
370
   -1
100
AcDbLine
 10
28.52321737252719
 20
146.2610626569559
 11
27.36278195852344
 21
145.5910849583036
  0
ELLIPSE
  5
1B9
100
AcDbEntity
  8
Sichtbar (ISO)
  6
ByLayer
 62
  256
370
   -1
100
AcDbEllipse
 10
43.54278554789839
 20
117.4848470167666
 30
0
 11
3.100000000000306
 21
-5.36935750346335
 31
0
 40
0.5773502691896253
 41
4.257740808438025
 42
5.167037152331217
  0
ELLIPSE
  5
1BA
100
AcDbEntity
  8
Sichtbar (ISO)
  6
ByLayer
 62
  256
370
   -1
100
AcDbEllipse
 10
38.23948468899928
 20
103.4002809957633
 30
0
 11
3.099999999999989
 21
-5.369357503463531
 31
0
 40
0.5773502691896241
 41
4.432063406733114
 42
5.497787143782137
  0
LINE
  5
1BB
100
AcDbEntity
  8
Sichtbar (ISO)
  6
ByLayer
 62
  256
370
   -1
100
AcDbLine
 10
38.23948468899931
 20
98.33800219401135
 11
41.4214652043387
 21
96.50088488692403
  0
ELLIPSE
  5
1BC
100
AcDbEntity
  8
Sichtbar (ISO)
  6
ByLayer
 62
  256
370
   -1
100
AcDbEllipse
 10
38.23948468899931
 20
137.6931373947278
 30
0
 11
3.099999999999987
 21
-5.369357503463525
 31
0
 40
0.577350269189624
 41
4.432063406733116
 42
5.497787143782138
  0
LINE
  5
1BD
100
AcDbEntity
  8
Sichtbar (ISO)
  6
ByLayer
 62
  256
370
   -1
100
AcDbLine
 10
38.23948468899932
 20
132.6308585929759
 11
41.42146520433874
 21
130.7937412858885
  0
ELLIPSE
  5
1BE
100
AcDbEntity
  8
Sichtbar (ISO)
  6
ByLayer
 62
  256
370
   -1
100
AcDbEllipse
 10
41.70430791681337
 20
116.4234014615605
 30
0
 11
2.100000000000208
 21
-3.637306695894528
 31
0
 40
0.5773502691896254
 41
3.792730112599677
 42
5.632047848169071
  0
ELLIPSE
  5
1BF
100
AcDbEntity
  8
Sichtbar (ISO)
  6
ByLayer
 62
  256
370
   -1
100
AcDbEllipse
 10
43.11852147918646
 20
117.2398980424882
 30
0
 11
-3.09999999999966
 21
5.369357503463705
 31
0
 40
0.5773502691896257
 41
1.016903375752628
 42
2.124689277837404
  0
ELLIPSE
  5
1C0
100
AcDbEntity
  8
Sichtbar (ISO)
  6
ByLayer
 62
  256
370
   -1
100
AcDbEllipse
 10
39.15872350454177
 20
114.9537076158906
 30
0
 11
-2.099999999999779
 21
3.637306695894769
 31
0
 40
0.5773502691896264
 41
0
 42
6.283185307179586
  0
LINE
  5
1C1
100
AcDbEntity
  8
Sichtbar (ISO)
  6
ByLayer
 62
  256
370
   -1
100
AcDbLine
 10
39.15872350454183
 20
129.4873467564041
 11
33.85542264564272
 21
132.5492089348831
  0
ELLIPSE
  5
1C2
100
AcDbEntity
  8
Sichtbar (ISO)
  6
ByLayer
 62
  256
370
   -1
100
AcDbEllipse
 10
33.85542264564269
 20
135.1619979938518
 30
0
 11
-1.599999999999833
 21
2.771281292110302
 31
0
 40
0.5773502691896266
 41
5.497787143782378
 42
8.639379797372172
  0
ELLIPSE
  5
1C3
100
AcDbEntity
  8
Sichtbar (ISO)
  6
ByLayer
 62
  256
370
   -1
100
AcDbEllipse
 10
39.15872350454176
 20
97.80727941640836
 30
0
 11
1.599999999999833
 21
-2.771281292110302
 31
0
 40
0.5773502691896266
 41
5.497787143782378
 42
8.639379797372172
  0
LINE
  5
1C4
100
AcDbEntity
  8
Sichtbar (ISO)
  6
ByLayer
 62
  256
370
   -1
100
AcDbLine
 10
39.15872350454179
 20
95.19449035743963
 11
33.85542264564268
 21
98.25635253591864
  0
ELLIPSE
  5
1C5
100
AcDbEntity
  8
Sichtbar (ISO)
  6
ByLayer
 62
  256
370
   -1
100
AcDbEllipse
 10
39.15872350454179
 20
132.1001358153728
 30
0
 11
1.599999999999833
 21
-2.771281292110303
 31
0
 40
0.5773502691896267
 41
5.497787143782378
 42
8.639379797372174
  0
LINE
  5
1C6
100
AcDbEntity
  8
Sichtbar (ISO)
  6
ByLayer
 62
  256
370
   -1
100
AcDbLine
 10
33.85542264564273
 20
137.7747870528205
 11
39.15872350454184
 21
134.7129248743416
  0
LINE
  5
1C7
100
AcDbEntity
  8
Sichtbar (ISO)
  6
ByLayer
 62
  256
370
   -1
100
AcDbLine
 10
33.85542264564272
 20
103.481930653856
 11
39.15872350454181
 21
100.4200684753771
  0
ELLIPSE
  5
1C8
100
AcDbEntity
  8
Sichtbar (ISO)
  6
ByLayer
 62
  256
370
   -1
100
AcDbEllipse
 10
33.85542264564266
 20
100.8691415948873
 30
0
 11
-1.599999999999833
 21
2.771281292110303
 31
0
 40
0.5773502691896267
 41
5.497787143782378
 42
8.639379797372174
  0
ELLIPSE
  5
1C9
100
AcDbEntity
  8
Sichtbar (ISO)
  6
ByLayer
 62
  256
370
   -1
100
AcDbEllipse
 10
35.69390027672774
 20
136.2234435490579
 30
0
 11
1.600000000000155
 21
-2.771281292110113
 31
0
 40
0.5773502691896251
 41
3.753615439832309
 42
5.497787143781851
  0
ELLIPSE
  5
1CA
100
AcDbEntity
  8
Sichtbar (ISO)
  6
ByLayer
 62
  256
370
   -1
100
AcDbEllipse
 10
37.81522062028738
 20
137.4481884204495
 30
0
 11
-3.099999999999668
 21
5.369357503463717
 31
0
 40
0.5773502691896246
 41
1.183245395351971
 42
2.356194490192587
  0
LINE
  5
1CB
100
AcDbEntity
  8
Sichtbar (ISO)
  6
ByLayer
 62
  256
370
   -1
100
AcDbLine
 10
35.69390027672775
 20
133.6106544900891
 11
40.99720113562684
 21
130.5487923116102
  0
ELLIPSE
  5
1CC
100
AcDbEntity
  8
Sichtbar (ISO)
  6
ByLayer
 62
  256
370
   -1
100
AcDbEllipse
 10
40.99720113562662
 20
133.1615813705787
 30
0
 11
1.600000000000203
 21
-2.771281292110021
 31
0
 40
0.5773502691895751
 41
5.497787143782088
 42
5.671162520936692
  0
LINE
  5
1CD
100
AcDbEntity
  8
Sichtbar (ISO)
  6
ByLayer
 62
  256
370
   -1
100
AcDbLine
 10
35.69390027672774
 20
99.31779809112462
 11
40.99720113562681
 21
96.25593591264568
  0
ELLIPSE
  5
1CE
100
AcDbEntity
  8
Sichtbar (ISO)
  6
ByLayer
 62
  256
370
   -1
100
AcDbEllipse
 10
40.99720113562653
 20
98.8687249716149
 30
0
 11
1.600000000000565
 21
-2.771281292110649
 31
0
 40
0.5773502691895752
 41
5.497787143782112
 42
5.671162520936697
  0
ELLIPSE
  5
1CF
100
AcDbEntity
  8
Sichtbar (ISO)
  6
ByLayer
 62
  256
370
   -1
100
AcDbEllipse
 10
35.69390027672771
 20
101.9305871500934
 30
0
 11
1.600000000000161
 21
-2.77128129211012
 31
0
 40
0.5773502691896251
 41
3.753615439832278
 42
5.497787143781851
  0
ELLIPSE
  5
1D0
100
AcDbEntity
  8
Sichtbar (ISO)
  6
ByLayer
 62
  256
370
   -1
100
AcDbEllipse
 10
37.81522062028736
 20
103.155332021485
 30
0
 11
-3.09999999999967
 21
5.369357503463721
 31
0
 40
0.5773502691896246
 41
1.183245395351967
 42
2.356194490192587
  0
LINE
  5
1D1
100
AcDbEntity
  8
Sichtbar (ISO)
  6
ByLayer
 62
  256
370
   -1
100
AcDbLine
 10
63.17486920417611
 20
132.5230977970278
 11
63.17486920417611
 21
131.6186552581181
  0
LINE
  5
1D2
100
AcDbEntity
  8
Sichtbar (ISO)
  6
ByLayer
 62
  256
370
   -1
100
AcDbLine
 10
63.17486920417611
 20
132.5230977970278
 11
62.8468006742915
 21
132.7125082510693
  0
LINE
  5
1D3
100
AcDbEntity
  8
Sichtbar (ISO)
  6
ByLayer
 62
  256
370
   -1
100
AcDbLine
 10
69.01501250314422
 20
79.93546292686312
 11
116.9404694350582
 21
107.6052383875395
  0
ELLIPSE
  5
1D4
100
AcDbEntity
  8
Sichtbar (ISO)
  6
ByLayer
 62
  256
370
   -1
100
AcDbEllipse
 10
67.4429947520037
 20
88.00932044527546
 30
0
 11
14.07241150239618
 21
-5.2e-014
 31
0
 40
0.577350269189626
 41
4.667150591772104
 42
4.824331824634498
  0
LINE
  5
1D5
100
AcDbEntity
  8
Sichtbar (ISO)
  6
ByLayer
 62
  256
370
   -1
100
AcDbLine
 10
113.0513821385325
 20
162.1063851644651
 11
116.9404694350582
 21
159.861019566914
  0
LINE
  5
1D6
100
AcDbEntity
  8
Sichtbar (ISO)
  6
ByLayer
 62
  256
370
   -1
100
AcDbLine
 10
116.9404694350582
 20
159.861019566914
 11
116.9404694350582
 21
107.6052383875395
  0
ELLIPSE
  5
1D7
100
AcDbEntity
  8
Sichtbar (ISO)
  6
ByLayer
 62
  256
370
   -1
100
AcDbEllipse
 10
67.44299475200373
 20
140.2651016246501
 30
0
 11
-14.0724115023964
 21
5.11e-014
 31
0
 40
0.577350269189626
 41
1.262645190975868
 42
1.682739171044705
  0
LINE
  5
1D8
100
AcDbEntity
  8
Sichtbar (ISO)
  6
ByLayer
 62
  256
370
   -1
100
AcDbLine
 10
116.9404694350582
 20
159.861019566914
 11
69.01501250314423
 21
132.1912441062376
  0
LINE
  5
1D9
100
AcDbEntity
  8
Sichtbar (ISO)
  6
ByLayer
 62
  256
370
   -1
100
AcDbLine
 10
69.01501250314423
 20
132.1912441062376
 11
69.01501250314423
 21
117.2901815043066
  0
LINE
  5
1DA
100
AcDbEntity
  8
Sichtbar (ISO)
  6
ByLayer
 62
  256
370
   -1
100
AcDbLine
 10
69.01501250314422
 20
94.83652552879414
 11
69.01501250314422
 21
79.93546292686311
  0
LINE
  5
1DB
100
AcDbEntity
  8
Sichtbar (ISO)
  6
ByLayer
 62
  256
370
   -1
100
AcDbLine
 10
62.8468006742915
 20
132.7125082510693
 11
62.8468006742915
 21
131.6748940214162
  0
LINE
  5
1DC
100
AcDbEntity
  8
Sichtbar (ISO)
  6
ByLayer
 62
  256
370
   -1
100
AcDbLine
 10
73.0998490014957
 20
138.6321084627948
 11
62.8468006742915
 21
132.7125082510692
  0
LINE
  5
1DD
100
AcDbEntity
  8
Sichtbar (ISO)
  6
ByLayer
 62
  256
370
   -1
100
AcDbLine
 10
83.25118375265497
 20
103.5814798434121
 11
83.70645071929307
 21
103.3186313376704
  0
LINE
  5
1DE
100
AcDbEntity
  8
Sichtbar (ISO)
  6
ByLayer
 62
  256
370
   -1
100
AcDbLine
 10
83.70645071929307
 20
125.7722873131829
 11
83.70645071929306
 21
103.3186313376704
  0
ELLIPSE
  5
1DF
100
AcDbEntity
  8
Sichtbar (ISO)
  6
ByLayer
 62
  256
370
   -1
100
AcDbEllipse
 10
67.44299475200368
 20
102.9103830472068
 30
0
 11
-14.0724115023967
 21
4.93e-014
 31
0
 40
0.5773502691896258
 41
1.606546207927514
 42
1.682739171044703
  0
LINE
  5
1E0
100
AcDbEntity
  8
Sichtbar (ISO)
  6
ByLayer
 62
  256
370
   -1
100
AcDbLine
 10
83.70645071929307
 20
103.3186313376704
 11
69.01501250314423
 21
94.83652552879414
  0
ELLIPSE
  5
1E1
100
AcDbEntity
  8
Sichtbar (ISO)
  6
ByLayer
 62
  256
370
   -1
100
AcDbEllipse
 10
76.29867506626249
 20
113.9233611072336
 30
0
 11
2.59599554569815
 21
-4.496396181371748
 31
0
 40
0.5773502691896214
 41
6.1215304206226
 42
6.307631452215876
  0
ELLIPSE
  5
1E2
100
AcDbEntity
  8
Sichtbar (ISO)
  6
ByLayer
 62
  256
370
   -1
100
AcDbEllipse
 10
76.56319845024311
 20
138.5904327470077
 30
0
 11
-2.999999999999758
 21
1.12e-014
 31
0
 40
0.577350269189626
 41
5.497787143782142
 42
5.908925006104489
  0
ELLIPSE
  5
1E3
100
AcDbEntity
  8
Sichtbar (ISO)
  6
ByLayer
 62
  256
370
   -1
100
AcDbEllipse
 10
70.97852865793621
 20
139.8568533341863
 30
0
 11
2.999999999999771
 21
-1.12e-014
 31
0
 40
0.577350269189626
 41
5.497787143782144
 42
5.908925006104491
  0
LINE
  5
1E4
100
AcDbEntity
  8
Sichtbar (ISO)
  6
ByLayer
 62
  256
370
   -1
100
AcDbLine
 10
113.0513821385325
 20
162.1063851644651
 11
74.44187810668365
 21
139.8151776183992
  0
LINE
  5
1E5
100
AcDbEntity
  8
Sichtbar (ISO)
  6
ByLayer
 62
  256
370
   -1
100
AcDbLine
 10
69.01501250314423
 20
117.2901815043066
 11
83.70645071929307
 21
125.7722873131829
  0
ELLIPSE
  5
1E6
100
AcDbEntity
  8
Sichtbar (ISO)
  6
ByLayer
 62
  256
370
   -1
100
AcDbEllipse
 10
67.44299475200371
 20
125.3640390227192
 30
0
 11
14.07241150239659
 21
-5.22e-014
 31
0
 40
0.577350269189626
 41
4.667150591772103
 42
4.824331824634496
  0
ELLIPSE
  5
1E7
100
AcDbEntity
  8
Sichtbar (ISO)
  6
ByLayer
 62
  256
370
   -1
100
AcDbEllipse
 10
67.44299475200371
 20
117.8114456491376
 30
0
 11
10.92499999999986
 21
-1.11e-014
 31
0
 40
0.5773502691896254
 41
5.346370282344974
 42
6.02727055625301
  0
ELLIPSE
  5
1E8
100
AcDbEntity
  8
Sichtbar (ISO)
  6
ByLayer
 62
  256
370
   -1
100
AcDbEllipse
 10
67.4429947520037
 20
110.4629764207881
 30
0
 11
10.9999999999999
 21
-1.17e-014
 31
0
 40
0.5773502691896254
 41
5.166490929753248
 42
6.289077897790451
  0
LINE
  5
1E9
100
AcDbEntity
  8
Sichtbar (ISO)
  6
ByLayer
 62
  256
370
   -1
100
AcDbLine
 10
78.37377786166053
 20
117.2634127387605
 11
78.44280377812362
 21
110.5003991807473
  0
ELLIPSE
  5
1EA
100
AcDbEntity
  8
Sichtbar (ISO)
  6
ByLayer
 62
  256
370
   -1
100
AcDbEllipse
 10
86.03997459396794
 20
121.3224222257965
 30
0
 11
-14.99999999998724
 21
2.737e-013
 31
0
 40
0.5773502691896237
 41
1.079389755214899
 42
1.112841654799358
  0
ELLIPSE
  5
1EB
100
AcDbEntity
  8
Sichtbar (ISO)
  6
ByLayer
 62
  256
370
   -1
100
AcDbEllipse
 10
86.03997459397364
 20
128.4259424798743
 30
0
 11
14.99999999999956
 21
8.699e-013
 31
0
 40
0.5773502691896436
 41
4.181308464339544
 42
4.254434308389035
  0
LINE
  5
1EC
100
AcDbEntity
  8
Sichtbar (ISO)
  6
ByLayer
 62
  256
370
   -1
100
AcDbLine
 10
79.15224802061407
 20
109.8675239298395
 11
78.78626321897224
 21
109.6509744025732
  0
ELLIPSE
  5
1ED
100
AcDbEntity
  8
Sichtbar (ISO)
  6
ByLayer
 62
  256
370
   -1
100
AcDbEllipse
 10
77.48391104485269
 20
123.363622399446
 30
0
 11
-5.099999999999909
 21
1.034e-013
 31
0
 40
0.5773502691896087
 41
1.759978404619737
 42
1.957700108661914
  0
ELLIPSE
  5
1EE
100
AcDbEntity
  8
Sichtbar (ISO)
  6
ByLayer
 62
  256
370
   -1
100
AcDbEllipse
 10
77.48391104485276
 20
123.0370237670748
 30
0
 11
5.49999999999965
 21
-1.126e-013
 31
0
 40
0.5773502691896087
 41
4.887663904258988
 42
5.069833279791992
  0
ELLIPSE
  5
1EF
100
AcDbEntity
  8
Sichtbar (ISO)
  6
ByLayer
 62
  256
370
   -1
100
AcDbEllipse
 10
77.48391104485262
 20
116.8316497520241
 30
0
 11
-5.499999999999715
 21
1.127e-013
 31
0
 40
0.577350269189609
 41
1.740006335016076
 42
1.928240626202223
  0
ELLIPSE
  5
1F0
100
AcDbEntity
  8
Sichtbar (ISO)
  6
ByLayer
 62
  256
370
   -1
100
AcDbEllipse
 10
77.48391104485258
 20
116.5050511196531
 30
0
 11
5.099999999999889
 21
-1.039e-013
 31
0
 40
0.5773502691896089
 41
4.89520138416957
 42
5.099292762251741
  0
ELLIPSE
  5
1F1
100
AcDbEntity
  8
Sichtbar (ISO)
  6
ByLayer
 62
  256
370
   -1
100
AcDbEllipse
 10
75.51704984171124
 20
113.4720895734342
 30
0
 11
-2.780850182101384
 21
4.620252343599826
 31
0
 40
0.589109010828833
 41
3.596621205781021
 42
3.91626593295459
  0
LINE
  5
1F2
100
AcDbEntity
  8
Sichtbar (ISO)
  6
ByLayer
 62
  256
370
   -1
100
AcDbLine
 10
79.21115681370664
 20
110.0419346090585
 11
79.21115681370664
 21
105.1791435613123
  0
LINE
  5
1F3
100
AcDbEntity
  8
Sichtbar (ISO)
  6
ByLayer
 62
  256
370
   -1
100
AcDbLine
 10
82.71650122563206
 20
103.2369816795776
 11
79.21115681370664
 21
105.1791435613123
  0
LINE
  5
1F4
100
AcDbEntity
  8
Sichtbar (ISO)
  6
ByLayer
 62
  256
370
   -1
100
AcDbLine
 10
82.71650122563203
 20
125.2007397065329
 11
82.71650122563206
 21
103.2369816795776
  0
LINE
  5
1F5
100
AcDbEntity
  8
Sichtbar (ISO)
  6
ByLayer
 62
  256
370
   -1
100
AcDbLine
 10
79.21115681370659
 20
123.1769281667054
 11
79.21115681370661
 21
122.6067091728931
  0
ELLIPSE
  5
1F6
100
AcDbEntity
  8
Sichtbar (ISO)
  6
ByLayer
 62
  256
370
   -1
100
AcDbEllipse
 10
75.51704984171121
 20
123.2700485445669
 30
0
 11
-2.780850182101384
 21
4.620252343599828
 31
0
 40
0.589109010828833
 41
3.916265932954591
 42
4.23591066012816
  0
LINE
  5
1F7
100
AcDbEntity
  8
Sichtbar (ISO)
  6
ByLayer
 62
  256
370
   -1
100
AcDbLine
 10
79.40825771830218
 20
111.3161371979386
 11
79.40825771830217
 21
121.1140961690714
  0
ELLIPSE
  5
1F8
100
AcDbEntity
  8
Sichtbar (ISO)
  6
ByLayer
 62
  256
370
   -1
100
AcDbEllipse
 10
47.21974081004148
 20
91.31613159802129
 30
0
 11
-40.00000000003279
 21
-2.276e-012
 31
0
 40
0.5773502691896252
 41
3.785451343662511
 42
3.816793625517583
  0
SPLINE
  5
1F9
100
AcDbEntity
  8
Sichtbar (ISO)
  6
ByLayer
 62
  256
370
   -1
100
AcDbSpline
210
0
220
0
230
0
 70
    8
 71
    3
 72
   10
 73
    6
 74
    0
 42
1e-007
 43
1e-007
 40
-0.3979798744361311
 40
-0.3979798744361311
 40
-0.3979798744361311
 40
-0.3979798744361311
 40
-0.2033907006894982
 40
-0.2033907006894982
 40
-0.1661206696013792
 40
-0.1661206696013792
 40
-0.1661206696013792
 40
-0.1661206696013792
 10
78.44297509028148
 20
108.9361330451829
 30
0
 10
78.72709475420177
 20
109.1132166961
 30
0
 10
78.96717558621417
 20
109.4076401709844
 30
0
 10
79.15817146404902
 20
109.8797878106422
 30
0
 10
79.18609420873806
 20
109.9592520214552
 30
0
 10
79.21115681370664
 20
110.0419346090585
 30
0
  0
LINE
  5
1FA
100
AcDbEntity
  8
Sichtbar (ISO)
  6
ByLayer
 62
  256
370
   -1
100
AcDbLine
 10
83.14076529434401
 20
103.4819306538559
 11
82.71650122563206
 21
103.2369816795776
  0
LINE
  5
1FB
100
AcDbEntity
  8
Sichtbar (ISO)
  6
ByLayer
 62
  256
370
   -1
100
AcDbLine
 10
83.35289732869997
 20
103.8493541152734
 11
83.35289732869992
 21
125.5681631679504
  0
ELLIPSE
  5
1FC
100
AcDbEntity
  8
Sichtbar (ISO)
  6
ByLayer
 62
  256
370
   -1
100
AcDbEllipse
 10
76.29867506626174
 20
113.923361107235
 30
0
 11
2.695995545698883
 21
-4.669601262129777
 31
0
 40
0.5773502691896263
 41
6.095088360406203
 42
6.167083784607663
  0
ELLIPSE
  5
1FD
100
AcDbEntity
  8
Sichtbar (ISO)
  6
ByLayer
 62
  256
370
   -1
100
AcDbEllipse
 10
83.14076529434404
 20
103.7268796281342
 30
0
 11
-0.1500000000000146
 21
-0.2598076211353192
 31
0
 40
0.5773502691896261
 41
0.7853981633976242
 42
2.356194490192596
  0
LINE
  5
1FE
100
AcDbEntity
  8
Sichtbar (ISO)
  6
ByLayer
 62
  256
370
   -1
100
AcDbLine
 10
29.68349263664206
 20
95.19449035743968
 11
45.52268453522073
 21
86.04972865104909
  0
ELLIPSE
  5
1FF
100
AcDbEntity
  8
Sichtbar (ISO)
  6
ByLayer
 62
  256
370
   -1
100
AcDbEllipse
 10
29.68349263664207
 20
99.27697326207831
 30
0
 11
2.500000000000255
 21
-4.330127018922046
 31
0
 40
0.5773502691896255
 41
3.926990816987
 42
5.497787143781894
  0
LINE
  5
200
100
AcDbEntity
  8
Sichtbar (ISO)
  6
ByLayer
 62
  256
370
   -1
100
AcDbLine
 10
26.14795873070941
 20
143.7760369226392
 11
26.14795873070935
 21
101.3182147143976
  0
ELLIPSE
  5
201
100
AcDbEntity
  8
Sichtbar (ISO)
  6
ByLayer
 62
  256
370
   -1
100
AcDbEllipse
 10
29.68349263664211
 20
141.7347954703199
 30
0
 11
-2.5
 21
4.330127018922194
 31
0
 40
0.577350269189625
 41
5.497787143782138
 42
7.06858347057703
  0
LINE
  5
202
100
AcDbEntity
  8
Sichtbar (ISO)
  6
ByLayer
 62
  256
370
   -1
100
AcDbLine
 10
45.52268453522077
 20
136.672516668568
 11
29.68349263664214
 21
145.8172783749586
  0
LINE
  5
203
100
AcDbEntity
  8
Sichtbar (ISO)
  6
ByLayer
 62
  256
370
   -1
100
AcDbLine
 10
25.44085194952283
 20
149.0832646986695
 11
45.59339521333939
 21
137.4481884204493
  0
LINE
  5
204
100
AcDbEntity
  8
Sichtbar (ISO)
  6
ByLayer
 62
  256
370
   -1
100
AcDbLine
 10
45.59339521333939
 20
137.4481884204494
 11
50.82598539411983
 21
140.4692257698819
  0
LINE
  5
205
100
AcDbEntity
  8
Sichtbar (ISO)
  6
ByLayer
 62
  256
370
   -1
100
AcDbLine
 10
25.44085194952283
 20
149.0832646986695
 11
30.67344213030327
 21
152.104302048102
  0
LINE
  5
206
100
AcDbEntity
  8
Sichtbar (ISO)
  6
ByLayer
 62
  256
370
   -1
100
AcDbLine
 10
45.52268453522069
 20
85.23323207012143
 11
25.44085194952278
 21
96.82748351929519
  0
LINE
  5
207
100
AcDbEntity
  8
Sichtbar (ISO)
  6
ByLayer
 62
  256
370
   -1
100
AcDbLine
 10
25.44085194952278
 20
96.82748351929516
 11
25.44085194952283
 21
149.0832646986695
  0
LINE
  5
208
100
AcDbEntity
  8
Sichtbar (ISO)
  6
ByLayer
 62
  256
370
   -1
100
AcDbLine
 10
50.82598539411982
 20
140.4692257698819
 11
30.67344213030327
 21
152.1043020481021
  0
ELLIPSE
  5
209
100
AcDbEntity
  8
Sichtbar (ISO)
  6
ByLayer
 62
  256
370
   -1
100
AcDbEllipse
 10
43.54278554789836
 20
100.3384188172843
 30
0
 11
-2.999999999999979
 21
5.196152422706628
 31
0
 40
0.5773502691896253
 41
1.348997103304252
 42
1.792595550285536
  0
ELLIPSE
  5
20A
100
AcDbEntity
  8
Sichtbar (ISO)
  6
ByLayer
 62
  256
370
   -1
100
AcDbEllipse
 10
43.54278554789839
 20
134.6312752162488
 30
0
 11
-2.999999999999977
 21
5.196152422706626
 31
0
 40
0.5773502691896252
 41
1.348997103304252
 42
1.792595550285536
  0
LINE
  5
20B
100
AcDbEntity
  8
Sichtbar (ISO)
  6
ByLayer
 62
  256
370
   -1
100
AcDbLine
 10
58.10918524034097
 20
152.8391489709372
 11
116.9404694350617
 21
186.8054067375306
  0
LINE
  5
20C
100
AcDbEntity
  8
Sichtbar (ISO)
  6
ByLayer
 62
  256
370
   -1
100
AcDbLine
 10
62.63466863993485
 20
149.5731626472263
 11
58.10918524034097
 21
152.185951706195
  0
LINE
  5
20D
100
AcDbEntity
  8
Sichtbar (ISO)
  6
ByLayer
 62
  256
370
   -1
100
AcDbLine
 10
71.10781797981747
 20
72.16228234197675
 11
122.597323684554
 21
101.8897623210471
  0
LINE
  5
20E
100
AcDbEntity
  8
Sichtbar (ISO)
  6
ByLayer
 62
  256
370
   -1
100
AcDbLine
 10
122.597323684554
 20
101.8897623210471
 11
122.597323684554
 21
183.5394204138197
  0
LINE
  5
20F
100
AcDbEntity
  8
Sichtbar (ISO)
  6
ByLayer
 62
  256
370
   -1
100
AcDbLine
 10
122.597323684554
 20
183.5394204138197
 11
63.76603948983333
 21
149.5731626472263
  0
LINE
  5
210
100
AcDbEntity
  8
Sichtbar (ISO)
  6
ByLayer
 62
  256
370
   -1
100
AcDbLine
 10
116.9404694350617
 20
186.8054067375306
 11
122.597323684554
 21
183.5394204138197
  0
LINE
  5
211
100
AcDbEntity
  8
Sichtbar (ISO)
  6
ByLayer
 62
  256
370
   -1
100
AcDbLine
 10
63.76603948983333
 20
149.5731626472263
 11
62.63466863993485
 21
149.5731626472263
  0
LINE
  5
212
100
AcDbEntity
  8
Sichtbar (ISO)
  6
ByLayer
 62
  256
370
   -1
100
AcDbLine
 10
62.63466863993485
 20
149.5731626472263
 11
62.63466863993485
 21
149.5675985591944
  0
LINE
  5
213
100
AcDbEntity
  8
Sichtbar (ISO)
  6
ByLayer
 62
  256
370
   -1
100
AcDbLine
 10
62.63466863993485
 20
132.9982820543936
 11
62.63466863993485
 21
131.7136884860709
  0
LINE
  5
214
100
AcDbEntity
  8
Sichtbar (ISO)
  6
ByLayer
 62
  256
370
   -1
100
AcDbLine
 10
63.7660394898333
 20
133.2432310286715
 11
63.7660394898333
 21
133.6514793191357
  0
LINE
  5
215
100
AcDbEntity
  8
Sichtbar (ISO)
  6
ByLayer
 62
  256
370
   -1
100
AcDbLine
 10
58.10918524034097
 20
150.6766348022398
 11
58.10918524034097
 21
152.185951706195
  0
LINE
  5
216
100
AcDbEntity
  8
Sichtbar (ISO)
  6
ByLayer
 62
  256
370
   -1
100
AcDbLine
 10
58.10918524034097
 20
152.185951706195
 11
58.10918524034097
 21
152.8391489709372
  0
ELLIPSE
  5
217
100
AcDbEntity
  8
Sichtbar (ISO)
  6
ByLayer
 62
  256
370
   -1
100
AcDbEllipse
 10
57.29705320598498
 20
82.15155836249991
 30
0
 11
-5.499999999999997
 21
9e-015
 31
0
 40
0.5773502691896244
 41
0.2225188636806523
 42
1.348277463114246
  0
ELLIPSE
  5
218
100
AcDbEntity
  8
Sichtbar (ISO)
  6
ByLayer
 62
  256
370
   -1
100
AcDbEllipse
 10
57.29705320598498
 20
82.15155836249991
 30
0
 11
4.900000000000003
 21
2.952e-013
 31
0
 40
0.577350269189626
 41
3.607132483021416
 42
4.246849150952412
  0
ELLIPSE
  5
219
100
AcDbEntity
  8
Sichtbar (ISO)
  6
ByLayer
 62
  256
370
   -1
100
AcDbEllipse
 10
57.29705320598499
 20
67.45461990580078
 30
0
 11
-5.5
 21
3.236e-013
 31
0
 40
0.577350269189626
 41
0
 42
2.356194490192583
  0
ELLIPSE
  5
21A
100
AcDbEntity
  8
Sichtbar (ISO)
  6
ByLayer
 62
  256
370
   -1
100
AcDbEllipse
 10
57.29705320598492
 20
149.1042779985734
 30
0
 11
-5.5
 21
-2.8e-015
 31
0
 40
0.577350269189626
 41
5.497787143782137
 42
8.63937979737193
  0
ELLIPSE
  5
21B
100
AcDbEntity
  8
Sichtbar (ISO)
  6
ByLayer
 62
  256
370
   -1
100
AcDbEllipse
 10
60.87488668094116
 20
147.5285128272484
 30
0
 11
0.3999999999999998
 21
2e-016
 31
0
 40
0.577350269189626
 41
5.631518733192052
 42
7.06858347057699
  0
ELLIPSE
  5
21C
100
AcDbEntity
  8
Sichtbar (ISO)
  6
ByLayer
 62
  256
370
   -1
100
AcDbEllipse
 10
57.29705320598492
 20
149.1042779985734
 30
0
 11
-4.900000000000001
 21
2.906e-013
 31
0
 40
0.577350269189626
 41
5.364055554372438
 42
8.77311138678219
  0
ELLIPSE
  5
21D
100
AcDbEntity
  8
Sichtbar (ISO)
  6
ByLayer
 62
  256
370
   -1
100
AcDbEllipse
 10
54.56774786845257
 20
151.169941118455
 30
0
 11
0.3999999999999998
 21
-2.36e-014
 31
0
 40
0.5773502691896258
 41
0.7853981633976775
 42
2.222462900782591
  0
ELLIPSE
  5
21E
100
AcDbEntity
  8
Sichtbar (ISO)
  6
ByLayer
 62
  256
370
   -1
100
AcDbEllipse
 10
57.29705320598494
 20
134.4073395418744
 30
0
 11
-5.500000000000001
 21
1.8e-014
 31
0
 40
0.5773502691896257
 41
2.44e-014
 42
2.356194490192365
  0
LINE
  5
21F
100
AcDbEntity
  8
Sichtbar (ISO)
  6
ByLayer
 62
  256
370
   -1
100
AcDbLine
 10
51.79705320598495
 20
81.52907397096791
 11
51.79705320598497
 21
67.45461990580078
  0
LINE
  5
220
100
AcDbEntity
  8
Sichtbar (ISO)
  6
ByLayer
 62
  256
370
   -1
100
AcDbLine
 10
51.7970532059849
 20
149.1042779985734
 11
51.7970532059849
 21
134.4073395418744
  0
ELLIPSE
  5
221
100
AcDbEntity
  8
Sichtbar (ISO)
  6
ByLayer
 62
  256
370
   -1
100
AcDbEllipse
 10
70.30781797981747
 20
71.12885451997556
 30
0
 11
0.8000000000000039
 21
3e-016
 31
0
 40
0.577350269189626
 41
5.497787143782137
 42
6.283185307179604
  0
LINE
  5
222
100
AcDbEntity
  8
Sichtbar (ISO)
  6
ByLayer
 62
  256
370
   -1
100
AcDbLine
 10
70.87350340476672
 20
70.80225588760446
 11
61.18614050251101
 21
65.20925430824954
  0
LINE
  5
223
100
AcDbEntity
  8
Sichtbar (ISO)
  6
ByLayer
 62
  256
370
   -1
100
AcDbLine
 10
61.18614050251091
 20
146.8589124010222
 11
70.87350340476662
 21
152.4519139803771
  0
ELLIPSE
  5
224
100
AcDbEntity
  8
Sichtbar (ISO)
  6
ByLayer
 62
  256
370
   -1
100
AcDbEllipse
 10
70.3078179798174
 20
152.7785126127482
 30
0
 11
0.8000000000000012
 21
4e-016
 31
0
 40
0.577350269189626
 41
5.497787143782137
 42
7.068583470577032
  0
LINE
  5
225
100
AcDbEntity
  8
Sichtbar (ISO)
  6
ByLayer
 62
  256
370
   -1
100
AcDbLine
 10
70.87350340476659
 20
153.1051112451192
 11
70.66137137041066
 21
153.2275857322584
  0
ELLIPSE
  5
226
100
AcDbEntity
  8
Sichtbar (ISO)
  6
ByLayer
 62
  256
370
   -1
100
AcDbEllipse
 10
70.37852865793607
 20
153.0642864160728
 30
0
 11
-0.4000000000000026
 21
-2.41e-014
 31
0
 40
0.577350269189626
 41
3.926990816987007
 42
5.497787143781907
  0
LINE
  5
227
100
AcDbEntity
  8
Sichtbar (ISO)
  6
ByLayer
 62
  256
370
   -1
100
AcDbLine
 10
70.0956859454614
 20
153.2275857322584
 11
68.96431509556295
 21
152.5743884675162
  0
LINE
  5
228
100
AcDbEntity
  8
Sichtbar (ISO)
  6
ByLayer
 62
  256
370
   -1
100
AcDbLine
 10
68.96431509556295
 20
152.5743884675162
 11
69.24715780803756
 21
152.4110891513307
  0
LINE
  5
229
100
AcDbEntity
  8
Sichtbar (ISO)
  6
ByLayer
 62
  256
370
   -1
100
AcDbLine
 10
69.24715780803756
 20
152.4110891513307
 11
68.89360441744429
 21
152.2069650060988
  0
ELLIPSE
  5
22A
100
AcDbEntity
  8
Sichtbar (ISO)
  6
ByLayer
 62
  256
370
   -1
100
AcDbEllipse
 10
68.68147238308835
 20
152.0844905189596
 30
0
 11
-0.3000000000000003
 21
-1.81e-014
 31
0
 40
0.577350269189626
 41
3.926990816987029
 42
4.854286034988736
  0
ELLIPSE
  5
22B
100
AcDbEntity
  8
Sichtbar (ISO)
  6
ByLayer
 62
  256
370
   -1
100
AcDbEllipse
 10
68.75218306120701
 20
151.7987167156349
 30
0
 11
-0.8000000000000076
 21
-3e-016
 31
0
 40
0.577350269189626
 41
4.854286034988845
 42
5.497787143782138
  0
LINE
  5
22C
100
AcDbEntity
  8
Sichtbar (ISO)
  6
ByLayer
 62
  256
370
   -1
100
AcDbLine
 10
68.18649763625773
 20
152.125315348006
 11
67.01977144729992
 21
151.4517056687406
  0
ELLIPSE
  5
22D
100
AcDbEntity
  8
Sichtbar (ISO)
  6
ByLayer
 62
  256
370
   -1
100
AcDbEllipse
 10
67.12583746447793
 20
151.390468425171
 30
0
 11
-0.1500000000000001
 21
-1e-016
 31
0
 40
0.577350269189626
 41
5.497787143782248
 42
8.639379797372042
  0
LINE
  5
22E
100
AcDbEntity
  8
Sichtbar (ISO)
  6
ByLayer
 62
  256
370
   -1
100
AcDbLine
 10
67.23190348165589
 20
151.3292311816014
 11
68.3986296706137
 21
152.0028408608668
  0
ELLIPSE
  5
22F
100
AcDbEntity
  8
Sichtbar (ISO)
  6
ByLayer
 62
  256
370
   -1
100
AcDbEllipse
 10
68.75218306120696
 20
151.7987167156349
 30
0
 11
0.5000000000000023
 21
-2.95e-014
 31
0
 40
0.5773502691896258
 41
1.712693381399116
 42
2.356194490192599
  0
LINE
  5
230
100
AcDbEntity
  8
Sichtbar (ISO)
  6
ByLayer
 62
  256
370
   -1
100
AcDbLine
 10
68.68147238308833
 20
152.0844905189596
 11
66.56015203952867
 21
150.859745647568
  0
LINE
  5
231
100
AcDbEntity
  8
Sichtbar (ISO)
  6
ByLayer
 62
  256
370
   -1
100
AcDbLine
 10
66.56015203952867
 20
150.859745647568
 11
66.27730932705407
 21
151.0230449637535
  0
LINE
  5
232
100
AcDbEntity
  8
Sichtbar (ISO)
  6
ByLayer
 62
  256
370
   -1
100
AcDbLine
 10
66.27730932705407
 20
151.0230449637535
 11
63.37817152418922
 21
149.3492269728517
  0
LINE
  5
233
100
AcDbEntity
  8
Sichtbar (ISO)
  6
ByLayer
 62
  256
370
   -1
100
AcDbLine
 10
63.37817152418922
 20
149.3492269728517
 11
63.16603948983324
 21
149.4717014599909
  0
ELLIPSE
  5
234
100
AcDbEntity
  8
Sichtbar (ISO)
  6
ByLayer
 62
  256
370
   -1
100
AcDbEllipse
 10
62.74177542112134
 20
149.2267524857125
 30
0
 11
-0.5999999999999961
 21
-3.61e-014
 31
0
 40
0.577350269189626
 41
3.926990816986977
 42
7.06858347057677
  0
LINE
  5
235
100
AcDbEntity
  8
Sichtbar (ISO)
  6
ByLayer
 62
  256
370
   -1
100
AcDbLine
 10
62.3175113524094
 20
148.9818035114342
 11
62.52964338676536
 21
148.8593290242951
  0
LINE
  5
236
100
AcDbEntity
  8
Sichtbar (ISO)
  6
ByLayer
 62
  256
370
   -1
100
AcDbLine
 10
62.52964338676536
 20
148.8593290242951
 11
62.17608999617208
 21
148.6552048790631
  0
ELLIPSE
  5
237
100
AcDbEntity
  8
Sichtbar (ISO)
  6
ByLayer
 62
  256
370
   -1
100
AcDbEllipse
 10
61.89324728369747
 20
148.8185041952487
 30
0
 11
-0.4000000000000004
 21
2.36e-014
 31
0
 40
0.577350269189626
 41
0.7853981633976926
 42
2.35619449019259
  0
LINE
  5
238
100
AcDbEntity
  8
Sichtbar (ISO)
  6
ByLayer
 62
  256
370
   -1
100
AcDbLine
 10
68.96431509556292
 20
152.2477898351451
 11
68.96431509556295
 21
152.5743884675162
  0
LINE
  5
239
100
AcDbEntity
  8
Sichtbar (ISO)
  6
ByLayer
 62
  256
370
   -1
100
AcDbLine
 10
71.10781797981745
 20
81.14374473218132
 11
71.10781797981745
 21
71.12885451997556
  0
LINE
  5
23A
100
AcDbEntity
  8
Sichtbar (ISO)
  6
ByLayer
 62
  256
370
   -1
100
AcDbLine
 10
71.10781797981738
 20
152.7785126127482
 11
71.1078179798174
 21
138.0815741560491
  0
LINE
  5
23B
100
AcDbEntity
  8
Sichtbar (ISO)
  6
ByLayer
 62
  256
370
   -1
100
AcDbLine
 10
66.97583746447793
 20
151.390468425171
 11
66.97583746447793
 21
151.0997417395606
  0
LINE
  5
23C
100
AcDbEntity
  8
Sichtbar (ISO)
  6
ByLayer
 62
  256
370
   -1
100
AcDbLine
 10
62.14177542112134
 20
149.2267524857125
 11
62.14177542112134
 21
148.6375495371078
  0
LINE
  5
23D
100
AcDbEntity
  8
Sichtbar (ISO)
  6
ByLayer
 62
  256
370
   -1
100
AcDbLine
 10
61.61040457122283
 20
148.6552048790632
 11
56.5192357466797
 21
151.594592570403
  0
ELLIPSE
  5
23E
100
AcDbEntity
  8
Sichtbar (ISO)
  6
ByLayer
 62
  256
370
   -1
100
AcDbEllipse
 10
56.80207845915434
 20
151.7578918865885
 30
0
 11
-0.4000000000000004
 21
-1e-016
 31
0
 40
0.577350269189626
 41
5.497787143782181
 42
7.068583470577076
  0
LINE
  5
23F
100
AcDbEntity
  8
Sichtbar (ISO)
  6
ByLayer
 62
  256
370
   -1
100
AcDbLine
 10
56.87278913727298
 20
152.125315348006
 11
56.51923574667971
 21
151.921191202774
  0
LINE
  5
240
100
AcDbEntity
  8
Sichtbar (ISO)
  6
ByLayer
 62
  256
370
   -1
100
AcDbLine
 10
57.08492117162892
 20
152.0028408608668
 11
56.87278913727298
 21
152.125315348006
  0
ELLIPSE
  5
241
100
AcDbEntity
  8
Sichtbar (ISO)
  6
ByLayer
 62
  256
370
   -1
100
AcDbEllipse
 10
57.50918524034088
 20
152.2477898351451
 30
0
 11
0.5999999999999961
 21
3e-016
 31
0
 40
0.577350269189626
 41
3.926990816987264
 42
7.068583470577057
  0
LINE
  5
242
100
AcDbEntity
  8
Sichtbar (ISO)
  6
ByLayer
 62
  256
370
   -1
100
AcDbLine
 10
57.72131727469684
 20
152.6152132965626
 11
57.93344930905278
 21
152.4927388094235
  0
LINE
  5
243
100
AcDbEntity
  8
Sichtbar (ISO)
  6
ByLayer
 62
  256
370
   -1
100
AcDbLine
 10
60.62045507756169
 20
154.2890312874644
 11
57.72131727469684
 21
152.6152132965626
  0
LINE
  5
244
100
AcDbEntity
  8
Sichtbar (ISO)
  6
ByLayer
 62
  256
370
   -1
100
AcDbLine
 10
60.33761236508704
 20
154.45233060365
 11
60.62045507756169
 21
154.2890312874644
  0
LINE
  5
245
100
AcDbEntity
  8
Sichtbar (ISO)
  6
ByLayer
 62
  256
370
   -1
100
AcDbLine
 10
62.45893270864671
 20
155.6770754750416
 11
60.33761236508704
 21
154.45233060365
  0
ELLIPSE
  5
246
100
AcDbEntity
  8
Sichtbar (ISO)
  6
ByLayer
 62
  256
370
   -1
100
AcDbEllipse
 10
61.96395796181619
 20
155.7179003040879
 30
0
 11
0.5000000000000022
 21
2e-016
 31
0
 40
0.5773502691896258
 41
5.497787143782153
 42
6.141288252575521
  0
LINE
  5
247
100
AcDbEntity
  8
Sichtbar (ISO)
  6
ByLayer
 62
  256
370
   -1
100
AcDbLine
 10
61.15078516345159
 20
154.8401664795907
 11
62.3175113524094
 21
155.513776158856
  0
ELLIPSE
  5
248
100
AcDbEntity
  8
Sichtbar (ISO)
  6
ByLayer
 62
  256
370
   -1
100
AcDbEllipse
 10
61.25685118062961
 20
154.7789292360211
 30
0
 11
-0.1500000000000001
 21
8.9e-015
 31
0
 40
0.5773502691896258
 41
5.497787143782463
 42
8.639379797372257
  0
LINE
  5
249
100
AcDbEntity
  8
Sichtbar (ISO)
  6
ByLayer
 62
  256
370
   -1
100
AcDbLine
 10
62.52964338676536
 20
155.3913016717169
 11
61.36291719780756
 21
154.7176919924515
  0
ELLIPSE
  5
24A
100
AcDbEntity
  8
Sichtbar (ISO)
  6
ByLayer
 62
  256
370
   -1
100
AcDbEllipse
 10
61.96395796181612
 20
155.717900304088
 30
0
 11
0.8000000000000076
 21
4e-016
 31
0
 40
0.5773502691896258
 41
5.497787143782145
 42
6.141288252575438
  0
ELLIPSE
  5
24B
100
AcDbEntity
  8
Sichtbar (ISO)
  6
ByLayer
 62
  256
370
   -1
100
AcDbEllipse
 10
62.45893270864674
 20
155.6770754750416
 30
0
 11
0.3000000000000003
 21
2e-016
 31
0
 40
0.5773502691896258
 41
6.141288252575396
 42
7.068583470577057
  0
LINE
  5
24C
100
AcDbEntity
  8
Sichtbar (ISO)
  6
ByLayer
 62
  256
370
   -1
100
AcDbLine
 10
63.02461813359595
 20
156.0036741074126
 11
62.67106474300266
 21
155.7995499621807
  0
LINE
  5
24D
100
AcDbEntity
  8
Sichtbar (ISO)
  6
ByLayer
 62
  256
370
   -1
100
AcDbLine
 10
63.30746084607056
 20
155.8403747912271
 11
63.02461813359595
 21
156.0036741074126
  0
LINE
  5
24E
100
AcDbEntity
  8
Sichtbar (ISO)
  6
ByLayer
 62
  256
370
   -1
100
AcDbLine
 10
64.43883169596904
 20
156.4935720559693
 11
63.30746084607056
 21
155.8403747912271
  0
ELLIPSE
  5
24F
100
AcDbEntity
  8
Sichtbar (ISO)
  6
ByLayer
 62
  256
370
   -1
100
AcDbEllipse
 10
64.15598898349442
 20
156.6568713721549
 30
0
 11
0.4000000000000026
 21
1e-016
 31
0
 40
0.577350269189626
 41
5.497787143782112
 42
7.06858347057699
  0
LINE
  5
250
100
AcDbEntity
  8
Sichtbar (ISO)
  6
ByLayer
 62
  256
370
   -1
100
AcDbLine
 10
64.22669966161307
 20
156.9426451754796
 11
64.43883169596903
 21
156.8201706883404
  0
ELLIPSE
  5
251
100
AcDbEntity
  8
Sichtbar (ISO)
  6
ByLayer
 62
  256
370
   -1
100
AcDbEllipse
 10
63.66101423666386
 20
156.6160465431084
 30
0
 11
0.8000000000000012
 21
-4.74e-014
 31
0
 40
0.577350269189626
 41
0.7853981633976784
 42
2.356194490192576
  0
LINE
  5
252
100
AcDbEntity
  8
Sichtbar (ISO)
  6
ByLayer
 62
  256
370
   -1
100
AcDbLine
 10
53.40796590945888
 20
151.3496435961246
 11
63.0953288117146
 21
156.9426451754796
  0
LINE
  5
253
100
AcDbEntity
  8
Sichtbar (ISO)
  6
ByLayer
 62
  256
370
   -1
100
AcDbLine
 10
54.85059058092713
 20
151.3332404346406
 11
61.15772939341574
 21
147.6918121434339
  0
LINE
  5
254
100
AcDbEntity
  8
Sichtbar (ISO)
  6
ByLayer
 62
  256
370
   -1
100
AcDbLine
 10
63.02461813359592
 20
155.6770754750415
 11
63.02461813359595
 21
156.0036741074126
  0
LINE
  5
255
100
AcDbEntity
  8
Sichtbar (ISO)
  6
ByLayer
 62
  256
370
   -1
100
AcDbLine
 10
56.87278913727296
 20
151.390468425171
 11
56.87278913727298
 21
152.125315348006
  0
LINE
  5
256
100
AcDbEntity
  8
Sichtbar (ISO)
  6
ByLayer
 62
  256
370
   -1
100
AcDbLine
 10
64.55598898349442
 20
156.5612128474595
 11
64.55598898349442
 21
156.6568713721549
  0
LINE
  5
257
100
AcDbEntity
  8
Sichtbar (ISO)
  6
ByLayer
 62
  256
370
   -1
100
AcDbLine
 10
62.75893270864671
 20
155.5236819234273
 11
62.75893270864671
 21
155.6770754750416
  0
LINE
  5
258
100
AcDbEntity
  8
Sichtbar (ISO)
  6
ByLayer
 62
  256
370
   -1
100
AcDbLine
 10
61.10685118062961
 20
154.5698522085034
 11
61.10685118062961
 21
154.7789292360211
  0
LINE
  5
259
100
AcDbEntity
  8
Sichtbar (ISO)
  6
ByLayer
 62
  256
370
   -1
100
AcDbLine
 10
61.18614050251093
 20
132.1619739443231
 11
70.87350340476664
 21
137.7549755236781
  0
ELLIPSE
  5
25A
100
AcDbEntity
  8
Sichtbar (ISO)
  6
ByLayer
 62
  256
370
   -1
100
AcDbEllipse
 10
70.3078179798174
 20
138.0815741560491
 30
0
 11
0.799999999999999
 21
4e-016
 31
0
 40
0.577350269189626
 41
5.497787143782137
 42
6.283185307179585
  0
LINE
  5
25B
100
AcDbEntity
  8
Sichtbar (ISO)
  6
ByLayer
 62
  256
370
   -1
100
AcDbLine
 10
236.696021693419
 20
207.689592276023
 11
236.696021693419
 21
208.6451908503531
  0
LINE
  5
25C
100
AcDbEntity
  8
Sichtbar (ISO)
  6
ByLayer
 62
  256
370
   -1
100
AcDbLine
 10
239.8191905173733
 20
207.689592276023
 11
236.696021693419
 21
207.689592276023
  0
LINE
  5
25D
100
AcDbEntity
  8
Sichtbar (ISO)
  6
ByLayer
 62
  256
370
   -1
100
AcDbLine
 10
239.8191905173688
 20
229.6895922760231
 11
238.5102352557921
 21
229.6895922760231
  0
LINE
  5
25E
100
AcDbEntity
  8
Sichtbar (ISO)
  6
ByLayer
 62
  256
370
   -1
100
AcDbLine
 10
236.696021693419
 20
207.689592276023
 11
229.5960216934191
 21
207.689592276023
  0
LINE
  5
25F
100
AcDbEntity
  8
Sichtbar (ISO)
  6
ByLayer
 62
  256
370
   -1
100
AcDbLine
 10
237.096021693419
 20
230.689592276023
 11
237.096021693419
 21
229.189592276023
  0
ARC
  5
260
100
AcDbEntity
  8
Sichtbar (ISO)
  6
ByLayer
 62
  256
370
   -1
100
AcDbCircle
 10
248.5960216934191
 20
218.689592276023
 40
15.57241150239746
100
AcDbArc
 50
200.6648548052365
 51
220.1666191898527
  0
ARC
  5
261
100
AcDbEntity
  8
Sichtbar (ISO)
  6
ByLayer
 62
  256
370
   -1
100
AcDbCircle
 10
248.5960216934191
 20
218.689592276023
 40
15.57241150239745
100
AcDbArc
 50
161.7362750906887
 51
198.2637249093077
  0
ARC
  5
262
100
AcDbEntity
  8
Sichtbar (ISO)
  6
ByLayer
 62
  256
370
   -1
100
AcDbCircle
 10
248.5960216934191
 20
218.689592276023
 40
15.57241150239746
100
AcDbArc
 50
137.6025622024998
 51
159.3351451947599
  0
LINE
  5
263
100
AcDbEntity
  8
Sichtbar (ISO)
  6
ByLayer
 62
  256
370
   -1
100
AcDbLine
 10
237.096021693419
 20
230.689592276023
 11
229.5960216934191
 21
230.689592276023
  0
LINE
  5
264
100
AcDbEntity
  8
Sichtbar (ISO)
  6
ByLayer
 62
  256
370
   -1
100
AcDbLine
 10
229.696021693419
 20
257.6895922760231
 11
229.596021693419
 21
257.6895922760231
  0
LINE
  5
265
100
AcDbEntity
  8
Sichtbar (ISO)
  6
ByLayer
 62
  256
370
   -1
100
AcDbLine
 10
229.596021693419
 20
257.6895922760231
 11
229.596021693419
 21
253.1895922760231
  0
LINE
  5
266
100
AcDbEntity
  8
Sichtbar (ISO)
  6
ByLayer
 62
  256
370
   -1
100
AcDbLine
 10
229.5960216934191
 20
230.689592276023
 11
229.5960216934191
 21
253.189592276023
  0
LINE
  5
267
100
AcDbEntity
  8
Sichtbar (ISO)
  6
ByLayer
 62
  256
370
   -1
100
AcDbLine
 10
229.5960216934191
 20
207.689592276023
 11
229.5960216934191
 21
215.7546630585358
  0
LINE
  5
268
100
AcDbEntity
  8
Sichtbar (ISO)
  6
ByLayer
 62
  256
370
   -1
100
AcDbLine
 10
229.5960216934191
 20
217.1488750691152
 11
229.5960216934191
 21
220.2303094829318
  0
LINE
  5
269
100
AcDbEntity
  8
Sichtbar (ISO)
  6
ByLayer
 62
  256
370
   -1
100
AcDbLine
 10
229.5960216934191
 20
221.6245214935112
 11
229.5960216934191
 21
230.689592276023
  0
ARC
  5
26A
100
AcDbEntity
  8
Sichtbar (ISO)
  6
ByLayer
 62
  256
370
   -1
100
AcDbCircle
 10
238.5102352557921
 20
231.1895922760231
 40
1.500000000000005
100
AcDbArc
 50
199.4712206344922
 51
270
  0
LINE
  5
26B
100
AcDbEntity
  8
Sichtbar (ISO)
  6
ByLayer
 62
  256
370
   -1
100
AcDbLine
 10
236.09602169342
 20
212.6895922760235
 11
236.09602169342
 21
213.1895922760239
  0
LINE
  5
26C
100
AcDbEntity
  8
Sichtbar (ISO)
  6
ByLayer
 62
  256
370
   -1
100
AcDbLine
 10
236.09602169342
 20
212.2256333116729
 11
236.09602169342
 21
212.6895922760235
  0
LINE
  5
26D
100
AcDbEntity
  8
Sichtbar (ISO)
  6
ByLayer
 62
  256
370
   -1
100
AcDbLine
 10
307.5960216934145
 20
213.1895922760235
 11
307.5960216934145
 21
207.6895922760239
  0
ARC
  5
26E
100
AcDbEntity
  8
Sichtbar (ISO)
  6
ByLayer
 62
  256
370
   -1
100
AcDbCircle
 10
248.5960216934191
 20
218.6895922760231
 40
14.07241150239642
100
AcDbArc
 50
207.3442404654072
 51
231.4138525222044
  0
LINE
  5
26F
100
AcDbEntity
  8
Sichtbar (ISO)
  6
ByLayer
 62
  256
370
   -1
100
AcDbLine
 10
307.5960216934145
 20
207.6895922760239
 11
239.819190517374
 21
207.6895922760238
  0
ARC
  5
270
100
AcDbEntity
  8
Sichtbar (ISO)
  6
ByLayer
 62
  256
370
   -1
100
AcDbCircle
 10
252.9939374550751
 20
210.1895922760237
 40
2.999999999999764
100
AcDbArc
 50
90
 51
113.5564643091011
  0
ARC
  5
271
100
AcDbEntity
  8
Sichtbar (ISO)
  6
ByLayer
 62
  256
370
   -1
100
AcDbCircle
 10
250.5960216934189
 20
215.6895922760233
 40
2.999999999999775
100
AcDbArc
 50
269.9999999999993
 51
293.5564643091002
  0
LINE
  5
272
100
AcDbEntity
  8
Sichtbar (ISO)
  6
ByLayer
 62
  256
370
   -1
100
AcDbLine
 10
307.5960216934145
 20
213.1895922760235
 11
252.9939374550751
 21
213.1895922760235
  0
LINE
  5
273
100
AcDbEntity
  8
Sichtbar (ISO)
  6
ByLayer
 62
  256
370
   -1
100
AcDbLine
 10
250.5960216934189
 20
212.6895922760235
 11
236.09602169342
 21
212.6895922760235
  0
LINE
  5
274
100
AcDbEntity
  8
Sichtbar (ISO)
  6
ByLayer
 62
  256
370
   -1
100
AcDbLine
 10
239.5960216934166
 20
212.6895922760235
 11
239.5960216934166
 21
213.1895922760236
  0
LINE
  5
275
100
AcDbEntity
  8
Sichtbar (ISO)
  6
ByLayer
 62
  256
370
   -1
100
AcDbLine
 10
248.7412189493145
 20
213.8895922760235
 11
302.896021693417
 21
213.8895922760235
  0
LINE
  5
276
100
AcDbEntity
  8
Sichtbar (ISO)
  6
ByLayer
 62
  256
370
   -1
100
AcDbLine
 10
306.3960216934169
 20
213.8895922760235
 11
302.896021693417
 21
213.8895922760235
  0
LINE
  5
277
100
AcDbEntity
  8
Sichtbar (ISO)
  6
ByLayer
 62
  256
370
   -1
100
AcDbLine
 10
306.3960216934169
 20
213.1895922760231
 11
306.3960216934169
 21
213.8895922760235
  0
LINE
  5
278
100
AcDbEntity
  8
Sichtbar (ISO)
  6
ByLayer
 62
  256
370
   -1
100
AcDbLine
 10
248.7412189493146
 20
223.4895922760231
 11
302.8960216934161
 21
223.4895922760231
  0
LINE
  5
279
100
AcDbEntity
  8
Sichtbar (ISO)
  6
ByLayer
 62
  256
370
   -1
100
AcDbLine
 10
306.3960216934161
 20
223.4895922760231
 11
302.8960216934161
 21
223.4895922760231
  0
LINE
  5
27A
100
AcDbEntity
  8
Sichtbar (ISO)
  6
ByLayer
 62
  256
370
   -1
100
AcDbLine
 10
306.3960216934161
 20
223.4895922760231
 11
306.3960216934161
 21
224.1895922760231
  0
LINE
  5
27B
100
AcDbEntity
  8
Sichtbar (ISO)
  6
ByLayer
 62
  256
370
   -1
100
AcDbLine
 10
306.396021693416
 20
222.6895922760236
 11
306.396021693416
 21
224.1895922760231
  0
LINE
  5
27C
100
AcDbEntity
  8
Sichtbar (ISO)
  6
ByLayer
 62
  256
370
   -1
100
AcDbLine
 10
239.5960216934166
 20
212.6895922760235
 11
239.5960216934166
 21
213.1895922760236
  0
LINE
  5
27D
100
AcDbEntity
  8
Sichtbar (ISO)
  6
ByLayer
 62
  256
370
   -1
100
AcDbLine
 10
306.396021693417
 20
213.1895922760232
 11
306.396021693417
 21
214.6895922760236
  0
LINE
  5
27E
100
AcDbEntity
  8
Sichtbar (ISO)
  6
ByLayer
 62
  256
370
   -1
100
AcDbLine
 10
306.3960216934161
 20
222.6895922760236
 11
306.3960216934161
 21
224.1895922760231
  0
LINE
  5
27F
100
AcDbEntity
  8
Sichtbar (ISO)
  6
ByLayer
 62
  256
370
   -1
100
AcDbLine
 10
239.5960216934166
 20
212.6895922760235
 11
239.5960216934166
 21
213.1895922760236
  0
LINE
  5
280
100
AcDbEntity
  8
Sichtbar (ISO)
  6
ByLayer
 62
  256
370
   -1
100
AcDbLine
 10
306.3960216934169
 20
213.1895922760231
 11
306.3960216934169
 21
214.6895922760236
  0
LINE
  5
281
100
AcDbEntity
  8
Sichtbar (ISO)
  6
ByLayer
 62
  256
370
   -1
100
AcDbLine
 10
237.096021693419
 20
230.6895922760231
 11
237.0960216934191
 21
259.189592276023
  0
LINE
  5
282
100
AcDbEntity
  8
Sichtbar (ISO)
  6
ByLayer
 62
  256
370
   -1
100
AcDbLine
 10
229.6960216934191
 20
259.189592276023
 11
229.696021693419
 21
230.6895922760231
  0
LINE
  5
283
100
AcDbEntity
  8
Sichtbar (ISO)
  6
ByLayer
 62
  256
370
   -1
100
AcDbLine
 10
229.696021693419
 20
230.6895922760231
 11
237.096021693419
 21
230.6895922760231
  0
LINE
  5
284
100
AcDbEntity
  8
Sichtbar (ISO)
  6
ByLayer
 62
  256
370
   -1
100
AcDbLine
 10
229.6960216934191
 20
259.189592276023
 11
237.0960216934191
 21
259.189592276023
  0
LINE
  5
285
100
AcDbEntity
  8
Sichtbar (ISO)
  6
ByLayer
 62
  256
370
   -1
100
AcDbLine
 10
239.8191905173688
 20
229.6895922760231
 11
307.5960216934146
 21
229.689592276023
  0
ARC
  5
286
100
AcDbEntity
  8
Sichtbar (ISO)
  6
ByLayer
 62
  256
370
   -1
100
AcDbCircle
 10
248.5960216934145
 20
218.6895922760232
 40
14.07241150239739
100
AcDbArc
 50
128.5861474777962
 51
152.6557595345932
  0
LINE
  5
287
100
AcDbEntity
  8
Sichtbar (ISO)
  6
ByLayer
 62
  256
370
   -1
100
AcDbLine
 10
236.0960216934146
 20
224.1895922760231
 11
236.0960216934146
 21
225.1535512403737
  0
LINE
  5
288
100
AcDbEntity
  8
Sichtbar (ISO)
  6
ByLayer
 62
  256
370
   -1
100
AcDbLine
 10
307.5960216934145
 20
224.189592276023
 11
247.9474935559951
 21
224.1895922760231
  0
LINE
  5
289
100
AcDbEntity
  8
Sichtbar (ISO)
  6
ByLayer
 62
  256
370
   -1
100
AcDbLine
 10
307.5960216934146
 20
229.689592276023
 11
307.5960216934145
 21
224.189592276023
  0
LINE
  5
28A
100
AcDbEntity
  8
Sichtbar (ISO)
  6
ByLayer
 62
  256
370
   -1
100
AcDbLine
 10
239.3960216934191
 20
222.6895922760235
 11
322.5960216934191
 21
222.6895922760235
  0
LINE
  5
28B
100
AcDbEntity
  8
Sichtbar (ISO)
  6
ByLayer
 62
  256
370
   -1
100
AcDbLine
 10
238.596021693419
 20
215.4895922760235
 11
238.596021693419
 21
221.8895922760235
  0
LINE
  5
28C
100
AcDbEntity
  8
Sichtbar (ISO)
  6
ByLayer
 62
  256
370
   -1
100
AcDbLine
 10
322.5960216934191
 20
214.6895922760235
 11
239.3960216934191
 21
214.6895922760235
  0
LINE
  5
28D
100
AcDbEntity
  8
Sichtbar (ISO)
  6
ByLayer
 62
  256
370
   -1
100
AcDbLine
 10
322.5960216934191
 20
222.6895922760235
 11
322.5960216934191
 21
214.6895922760235
  0
LINE
  5
28E
100
AcDbEntity
  8
Sichtbar (ISO)
  6
ByLayer
 62
  256
370
   -1
100
AcDbLine
 10
239.3960216934191
 20
214.6895922760235
 11
238.596021693419
 21
215.4895922760235
  0
LINE
  5
28F
100
AcDbEntity
  8
Sichtbar (ISO)
  6
ByLayer
 62
  256
370
   -1
100
AcDbLine
 10
238.596021693419
 20
221.8895922760235
 11
239.3960216934191
 21
222.6895922760235
  0
ARC
  5
290
100
AcDbEntity
  8
Sichtbar (ISO)
  6
ByLayer
 62
  256
370
   -1
100
AcDbCircle
 10
293.0960216934192
 20
227.6895922760235
 40
25
100
AcDbArc
 50
0
 51
67.69484138154753
  0
LINE
  5
291
100
AcDbEntity
  8
Sichtbar (ISO)
  6
ByLayer
 62
  256
370
   -1
100
AcDbLine
 10
318.0960216934192
 20
227.6895922760235
 11
322.5960216934192
 21
227.6895922760235
  0
ARC
  5
292
100
AcDbEntity
  8
Sichtbar (ISO)
  6
ByLayer
 62
  256
370
   -1
100
AcDbCircle
 10
293.0960216934192
 20
227.6895922760235
 40
29.49999999999999
100
AcDbArc
 50
0
 51
69.79780506887406
  0
LINE
  5
293
100
AcDbEntity
  8
Sichtbar (ISO)
  6
ByLayer
 62
  256
370
   -1
100
AcDbLine
 10
303.2833791556836
 20
255.3747462025604
 11
304.6767582659949
 21
258.0838792280377
  0
LINE
  5
294
100
AcDbEntity
  8
Sichtbar (ISO)
  6
ByLayer
 62
  256
370
   -1
100
AcDbLine
 10
302.9486392204766
 20
248.0893420714309
 11
301.6575618623655
 21
250.2049426089838
  0
LINE
  5
295
100
AcDbEntity
  8
Sichtbar (ISO)
  6
ByLayer
 62
  256
370
   -1
100
AcDbLine
 10
302.9486392204767
 20
248.0893420714309
 11
302.5845081717682
 21
250.8189810347042
  0
SPLINE
  5
296
100
AcDbEntity
  8
Sichtbar (ISO)
  6
ByLayer
 62
  256
370
   -1
100
AcDbSpline
210
0
220
0
230
0
 70
    8
 71
    3
 72
   18
 73
   14
 74
    0
 42
1e-007
 43
1e-007
 40
0
 40
0
 40
0
 40
0
 40
0.02002717699594
 40
0.02002717699594
 40
0.044545871881488
 40
0.044545871881488
 40
0.0833055248065748
 40
0.0833055248065748
 40
0.148958115181627
 40
0.148958115181627
 40
0.2120326979996595
 40
0.2120326979996595
 40
0.2127169956761196
 40
0.2127169956761196
 40
0.2127169956761196
 40
0.2127169956761196
 10
302.5845081717682
 20
250.8189810347042
 30
0
 10
302.5845081717682
 20
250.8189810347042
 30
0
 10
302.5763621828166
 20
250.8295470072621
 30
0
 10
302.54307345135
 20
250.8726423252075
 30
0
 10
302.5152044886427
 20
250.9086813265221
 30
0
 10
302.430188266232
 20
251.0182365538116
 30
0
 10
302.364026026022
 20
251.1031490513015
 30
0
 10
302.1786283044552
 20
251.3395049223674
 30
0
 10
302.032855258417
 20
251.5238052707502
 30
0
 10
301.7108142229707
 20
251.9247053963646
 30
0
 10
301.5436070931376
 20
252.1301895736627
 30
0
 10
301.3767454030313
 20
252.3325396316742
 30
0
 10
301.3749543867062
 20
252.3347112587316
 30
0
 10
301.3731632248778
 20
252.3368827572955
 30
0
  0
LINE
  5
297
100
AcDbEntity
  8
Sichtbar (ISO)
  6
ByLayer
 62
  256
370
   -1
100
AcDbLine
 10
293.0960216934192
 20
254.9395922760234
 11
295.4276264164609
 21
254.5364429890307
  0
LINE
  5
298
100
AcDbEntity
  8
Sichtbar (ISO)
  6
ByLayer
 62
  256
370
   -1
100
AcDbLine
 10
293.0960216934192
 20
254.9395922760234
 11
302.9486392204767
 21
248.0893420714309
  0
LINE
  5
299
100
AcDbEntity
  8
Sichtbar (ISO)
  6
ByLayer
 62
  256
370
   -1
100
AcDbLine
 10
304.6767582659949
 20
258.0838792280377
 11
302.750273526738
 21
256.5246156427091
  0
LINE
  5
29A
100
AcDbEntity
  8
Sichtbar (ISO)
  6
ByLayer
 62
  256
370
   -1
100
AcDbLine
 10
304.6767582659949
 20
258.0838792280377
 11
293.0960216934192
 21
254.9395922760234
  0
SPLINE
  5
29B
100
AcDbEntity
  8
Sichtbar (ISO)
  6
ByLayer
 62
  256
370
   -1
100
AcDbSpline
210
0
220
0
230
0
 70
    8
 71
    3
 72
   18
 73
   14
 74
    0
 42
1e-007
 43
1e-007
 40
-0.0006900732479622
 40
-0.0006900732479622
 40
-0.0006900732479622
 40
-0.0006900732479622
 40
0
 40
0
 40
0.052076942320704
 40
0.052076942320704
 40
0.1005381486776573
 40
0.1005381486776573
 40
0.1433324279049918
 40
0.1433324279049918
 40
0.1742262417633141
 40
0.1742262417633141
 40
0.2008645961684354
 40
0.2008645961684354
 40
0.2008645961684354
 40
0.2008645961684354
 10
301.8666030599448
 20
254.8065040193093
 30
0
 10
301.8687292901919
 20
254.8073816685169
 30
0
 10
301.8708555644149
 20
254.8082592210803
 30
0
 10
302.0334450096367
 20
254.8753541063501
 30
0
 10
302.1956528812134
 20
254.9416179540103
 30
0
 10
302.4975947415094
 20
255.063802424685
 30
0
 10
302.6411685715869
 20
255.1213550732835
 30
0
 10
302.8884075594434
 20
255.2197087165997
 30
0
 10
302.9971403486044
 20
255.2626198973622
 30
0
 10
303.1489272182386
 20
255.3222427108855
 30
0
 10
303.2016743834546
 20
255.3428646627697
 30
0
 10
303.2671288857506
 20
255.3684189284978
 30
0
 10
303.2833791556836
 20
255.3747462025604
 30
0
 10
303.2833791556836
 20
255.3747462025604
 30
0
  0
SPLINE
  5
29C
100
AcDbEntity
  8
Sichtbar (ISO)
  6
ByLayer
 62
  256
370
   -1
100
AcDbSpline
210
0
220
0
230
0
 70
    8
 71
    3
 72
   18
 73
   14
 74
    0
 42
1e-007
 43
1e-007
 40
-0.0006433994800897
 40
-0.0006433994800897
 40
-0.0006433994800897
 40
-0.0006433994800897
 40
0
 40
0
 40
0.045551712664149
 40
0.045551712664149
 40
0.08865231016050409
 40
0.08865231016050409
 40
0.1317284265166483
 40
0.1317284265166483
 40
0.1640587251217467
 40
0.1640587251217467
 40
0.192392043982726
 40
0.192392043982726
 40
0.192392043982726
 40
0.192392043982726
 10
321.5784724306713
 20
228.6895922760235
 30
0
 10
321.5800153138036
 20
228.6881026118606
 30
0
 10
321.581558138502
 20
228.6866128830733
 30
0
 10
321.6923256016562
 20
228.5796487645797
 30
0
 10
321.8019371944004
 20
228.4731783113429
 30
0
 10
322.0075421878642
 20
228.2723715087442
 30
0
 10
322.1053128993044
 20
228.176357473612
 30
0
 10
322.2855162555606
 20
227.9986011049601
 30
0
 10
322.3691306427769
 20
227.91568930447
 30
0
 10
322.4882730917066
 20
227.7971883289845
 30
0
 10
322.5302680448989
 20
227.755285987073
 30
0
 10
322.5829145834234
 20
227.7027067219059
 30
0
 10
322.5960216934192
 20
227.6895922760235
 30
0
 10
322.5960216934192
 20
227.6895922760235
 30
0
  0
SPLINE
  5
29D
100
AcDbEntity
  8
Sichtbar (ISO)
  6
ByLayer
 62
  256
370
   -1
100
AcDbSpline
210
0
220
0
230
0
 70
    8
 71
    3
 72
   18
 73
   14
 74
    0
 42
1e-007
 43
1e-007
 40
-0.1888024440799916
 40
-0.1888024440799916
 40
-0.1888024440799916
 40
-0.1888024440799916
 40
-0.1881878451224395
 40
-0.1881878451224395
 40
-0.1447077253374638
 40
-0.1447077253374638
 40
-0.1030213431747049
 40
-0.1030213431747049
 40
-0.0601646066784886
 40
-0.0601646066784886
 40
-0.0280630261739818
 40
-0.0280630261739818
 40
0
 40
0
 40
0
 40
0
 10
319.0767838069523
 20
228.6895922760235
 30
0
 10
319.075350294603
 20
228.68810252629
 30
0
 10
319.0739167190104
 20
228.6866128341303
 30
0
 10
318.9710603301926
 20
228.5797390335868
 30
0
 10
318.8687632418961
 20
228.4740797504807
 30
0
 10
318.6745291085051
 20
228.2746123353921
 30
0
 10
318.5811232458799
 20
228.1792502537924
 30
0
 10
318.405460427059
 20
228.0007874678833
 30
0
 10
318.3223292419021
 20
227.9168321114294
 30
0
 10
318.2036928838847
 20
227.7974437018005
 30
0
 10
318.1617198848757
 20
227.7553610509628
 30
0
 10
318.1091395161374
 20
227.7027015103306
 30
0
 10
318.0960216934192
 20
227.6895922760235
 30
0
 10
318.0960216934192
 20
227.6895922760235
 30
0
  0
SPLINE
  5
29E
100
AcDbEntity
  8
Sichtbar (ISO)
  6
ByLayer
 62
  256
370
   -1
100
AcDbSpline
210
0
220
0
230
0
 70
    8
 71
    3
 72
   18
 73
   14
 74
    0
 42
1e-007
 43
1e-007
 40
-0.0008444702507317
 40
-0.0008444702507317
 40
-0.0008444702507317
 40
-0.0008444702507317
 40
0
 40
0
 40
0.0778383598031728
 40
0.0778383598031728
 40
0.1588581576901741
 40
0.1588581576901741
 40
0.2066902268928183
 40
0.2066902268928183
 40
0.236947977466366
 40
0.236947977466366
 40
0.2616628870104464
 40
0.2616628870104464
 40
0.2616628870104464
 40
0.2616628870104464
 10
301.3731632248778
 20
185.0423017947514
 30
0
 10
301.3749543867069
 20
185.0444732933163
 30
0
 10
301.3767454030307
 20
185.0466449203719
 30
0
 10
301.5436070931599
 20
185.2489949784134
 30
0
 10
301.7108142229744
 20
185.4544791556868
 30
0
 10
302.0328552584165
 20
185.8553792812961
 30
0
 10
302.1786283044549
 20
186.0396796296791
 30
0
 10
302.364026026022
 20
186.2760355007455
 30
0
 10
302.430188266232
 20
186.3609479982354
 30
0
 10
302.5152044886427
 20
186.4705032255248
 30
0
 10
302.54307345135
 20
186.5065422268394
 30
0
 10
302.5763621828166
 20
186.5496375447849
 30
0
 10
302.5845081717682
 20
186.5602035173427
 30
0
 10
302.5845081717682
 20
186.5602035173427
 30
0
  0
LINE
  5
29F
100
AcDbEntity
  8
Sichtbar (ISO)
  6
ByLayer
 62
  256
370
   -1
100
AcDbLine
 10
302.5845081717682
 20
186.5602035173427
 11
302.9486392204767
 21
189.289842480616
  0
LINE
  5
2A0
100
AcDbEntity
  8
Sichtbar (ISO)
  6
ByLayer
 62
  256
370
   -1
100
AcDbLine
 10
302.9486392204767
 20
189.2898424806161
 11
301.6575618623655
 21
187.1742419430632
  0
SPLINE
  5
2A1
100
AcDbEntity
  8
Sichtbar (ISO)
  6
ByLayer
 62
  256
370
   -1
100
AcDbSpline
210
0
220
0
230
0
 70
    8
 71
    3
 72
   18
 73
   14
 74
    0
 42
1e-007
 43
1e-007
 40
-0.0006202322734978
 40
-0.0006202322734978
 40
-0.0006202322734978
 40
-0.0006202322734978
 40
0
 40
0
 40
0.0438786516266022
 40
0.0438786516266022
 40
0.0859471245178286
 40
0.0859471245178286
 40
0.1291966790236158
 40
0.1291966790236158
 40
0.1615924974936979
 40
0.1615924974936979
 40
0.1899127448885523
 40
0.1899127448885523
 40
0.1899127448885523
 40
0.1899127448885523
 10
319.0767838069523
 20
208.6895922760235
 30
0
 10
319.0753502946031
 20
208.6910820257568
 30
0
 10
319.0739167190102
 20
208.6925717179168
 30
0
 10
318.9710603301965
 20
208.7994455184568
 30
0
 10
318.8687632418967
 20
208.9051048015656
 30
0
 10
318.6745291085051
 20
209.1045722166548
 30
0
 10
318.5811232458799
 20
209.1999342982546
 30
0
 10
318.405460427059
 20
209.3783970841637
 30
0
 10
318.3223292419021
 20
209.4623524406176
 30
0
 10
318.2036928838847
 20
209.5817408502465
 30
0
 10
318.1617198848757
 20
209.6238235010842
 30
0
 10
318.1091395161374
 20
209.6764830417163
 30
0
 10
318.0960216934192
 20
209.6895922760235
 30
0
 10
318.0960216934192
 20
209.6895922760235
 30
0
  0
ARC
  5
2A2
100
AcDbEntity
  8
Sichtbar (ISO)
  6
ByLayer
 62
  256
370
   -1
100
AcDbCircle
 10
293.0960216934192
 20
209.6895922760235
 40
25
100
AcDbArc
 50
292.3051586184525
 51
0
  0
LINE
  5
2A3
100
AcDbEntity
  8
Sichtbar (ISO)
  6
ByLayer
 62
  256
370
   -1
100
AcDbLine
 10
304.676758265995
 20
179.2953053240093
 11
302.7502735267381
 21
180.8545689093378
  0
LINE
  5
2A4
100
AcDbEntity
  8
Sichtbar (ISO)
  6
ByLayer
 62
  256
370
   -1
100
AcDbLine
 10
304.6767582659949
 20
179.2953053240093
 11
303.2833791556836
 21
182.0044383494865
  0
SPLINE
  5
2A5
100
AcDbEntity
  8
Sichtbar (ISO)
  6
ByLayer
 62
  256
370
   -1
100
AcDbSpline
210
0
220
0
230
0
 70
    8
 71
    3
 72
   18
 73
   14
 74
    0
 42
1e-007
 43
1e-007
 40
0
 40
0
 40
0
 40
0
 40
0.0263416040920467
 40
0.0263416040920467
 40
0.0568912619715498
 40
0.0568912619715498
 40
0.0992088144624922
 40
0.0992088144624922
 40
0.1471301647179941
 40
0.1471301647179941
 40
0.1986269717679979
 40
0.1986269717679979
 40
0.1993093576247007
 40
0.1993093576247007
 40
0.1993093576247007
 40
0.1993093576247007
 10
303.2833791556836
 20
182.0044383494866
 30
0
 10
303.2833791556836
 20
182.0044383494866
 30
0
 10
303.2671288857506
 20
182.0107656235491
 30
0
 10
303.2016743834547
 20
182.0363198892773
 30
0
 10
303.1489272182386
 20
182.0569418411615
 30
0
 10
302.9971403486044
 20
182.1165646546848
 30
0
 10
302.8884075594434
 20
182.1594758354473
 30
0
 10
302.641168571587
 20
182.2578294787634
 30
0
 10
302.4975947415095
 20
182.315382127362
 30
0
 10
302.1956528812141
 20
182.4375665980364
 30
0
 10
302.0334450096414
 20
182.5038304456953
 30
0
 10
301.8708555644149
 20
182.5709253309666
 30
0
 10
301.8687292901919
 20
182.57180288353
 30
0
 10
301.8666030599448
 20
182.5726805327377
 30
0
  0
ARC
  5
2A6
100
AcDbEntity
  8
Sichtbar (ISO)
  6
ByLayer
 62
  256
370
   -1
100
AcDbCircle
 10
293.0960216934192
 20
209.6895922760235
 40
29.49999999999999
100
AcDbArc
 50
290.202194931126
 51
0
  0
SPLINE
  5
2A7
100
AcDbEntity
  8
Sichtbar (ISO)
  6
ByLayer
 62
  256
370
   -1
100
AcDbSpline
210
0
220
0
230
0
 70
    8
 71
    3
 72
   18
 73
   14
 74
    0
 42
1e-007
 43
1e-007
 40
0
 40
0
 40
0
 40
0
 40
0.0280611086154845
 40
0.0280611086154845
 40
0.060080796290623
 40
0.060080796290623
 40
0.1027430620750846
 40
0.1027430620750846
 40
0.1454295737990318
 40
0.1454295737990318
 40
0.1905436517843627
 40
0.1905436517843627
 40
0.1911808698519868
 40
0.1911808698519868
 40
0.1911808698519868
 40
0.1911808698519868
 10
322.5960216934192
 20
209.6895922760235
 30
0
 10
322.5960216934192
 20
209.6895922760235
 30
0
 10
322.5829145834234
 20
209.6764778301411
 30
0
 10
322.5302680448989
 20
209.623898564974
 30
0
 10
322.4882730917066
 20
209.5819962230625
 30
0
 10
322.3691306427769
 20
209.4634952475769
 30
0
 10
322.2855162555605
 20
209.3805834470868
 30
0
 10
322.1053128993044
 20
209.202827078435
 30
0
 10
322.0075421878642
 20
209.1068130433028
 30
0
 10
321.8019371944014
 20
208.9060062407051
 30
0
 10
321.6923256016618
 20
208.7995357874738
 30
0
 10
321.5815581385019
 20
208.6925716689735
 30
0
 10
321.5800153138037
 20
208.6910819401865
 30
0
 10
321.5784724306713
 20
208.6895922760235
 30
0
  0
LINE
  5
2A8
100
AcDbEntity
  8
Sichtbar (ISO)
  6
ByLayer
 62
  256
370
   -1
100
AcDbLine
 10
322.5960216934192
 20
209.6895922760235
 11
318.0960216934192
 21
209.6895922760235
  0
LINE
  5
2A9
100
AcDbEntity
  8
Sichtbar (ISO)
  6
ByLayer
 62
  256
370
   -1
100
AcDbLine
 10
293.0960216934192
 20
182.4395922760235
 11
295.4276264164609
 21
182.8427415630162
  0
LINE
  5
2AA
100
AcDbEntity
  8
Sichtbar (ISO)
  6
ByLayer
 62
  256
370
   -1
100
AcDbLine
 10
293.0960216934192
 20
182.4395922760235
 11
304.6767582659949
 21
179.2953053240093
  0
LINE
  5
2AB
100
AcDbEntity
  8
Sichtbar (ISO)
  6
ByLayer
 62
  256
370
   -1
100
AcDbLine
 10
302.9486392204767
 20
189.289842480616
 11
293.0960216934192
 21
182.4395922760235
  0
LINE
  5
2AC
100
AcDbEntity
  8
Sichtbar (ISO)
  6
ByLayer
 62
  256
370
   -1
100
AcDbLine
 10
234.2474935559951
 20
213.1895922760236
 11
247.9474935559951
 21
213.1895922760236
  0
ARC
  5
2AD
100
AcDbEntity
  8
Sichtbar (ISO)
  6
ByLayer
 62
  256
370
   -1
100
AcDbCircle
 10
247.9474935559951
 20
213.9895922760235
 40
0.8000000000000012
100
AcDbArc
 50
270
 51
0
  0
LINE
  5
2AE
100
AcDbEntity
  8
Sichtbar (ISO)
  6
ByLayer
 62
  256
370
   -1
100
AcDbLine
 10
248.7474935559951
 20
213.9895922760236
 11
248.7474935559951
 21
214.2895922760235
  0
ARC
  5
2AF
100
AcDbEntity
  8
Sichtbar (ISO)
  6
ByLayer
 62
  256
370
   -1
100
AcDbCircle
 10
248.3474935559951
 20
214.2895922760235
 40
0.4000000000000026
100
AcDbArc
 50
0
 51
90
  0
LINE
  5
2B0
100
AcDbEntity
  8
Sichtbar (ISO)
  6
ByLayer
 62
  256
370
   -1
100
AcDbLine
 10
248.3474935559951
 20
214.6895922760236
 11
246.7474935559951
 21
214.6895922760235
  0
LINE
  5
2B1
100
AcDbEntity
  8
Sichtbar (ISO)
  6
ByLayer
 62
  256
370
   -1
100
AcDbLine
 10
246.7474935559951
 20
214.6895922760235
 11
246.7474935559951
 21
214.2895922760235
  0
LINE
  5
2B2
100
AcDbEntity
  8
Sichtbar (ISO)
  6
ByLayer
 62
  256
370
   -1
100
AcDbLine
 10
246.7474935559951
 20
214.2895922760235
 11
246.2474935559951
 21
214.2895922760235
  0
ARC
  5
2B3
100
AcDbEntity
  8
Sichtbar (ISO)
  6
ByLayer
 62
  256
370
   -1
100
AcDbCircle
 10
245.9474935559951
 20
214.2895922760235
 40
0.3000000000000003
100
AcDbArc
 50
0
 51
53.13010235415597
  0
ARC
  5
2B4
100
AcDbEntity
  8
Sichtbar (ISO)
  6
ByLayer
 62
  256
370
   -1
100
AcDbCircle
 10
245.6474935559951
 20
213.8895922760235
 40
0.8000000000000076
100
AcDbArc
 50
53.13010235415496
 51
90
  0
LINE
  5
2B5
100
AcDbEntity
  8
Sichtbar (ISO)
  6
ByLayer
 62
  256
370
   -1
100
AcDbLine
 10
245.6474935559951
 20
214.6895922760236
 11
243.9974935559951
 21
214.6895922760236
  0
ARC
  5
2B6
100
AcDbEntity
  8
Sichtbar (ISO)
  6
ByLayer
 62
  256
370
   -1
100
AcDbCircle
 10
243.9974935559951
 20
214.5395922760235
 40
0.1500000000000001
100
AcDbArc
 50
90
 51
270
  0
LINE
  5
2B7
100
AcDbEntity
  8
Sichtbar (ISO)
  6
ByLayer
 62
  256
370
   -1
100
AcDbLine
 10
243.9974935559951
 20
214.3895922760236
 11
245.6474935559951
 21
214.3895922760236
  0
ARC
  5
2B8
100
AcDbEntity
  8
Sichtbar (ISO)
  6
ByLayer
 62
  256
370
   -1
100
AcDbCircle
 10
245.6474935559951
 20
213.8895922760235
 40
0.5000000000000022
100
AcDbArc
 50
53.13010235415434
 51
90
  0
LINE
  5
2B9
100
AcDbEntity
  8
Sichtbar (ISO)
  6
ByLayer
 62
  256
370
   -1
100
AcDbLine
 10
245.9474935559951
 20
214.2895922760235
 11
242.9474935559951
 21
214.2895922760235
  0
LINE
  5
2BA
100
AcDbEntity
  8
Sichtbar (ISO)
  6
ByLayer
 62
  256
370
   -1
100
AcDbLine
 10
242.9474935559951
 20
214.2895922760235
 11
242.9474935559952
 21
214.6895922760235
  0
LINE
  5
2BB
100
AcDbEntity
  8
Sichtbar (ISO)
  6
ByLayer
 62
  256
370
   -1
100
AcDbLine
 10
242.9474935559952
 20
214.6895922760235
 11
238.8474935559951
 21
214.6895922760235
  0
LINE
  5
2BC
100
AcDbEntity
  8
Sichtbar (ISO)
  6
ByLayer
 62
  256
370
   -1
100
AcDbLine
 10
238.8474935559951
 20
214.6895922760235
 11
238.8474935559951
 21
214.9895922760236
  0
ARC
  5
2BD
100
AcDbEntity
  8
Sichtbar (ISO)
  6
ByLayer
 62
  256
370
   -1
100
AcDbCircle
 10
238.2474935559951
 20
214.9895922760235
 40
0.5999999999999961
100
AcDbArc
 50
0
 51
180
  0
LINE
  5
2BE
100
AcDbEntity
  8
Sichtbar (ISO)
  6
ByLayer
 62
  256
370
   -1
100
AcDbLine
 10
237.6474935559951
 20
214.9895922760236
 11
237.6474935559951
 21
214.6895922760235
  0
LINE
  5
2BF
100
AcDbEntity
  8
Sichtbar (ISO)
  6
ByLayer
 62
  256
370
   -1
100
AcDbLine
 10
237.6474935559951
 20
214.6895922760235
 11
237.1474935559951
 21
214.6895922760235
  0
ARC
  5
2C0
100
AcDbEntity
  8
Sichtbar (ISO)
  6
ByLayer
 62
  256
370
   -1
100
AcDbCircle
 10
237.1474935559951
 20
215.0895922760236
 40
0.4000000000000004
100
AcDbArc
 50
180
 51
270
  0
LINE
  5
2C1
100
AcDbEntity
  8
Sichtbar (ISO)
  6
ByLayer
 62
  256
370
   -1
100
AcDbLine
 10
236.7474935559951
 20
215.0895922760236
 11
236.7474935559951
 21
222.2895922760236
  0
ARC
  5
2C2
100
AcDbEntity
  8
Sichtbar (ISO)
  6
ByLayer
 62
  256
370
   -1
100
AcDbCircle
 10
237.1474935559951
 20
222.2895922760236
 40
0.4000000000000004
100
AcDbArc
 50
90
 51
180
  0
LINE
  5
2C3
100
AcDbEntity
  8
Sichtbar (ISO)
  6
ByLayer
 62
  256
370
   -1
100
AcDbLine
 10
237.6474935559951
 20
222.6895922760236
 11
237.1474935559951
 21
222.6895922760236
  0
LINE
  5
2C4
100
AcDbEntity
  8
Sichtbar (ISO)
  6
ByLayer
 62
  256
370
   -1
100
AcDbLine
 10
237.6474935559951
 20
222.3895922760235
 11
237.6474935559951
 21
222.6895922760236
  0
ARC
  5
2C5
100
AcDbEntity
  8
Sichtbar (ISO)
  6
ByLayer
 62
  256
370
   -1
100
AcDbCircle
 10
238.2474935559951
 20
222.3895922760235
 40
0.5999999999999961
100
AcDbArc
 50
180
 51
0
  0
LINE
  5
2C6
100
AcDbEntity
  8
Sichtbar (ISO)
  6
ByLayer
 62
  256
370
   -1
100
AcDbLine
 10
238.8474935559951
 20
222.6895922760236
 11
238.8474935559951
 21
222.3895922760235
  0
LINE
  5
2C7
100
AcDbEntity
  8
Sichtbar (ISO)
  6
ByLayer
 62
  256
370
   -1
100
AcDbLine
 10
242.9474935559952
 20
222.6895922760236
 11
238.8474935559951
 21
222.6895922760236
  0
LINE
  5
2C8
100
AcDbEntity
  8
Sichtbar (ISO)
  6
ByLayer
 62
  256
370
   -1
100
AcDbLine
 10
242.9474935559951
 20
223.0895922760236
 11
242.9474935559952
 21
222.6895922760236
  0
LINE
  5
2C9
100
AcDbEntity
  8
Sichtbar (ISO)
  6
ByLayer
 62
  256
370
   -1
100
AcDbLine
 10
245.9474935559951
 20
223.0895922760236
 11
242.9474935559951
 21
223.0895922760236
  0
ARC
  5
2CA
100
AcDbEntity
  8
Sichtbar (ISO)
  6
ByLayer
 62
  256
370
   -1
100
AcDbCircle
 10
245.6474935559951
 20
223.4895922760235
 40
0.5000000000000022
100
AcDbArc
 50
270
 51
306.8698976458457
  0
LINE
  5
2CB
100
AcDbEntity
  8
Sichtbar (ISO)
  6
ByLayer
 62
  256
370
   -1
100
AcDbLine
 10
243.9974935559951
 20
222.9895922760236
 11
245.6474935559951
 21
222.9895922760236
  0
ARC
  5
2CC
100
AcDbEntity
  8
Sichtbar (ISO)
  6
ByLayer
 62
  256
370
   -1
100
AcDbCircle
 10
243.9974935559951
 20
222.8395922760235
 40
0.1500000000000001
100
AcDbArc
 50
90
 51
270
  0
LINE
  5
2CD
100
AcDbEntity
  8
Sichtbar (ISO)
  6
ByLayer
 62
  256
370
   -1
100
AcDbLine
 10
245.6474935559951
 20
222.6895922760236
 11
243.9974935559951
 21
222.6895922760236
  0
ARC
  5
2CE
100
AcDbEntity
  8
Sichtbar (ISO)
  6
ByLayer
 62
  256
370
   -1
100
AcDbCircle
 10
245.6474935559951
 20
223.4895922760235
 40
0.8000000000000076
100
AcDbArc
 50
270
 51
306.869897645845
  0
ARC
  5
2CF
100
AcDbEntity
  8
Sichtbar (ISO)
  6
ByLayer
 62
  256
370
   -1
100
AcDbCircle
 10
245.9474935559951
 20
223.0895922760235
 40
0.3000000000000003
100
AcDbArc
 50
306.869897645844
 51
0
  0
LINE
  5
2D0
100
AcDbEntity
  8
Sichtbar (ISO)
  6
ByLayer
 62
  256
370
   -1
100
AcDbLine
 10
246.7474935559951
 20
223.0895922760236
 11
246.2474935559951
 21
223.0895922760236
  0
LINE
  5
2D1
100
AcDbEntity
  8
Sichtbar (ISO)
  6
ByLayer
 62
  256
370
   -1
100
AcDbLine
 10
246.7474935559951
 20
222.6895922760236
 11
246.7474935559951
 21
223.0895922760236
  0
LINE
  5
2D2
100
AcDbEntity
  8
Sichtbar (ISO)
  6
ByLayer
 62
  256
370
   -1
100
AcDbLine
 10
248.3474935559951
 20
222.6895922760236
 11
246.7474935559951
 21
222.6895922760236
  0
ARC
  5
2D3
100
AcDbEntity
  8
Sichtbar (ISO)
  6
ByLayer
 62
  256
370
   -1
100
AcDbCircle
 10
248.3474935559951
 20
223.0895922760236
 40
0.4000000000000026
100
AcDbArc
 50
270
 51
0
  0
LINE
  5
2D4
100
AcDbEntity
  8
Sichtbar (ISO)
  6
ByLayer
 62
  256
370
   -1
100
AcDbLine
 10
248.7474935559951
 20
223.3895922760236
 11
248.7474935559951
 21
223.0895922760236
  0
ARC
  5
2D5
100
AcDbEntity
  8
Sichtbar (ISO)
  6
ByLayer
 62
  256
370
   -1
100
AcDbCircle
 10
247.9474935559951
 20
223.3895922760235
 40
0.8000000000000012
100
AcDbArc
 50
0
 51
90
  0
LINE
  5
2D6
100
AcDbEntity
  8
Sichtbar (ISO)
  6
ByLayer
 62
  256
370
   -1
100
AcDbLine
 10
234.2474935559951
 20
224.1895922760236
 11
247.9474935559951
 21
224.1895922760236
  0
LINE
  5
2D7
100
AcDbEntity
  8
Sichtbar (ISO)
  6
ByLayer
 62
  256
370
   -1
100
AcDbLine
 10
235.2474935559951
 20
223.1494129002192
 11
235.2474935559951
 21
214.229771651828
  0
ARC
  5
2D8
100
AcDbEntity
  8
Sichtbar (ISO)
  6
ByLayer
 62
  256
370
   -1
100
AcDbCircle
 10
234.2474935559951
 20
218.6895922760235
 40
5.5
100
AcDbArc
 50
90
 51
270
  0
ARC
  5
2D9
100
AcDbEntity
  8
Sichtbar (ISO)
  6
ByLayer
 62
  256
370
   -1
100
AcDbCircle
 10
234.8474935559951
 20
214.229771651828
 40
0.3999999999999998
100
AcDbArc
 50
277.6622556607654
 51
0
  0
ARC
  5
2DA
100
AcDbEntity
  8
Sichtbar (ISO)
  6
ByLayer
 62
  256
370
   -1
100
AcDbCircle
 10
234.2474935559951
 20
218.6895922760235
 40
4.900000000000001
100
AcDbArc
 50
82.33774433923416
 51
277.6622556607667
  0
ARC
  5
2DB
100
AcDbEntity
  8
Sichtbar (ISO)
  6
ByLayer
 62
  256
370
   -1
100
AcDbCircle
 10
234.8474935559951
 20
223.1494129002191
 40
0.3999999999999999
100
AcDbArc
 50
0
 51
82.33774433923458
  0
DIMENSION
  5
2DC
100
AcDbEntity
  8
Bemaßung (ISO)
  6
CONTINUOUS
 62
    7
370
   18
100
AcDbDimension
  2
*D1
 10
340.596021693419
 20
259.1895922760232
 30
0
 11
340.596021693419
 21
240.9395922760233
 31
0
 70
   32
  1
ca. <>
 71
    5
 72
    0
  3
Pauli_DINGroßer Text
 53
0
210
0
220
0
230
1
100
AcDbAlignedDimension
 13
322.5960216934191
 23
222.6895922760235
 33
0
 14
237.0960216934191
 24
259.189592276023
 34
0
 50
270
100
AcDbRotatedDimension
  0
DIMENSION
  5
2DD
100
AcDbEntity
  8
Bemaßung (ISO)
  6
CONTINUOUS
 62
    7
370
   18
100
AcDbDimension
  2
*D2
 10
340.596021693419
 20
214.6895922760236
 30
0
 11
340.596021693419
 21
188.0441794962058
 31
0
 70
   32
  1
 6, 8 o. 10mm
 71
    5
 72
    0
  3
Pauli_DINGroßer Text
 53
0
210
0
220
0
230
1
100
AcDbAlignedDimension
 13
322.5960216934191
 23
222.6895922760235
 33
0
 14
322.5960216934191
 24
214.6895922760235
 34
0
 50
270
100
AcDbRotatedDimension
  0
DIMENSION
  5
2DE
100
AcDbEntity
  8
Bemaßung (ISO)
  6
CONTINUOUS
 62
    7
370
   18
100
AcDbDimension
  2
*D3
 10
221.819190517374
 20
207.6895922760231
 30
0
 11
221.819190517374
 21
218.6895922760231
 31
0
 70
   32
  1
<>
 71
    5
 72
    0
  3
Pauli_DINGroßer Text
 53
0
210
0
220
0
230
1
100
AcDbAlignedDimension
 13
239.8191905173688
 23
229.6895922760231
 33
0
 14
229.5960216934191
 24
207.689592276023
 34
0
 50
90
100
AcDbRotatedDimension
  0
DIMENSION
  5
2DF
100
AcDbEntity
  8
Bemaßung (ISO)
  6
CONTINUOUS
 62
    7
370
   18
100
AcDbDimension
  2
*D4
 10
211.2652312348135
 20
207.6895922760232
 30
0
 11
211.2652312348135
 21
233.4395922760232
 31
0
 70
   32
  1
<>
 71
    5
 72
    0
  3
Pauli_DINGroßer Text
 53
0
210
0
220
0
230
1
100
AcDbAlignedDimension
 13
229.6960216934191
 23
259.189592276023
 33
0
 14
229.5960216934191
 24
207.6895922760231
 34
0
 50
270
100
AcDbRotatedDimension
  0
DIMENSION
  5
2E0
100
AcDbEntity
  8
Bemaßung (ISO)
  6
CONTINUOUS
 62
    7
370
   18
100
AcDbDimension
  2
*D5
 10
238.596021693419
 20
195.8895922760235
 30
0
 11
234.096021693419
 21
195.8895922760235
 31
0
 70
   32
  1
<>
 71
    5
 72
    0
  3
Pauli_DINGroßer Text
 53
0
210
0
220
0
230
1
100
AcDbAlignedDimension
 13
229.5960216934191
 23
207.6895922760231
 33
0
 14
238.596021693419
 24
215.4895922760235
 34
0
 50
180
100
AcDbRotatedDimension
  0
LINE
  5
2E1
100
AcDbEntity
  8
Sichtbar (ISO)
  6
ByLayer
 62
  256
370
   -1
100
AcDbLine
 10
173.8702277605635
 20
108.3088280197449
 11
173.8702277605635
 21
127.2588280197449
  0
LINE
  5
2E2
100
AcDbEntity
  8
Sichtbar (ISO)
  6
ByLayer
 62
  256
370
   -1
100
AcDbLine
 10
185.7702277605635
 20
108.3088280197449
 11
173.8702277605635
 21
108.3088280197449
  0
LINE
  5
2E3
100
AcDbEntity
  8
Sichtbar (ISO)
  6
ByLayer
 62
  256
370
   -1
100
AcDbLine
 10
185.7702277605635
 20
82.20882801974496
 11
173.8702277605635
 21
82.20882801974496
  0
LINE
  5
2E4
100
AcDbEntity
  8
Sichtbar (ISO)
  6
ByLayer
 62
  256
370
   -1
100
AcDbLine
 10
181.5941051569994
 20
90.55882801974492
 11
185.7702277605635
 21
90.55882801974494
  0
LINE
  5
2E5
100
AcDbEntity
  8
Sichtbar (ISO)
  6
ByLayer
 62
  256
370
   -1
100
AcDbLine
 10
185.7702277605635
 20
99.95882801974496
 11
181.5941051569994
 21
99.95882801974496
  0
LINE
  5
2E6
100
AcDbEntity
  8
Sichtbar (ISO)
  6
ByLayer
 62
  256
370
   -1
100
AcDbLine
 10
196.7702277605636
 20
108.3088280197449
 11
185.7702277605635
 21
108.3088280197449
  0
LINE
  5
2E7
100
AcDbEntity
  8
Sichtbar (ISO)
  6
ByLayer
 62
  256
370
   -1
100
AcDbLine
 10
185.7702277605635
 20
99.95882801974496
 11
196.7702277605636
 21
99.95882801974496
  0
LINE
  5
2E8
100
AcDbEntity
  8
Sichtbar (ISO)
  6
ByLayer
 62
  256
370
   -1
100
AcDbLine
 10
185.7702277605635
 20
82.20882801974496
 11
196.7702277605636
 21
82.20882801974496
  0
LINE
  5
2E9
100
AcDbEntity
  8
Sichtbar (ISO)
  6
ByLayer
 62
  256
370
   -1
100
AcDbLine
 10
196.7702277605636
 20
90.55882801974492
 11
185.7702277605635
 21
90.55882801974492
  0
LINE
  5
2EA
100
AcDbEntity
  8
Sichtbar (ISO)
  6
ByLayer
 62
  256
370
   -1
100
AcDbLine
 10
173.8702277605635
 20
127.2588280197449
 11
166.7702277605636
 21
127.2588280197449
  0
LINE
  5
2EB
100
AcDbEntity
  8
Sichtbar (ISO)
  6
ByLayer
 62
  256
370
   -1
100
AcDbLine
 10
166.7702277605636
 20
63.25882801974493
 11
173.8702277605635
 21
63.25882801974493
  0
LINE
  5
2EC
100
AcDbEntity
  8
Sichtbar (ISO)
  6
ByLayer
 62
  256
370
   -1
100
AcDbLine
 10
196.7702277605636
 20
102.9531496232146
 11
196.7702277605636
 21
99.95882801974496
  0
LINE
  5
2ED
100
AcDbEntity
  8
Sichtbar (ISO)
  6
ByLayer
 62
  256
370
   -1
100
AcDbLine
 10
196.7702277605636
 20
90.55882801974492
 11
196.7702277605636
 21
87.56450641627113
  0
LINE
  5
2EE
100
AcDbEntity
  8
Sichtbar (ISO)
  6
ByLayer
 62
  256
370
   -1
100
AcDbLine
 10
166.7702277605636
 20
127.2588280197449
 11
166.7702277605636
 21
63.25882801974493
  0
LINE
  5
2EF
100
AcDbEntity
  8
Sichtbar (ISO)
  6
ByLayer
 62
  256
370
   -1
100
AcDbLine
 10
173.8702277605635
 20
63.25882801974493
 11
173.8702277605635
 21
82.20882801974496
  0
LINE
  5
2F0
100
AcDbEntity
  8
Sichtbar (ISO)
  6
ByLayer
 62
  256
370
   -1
100
AcDbLine
 10
181.5941051569994
 20
99.95882801974496
 11
181.5941051569994
 21
90.55882801974492
  0
LINE
  5
2F1
100
AcDbEntity
  8
Sichtbar (ISO)
  6
ByLayer
 62
  256
370
   -1
100
AcDbLine
 10
174.2702277605635
 20
82.20882801974496
 11
174.2702277605635
 21
81.50882801974493
  0
LINE
  5
2F2
100
AcDbEntity
  8
Sichtbar (ISO)
  6
ByLayer
 62
  256
370
   -1
100
AcDbLine
 10
174.2702277605635
 20
109.0088280197449
 11
174.2702277605635
 21
108.3088280197449
  0
LINE
  5
2F3
100
AcDbEntity
  8
Sichtbar (ISO)
  6
ByLayer
 62
  256
370
   -1
100
AcDbLine
 10
197.7702277605626
 20
109.0088280197449
 11
197.7702277605627
 21
81.50882801974491
  0
LINE
  5
2F4
100
AcDbEntity
  8
Sichtbar (ISO)
  6
ByLayer
 62
  256
370
   -1
100
AcDbLine
 10
173.8702277605645
 20
81.50882801974491
 11
176.9933965845185
 21
81.50882801974491
  0
LINE
  5
2F5
100
AcDbEntity
  8
Sichtbar (ISO)
  6
ByLayer
 62
  256
370
   -1
100
AcDbLine
 10
197.7702277605627
 20
81.50882801974491
 11
176.9933965845185
 21
81.50882801974491
  0
LINE
  5
2F6
100
AcDbEntity
  8
Sichtbar (ISO)
  6
ByLayer
 62
  256
370
   -1
100
AcDbLine
 10
176.9933965845185
 20
63.25882801974488
 11
244.7702277605591
 21
63.25882801974488
  0
LINE
  5
2F7
100
AcDbEntity
  8
Sichtbar (ISO)
  6
ByLayer
 62
  256
370
   -1
100
AcDbLine
 10
176.9933965845185
 20
63.25882801974488
 11
173.8702277605644
 21
63.25882801974488
  0
LINE
  5
2F8
100
AcDbEntity
  8
Sichtbar (ISO)
  6
ByLayer
 62
  256
370
   -1
100
AcDbLine
 10
244.7702277605591
 20
127.2588280197449
 11
244.7702277605591
 21
63.25882801974488
  0
LINE
  5
2F9
100
AcDbEntity
  8
Sichtbar (ISO)
  6
ByLayer
 62
  256
370
   -1
100
AcDbLine
 10
173.8702277605644
 20
127.2588280197449
 11
176.9933965845185
 21
127.2588280197449
  0
LINE
  5
2FA
100
AcDbEntity
  8
Sichtbar (ISO)
  6
ByLayer
 62
  256
370
   -1
100
AcDbLine
 10
244.7702277605591
 20
127.2588280197449
 11
176.9933965845185
 21
127.2588280197449
  0
LINE
  5
2FB
100
AcDbEntity
  8
Sichtbar (ISO)
  6
ByLayer
 62
  256
370
   -1
100
AcDbLine
 10
176.9933965845185
 20
127.2588280197449
 11
176.9933965845185
 21
109.0088280197449
  0
LINE
  5
2FC
100
AcDbEntity
  8
Sichtbar (ISO)
  6
ByLayer
 62
  256
370
   -1
100
AcDbLine
 10
176.9933965845185
 20
81.50882801974491
 11
176.9933965845185
 21
63.25882801974488
  0
LINE
  5
2FD
100
AcDbEntity
  8
Sichtbar (ISO)
  6
ByLayer
 62
  256
370
   -1
100
AcDbLine
 10
176.9933965845185
 20
109.0088280197449
 11
197.7702277605626
 21
109.0088280197449
  0
LINE
  5
2FE
100
AcDbEntity
  8
Sichtbar (ISO)
  6
ByLayer
 62
  256
370
   -1
100
AcDbLine
 10
176.9933965845185
 20
109.0088280197449
 11
173.8702277605644
 21
109.0088280197449
  0
LINE
  5
2FF
100
AcDbEntity
  8
Sichtbar (ISO)
  6
ByLayer
 62
  256
370
   -1
100
AcDbLine
 10
181.5941051569994
 20
99.75882801974493
 11
195.8778677672703
 21
99.75882801974493
  0
LINE
  5
300
100
AcDbEntity
  8
Sichtbar (ISO)
  6
ByLayer
 62
  256
370
   -1
100
AcDbLine
 10
195.9472566002683
 20
90.75882801974493
 11
181.5941051569994
 21
90.75882801974493
  0
LINE
  5
301
100
AcDbEntity
  8
Sichtbar (ISO)
  6
ByLayer
 62
  256
370
   -1
100
AcDbLine
 10
195.8778677672703
 20
99.75882801974494
 11
195.9096643802817
 21
99.75882801974494
  0
LINE
  5
302
100
AcDbEntity
  8
Sichtbar (ISO)
  6
ByLayer
 62
  256
370
   -1
100
AcDbLine
 10
195.9846643802817
 20
90.75882801974493
 11
195.9472566002683
 21
90.75882801974493
  0
LINE
  5
303
100
AcDbEntity
  8
Sichtbar (ISO)
  6
ByLayer
 62
  256
370
   -1
100
AcDbLine
 10
195.9096643802817
 20
99.75882801974493
 11
195.9846643802817
 21
90.75882801974493
  0
LINE
  5
304
100
AcDbEntity
  8
Sichtbar (ISO)
  6
ByLayer
 62
  256
370
   -1
100
AcDbLine
 10
193.2702277605637
 20
82.0088280197449
 11
178.2702277605635
 21
82.0088280197449
  0
LINE
  5
305
100
AcDbEntity
  8
Sichtbar (ISO)
  6
ByLayer
 62
  256
370
   -1
100
AcDbLine
 10
178.2702277605635
 20
81.5088280197449
 11
178.2702277605635
 21
82.0088280197449
  0
LINE
  5
306
100
AcDbEntity
  8
Sichtbar (ISO)
  6
ByLayer
 62
  256
370
   -1
100
AcDbLine
 10
193.2702277605637
 20
81.5088280197449
 11
193.2702277605637
 21
82.0088280197449
  0
LINE
  5
307
100
AcDbEntity
  8
Sichtbar (ISO)
  6
ByLayer
 62
  256
370
   -1
100
AcDbLine
 10
181.7702277605634
 20
99.75882801974623
 11
181.7702277605634
 21
99.95882801974631
  0
LINE
  5
308
100
AcDbEntity
  8
Sichtbar (ISO)
  6
ByLayer
 62
  256
370
   -1
100
AcDbLine
 10
181.7702277605634
 20
108.3088280197487
 11
181.7702277605634
 21
108.5088280197487
  0
LINE
  5
309
100
AcDbEntity
  8
Sichtbar (ISO)
  6
ByLayer
 62
  256
370
   -1
100
AcDbLine
 10
189.7702277605637
 20
99.75882801974623
 11
189.7702277605637
 21
99.95882801974631
  0
LINE
  5
30A
100
AcDbEntity
  8
Sichtbar (ISO)
  6
ByLayer
 62
  256
370
   -1
100
AcDbLine
 10
189.7702277605637
 20
108.3088280197487
 11
189.7702277605637
 21
108.5088280197487
  0
LINE
  5
30B
100
AcDbEntity
  8
Sichtbar (ISO)
  6
ByLayer
 62
  256
370
   -1
100
AcDbLine
 10
181.2702277605634
 20
82.00882801974107
 11
181.2702277605634
 21
82.20882801974116
  0
LINE
  5
30C
100
AcDbEntity
  8
Sichtbar (ISO)
  6
ByLayer
 62
  256
370
   -1
100
AcDbLine
 10
190.2702277605637
 20
82.00882801974107
 11
190.2702277605637
 21
82.20882801974116
  0
LINE
  5
30D
100
AcDbEntity
  8
Sichtbar (ISO)
  6
ByLayer
 62
  256
370
   -1
100
AcDbLine
 10
190.2702277605637
 20
90.55882801974357
 11
190.2702277605637
 21
90.75882801974939
  0
LINE
  5
30E
100
AcDbEntity
  8
Sichtbar (ISO)
  6
ByLayer
 62
  256
370
   -1
100
AcDbLine
 10
195.9121643802814
 20
99.4588280197447
 11
196.7758506290005
 21
99.4588280197447
  0
LINE
  5
30F
100
AcDbEntity
  8
Sichtbar (ISO)
  6
ByLayer
 62
  256
370
   -1
100
AcDbLine
 10
196.7758506290005
 20
99.05882801974469
 11
195.9154977136148
 21
99.05882801974469
  0
LINE
  5
310
100
AcDbEntity
  8
Sichtbar (ISO)
  6
ByLayer
 62
  256
370
   -1
100
AcDbLine
 10
195.9788310469481
 20
91.45882801974479
 11
196.7758506290005
 21
91.45882801974479
  0
LINE
  5
311
100
AcDbEntity
  8
Sichtbar (ISO)
  6
ByLayer
 62
  256
370
   -1
100
AcDbLine
 10
196.7758506290005
 20
91.05882801974475
 11
195.9821643802814
 21
91.05882801974479
  0
ELLIPSE
  5
312
100
AcDbEntity
  8
Sichtbar (ISO)
  6
ByLayer
 62
  256
370
   -1
100
AcDbEllipse
 10
196.6648427673098
 20
89.25882801974495
 30
0
 11
-1.36e-014
 21
5.391991091396693
 31
0
 40
0.0205875454557655
 41
4.392744253211381
 42
4.712388980384689
  0
LINE
  5
313
100
AcDbEntity
  8
Sichtbar (ISO)
  6
ByLayer
 62
  256
370
   -1
100
AcDbLine
 10
196.7702277605616
 20
87.56450641612099
 11
196.7702277605616
 21
81.60882801974498
  0
LINE
  5
314
100
AcDbEntity
  8
Sichtbar (ISO)
  6
ByLayer
 62
  256
370
   -1
100
AcDbLine
 10
196.8702277605617
 20
81.60882801974498
 11
196.7702277605616
 21
81.60882801974498
  0
LINE
  5
315
100
AcDbEntity
  8
Sichtbar (ISO)
  6
ByLayer
 62
  256
370
   -1
100
AcDbLine
 10
196.8702277605616
 20
108.908828019745
 11
196.8702277605617
 21
81.60882801974498
  0
LINE
  5
316
100
AcDbEntity
  8
Sichtbar (ISO)
  6
ByLayer
 62
  256
370
   -1
100
AcDbLine
 10
196.7702277605616
 20
108.908828019745
 11
196.8702277605616
 21
108.908828019745
  0
LINE
  5
317
100
AcDbEntity
  8
Sichtbar (ISO)
  6
ByLayer
 62
  256
370
   -1
100
AcDbLine
 10
196.7702277605616
 20
108.908828019745
 11
196.7702277605616
 21
102.9531496233689
  0
ELLIPSE
  5
318
100
AcDbEntity
  8
Sichtbar (ISO)
  6
ByLayer
 62
  256
370
   -1
100
AcDbEllipse
 10
196.6648427673098
 20
101.2588280197449
 30
0
 11
-1.38e-014
 21
5.391991091396696
 31
0
 40
0.0205875454557655
 41
4.712388980384689
 42
5.032033707557904
  0
LINE
  5
319
100
AcDbEntity
  8
Sichtbar (ISO)
  6
ByLayer
 62
  256
370
   -1
100
AcDbLine
 10
196.775850629
 20
89.25882801974498
 11
196.775850629
 21
101.2588280197449
  0
LINE
  5
31A
100
AcDbEntity
  8
Sichtbar (ISO)
  6
ByLayer
 62
  256
370
   -1
100
AcDbLine
 10
197.4702277605626
 20
81.60882801974493
 11
197.7702277605636
 21
81.60882801974493
  0
ARC
  5
31B
100
AcDbEntity
  8
Sichtbar (ISO)
  6
ByLayer
 62
  256
370
   -1
100
AcDbCircle
 10
197.4702277605626
 20
81.90882801974494
 40
0.2999999999999976
100
AcDbArc
 50
270
 51
0
  0
ARC
  5
31C
100
AcDbEntity
  8
Sichtbar (ISO)
  6
ByLayer
 62
  256
370
   -1
100
AcDbCircle
 10
197.4702277605626
 20
108.608828019745
 40
0.2999999999999976
100
AcDbArc
 50
0
 51
90
  0
LINE
  5
31D
100
AcDbEntity
  8
Sichtbar (ISO)
  6
ByLayer
 62
  256
370
   -1
100
AcDbLine
 10
197.7702277605636
 20
108.9088280197449
 11
197.4702277605626
 21
108.9088280197449
  0
LINE
  5
31E
100
AcDbEntity
  8
Sichtbar (ISO)
  6
ByLayer
 62
  256
370
   -1
100
AcDbLine
 10
197.4702277605616
 20
81.608828019745
 11
196.8702277605617
 21
81.60882801974498
  0
LINE
  5
31F
100
AcDbEntity
  8
Sichtbar (ISO)
  6
ByLayer
 62
  256
370
   -1
100
AcDbLine
 10
197.4702277605616
 20
108.908828019745
 11
196.8702277605616
 21
108.908828019745
  0
LINE
  5
320
100
AcDbEntity
  8
Sichtbar (ISO)
  6
ByLayer
 62
  256
370
   -1
100
AcDbLine
 10
193.2702277605635
 20
108.5088280197449
 11
178.2702277605635
 21
108.5088280197449
  0
LINE
  5
321
100
AcDbEntity
  8
Sichtbar (ISO)
  6
ByLayer
 62
  256
370
   -1
100
AcDbLine
 10
178.2702277605635
 20
108.5088280197449
 11
178.2702277605635
 21
109.0088280197449
  0
LINE
  5
322
100
AcDbEntity
  8
Sichtbar (ISO)
  6
ByLayer
 62
  256
370
   -1
100
AcDbLine
 10
193.2702277605635
 20
108.5088280197449
 11
193.2702277605635
 21
109.0088280197449
  0
LINE
  5
323
100
AcDbEntity
  8
Sichtbar (ISO)
  6
ByLayer
 62
  256
370
   -1
100
AcDbLine
 10
299.2394940017895
 20
45.25882801974496
 11
300.0394940017895
 21
45.25882801974496
  0
LINE
  5
324
100
AcDbEntity
  8
Sichtbar (ISO)
  6
ByLayer
 62
  256
370
   -1
100
AcDbLine
 10
300.0394940017895
 20
45.25882801974496
 11
300.0394940017895
 21
72.25882801974495
  0
LINE
  5
325
100
AcDbEntity
  8
Sichtbar (ISO)
  6
ByLayer
 62
  256
370
   -1
100
AcDbLine
 10
300.0394940017895
 20
72.25882801974495
 11
299.2394940017895
 21
72.25882801974495
  0
LINE
  5
326
100
AcDbEntity
  8
Sichtbar (ISO)
  6
ByLayer
 62
  256
370
   -1
100
AcDbLine
 10
299.2394940017895
 20
72.25882801974495
 11
299.2394940017895
 21
45.25882801974496
  0
LINE
  5
327
100
AcDbEntity
  8
Sichtbar (ISO)
  6
ByLayer
 62
  256
370
   -1
100
AcDbLine
 10
300.0394940017895
 20
145.2588280197448
 11
299.2394940017895
 21
145.2588280197448
  0
LINE
  5
328
100
AcDbEntity
  8
Sichtbar (ISO)
  6
ByLayer
 62
  256
370
   -1
100
AcDbLine
 10
299.2394940017895
 20
145.2588280197448
 11
299.2394940017895
 21
118.2588280197449
  0
LINE
  5
329
100
AcDbEntity
  8
Sichtbar (ISO)
  6
ByLayer
 62
  256
370
   -1
100
AcDbLine
 10
299.2394940017895
 20
118.2588280197449
 11
300.0394940017895
 21
118.2588280197449
  0
LINE
  5
32A
100
AcDbEntity
  8
Sichtbar (ISO)
  6
ByLayer
 62
  256
370
   -1
100
AcDbLine
 10
300.0394940017895
 20
118.2588280197449
 11
300.0394940017895
 21
145.2588280197448
  0
LINE
  5
32B
100
AcDbEntity
  8
Sichtbar (ISO)
  6
ByLayer
 62
  256
370
   -1
100
AcDbLine
 10
342.9944960033911
 20
72.25882801974495
 11
300.0394940017895
 21
72.25882801974495
  0
LINE
  5
32C
100
AcDbEntity
  8
Sichtbar (ISO)
  6
ByLayer
 62
  256
370
   -1
100
AcDbLine
 10
300.0394940017895
 20
118.2588280197449
 11
342.9944960033911
 21
118.2588280197449
  0
ARC
  5
32D
100
AcDbEntity
  8
Sichtbar (ISO)
  6
ByLayer
 62
  256
370
   -1
100
AcDbCircle
 10
349.2394940017895
 20
77.25882801974493
 40
7.999999999999962
100
AcDbArc
 50
218.6821874534892
 51
0
  0
LINE
  5
32E
100
AcDbEntity
  8
Sichtbar (ISO)
  6
ByLayer
 62
  256
370
   -1
100
AcDbLine
 10
357.2394940017895
 20
113.2588280197449
 11
357.2394940017895
 21
77.25882801974493
  0
ARC
  5
32F
100
AcDbEntity
  8
Sichtbar (ISO)
  6
ByLayer
 62
  256
370
   -1
100
AcDbCircle
 10
349.2394940017895
 20
113.2588280197449
 40
8.000000000000007
100
AcDbArc
 50
0
 51
141.3178125465104
  0
LINE
  5
330
100
AcDbEntity
  8
Sichtbar (ISO)
  6
ByLayer
 62
  256
370
   -1
100
AcDbLine
 10
300.0394940017895
 20
45.25882801974496
 11
383.2394940017894
 21
45.25882801974493
  0
LINE
  5
331
100
AcDbEntity
  8
Sichtbar (ISO)
  6
ByLayer
 62
  256
370
   -1
100
AcDbLine
 10
383.2394940017894
 20
45.25882801974493
 11
383.2394940017895
 21
145.2588280197449
  0
LINE
  5
332
100
AcDbEntity
  8
Sichtbar (ISO)
  6
ByLayer
 62
  256
370
   -1
100
AcDbLine
 10
383.2394940017895
 20
145.2588280197449
 11
300.0394940017895
 21
145.2588280197448
  0
LINE
  5
333
100
AcDbEntity
  8
Mittelpunktmarkierung (ISO)
  6
CONTINUOUS
 62
  256
370
   -1
100
AcDbLine
 10
358.7394940017895
 20
113.2588280197449
 11
348.7394940017895
 21
113.2588280197449
  0
LINE
  5
334
100
AcDbEntity
  8
Mittelpunktmarkierung (ISO)
  6
CONTINUOUS
 62
  256
370
   -1
100
AcDbLine
 10
349.2394940017895
 20
122.7588280197449
 11
349.2394940017895
 21
112.7588280197449
  0
LINE
  5
335
100
AcDbEntity
  8
Mittelpunktmarkierung (ISO)
  6
CONTINUOUS
 62
  256
370
   -1
100
AcDbLine
 10
358.7394940017895
 20
77.25882801974493
 11
348.7394940017895
 21
77.25882801974493
  0
LINE
  5
336
100
AcDbEntity
  8
Mittelpunktmarkierung (ISO)
  6
CONTINUOUS
 62
  256
370
   -1
100
AcDbLine
 10
349.2394940017895
 20
77.75882801974493
 11
349.2394940017895
 21
67.75882801974495
  0
LINE
  5
337
100
AcDbEntity
  8
Mittellinie (ISO)
  6
CONTINUOUS
 62
  256
370
   -1
100
AcDbLine
 10
299.5394940017895
 20
95.25882801974493
 11
357.4582460978492
 21
95.25882801974493
  0
DIMENSION
  5
338
100
AcDbEntity
  8
Bemaßung (ISO)
  6
CONTINUOUS
 62
    7
370
   18
100
AcDbDimension
  2
*D6
 10
289.2394940017904
 20
72.25882801974498
 30
0
 11
289.2394940017903
 21
95.25882801974537
 31
0
 70
   32
  1
<>
 71
    5
 72
    0
  3
Pauli_DINGroßer Text
 53
0
210
0
220
0
230
1
100
AcDbAlignedDimension
 13
299.2394940017895
 23
118.2588280197449
 33
0
 14
299.2394940017895
 24
72.25882801974495
 34
0
 50
270
100
AcDbRotatedDimension
  0
DIMENSION
  5
339
100
AcDbEntity
  8
Bemaßung (ISO)
  6
CONTINUOUS
 62
    7
370
   18
100
AcDbDimension
  2
*D7
 10
335.3283648183569
 20
77.25882801974495
 30
0
 11
335.3283648183568
 21
95.25882801974491
 31
0
 70
   32
  1
<>
 71
    5
 72
    0
  3
Pauli_DINGroßer Text
 53
0
210
0
220
0
230
1
100
AcDbAlignedDimension
 13
348.7394940017895
 23
113.2588280197449
 33
0
 14
348.7394940017895
 24
77.25882801974493
 34
0
 50
90
100
AcDbRotatedDimension
  0
DIMENSION
  5
33A
100
AcDbEntity
  8
Bemaßung (ISO)
  6
CONTINUOUS
 62
    7
370
   18
100
AcDbDimension
  2
*D8
 10
349.239494001789
 20
113.2588280197447
 30
0
 11
362.7542291214885
 21
130.6126561694139
 31
0
 70
   36
  1
<>
 71
    5
 72
    0
  3
Pauli_DINGroßer Text
 53
0
210
0
220
0
230
1
100
AcDbRadialDimension
 15
354.8963482512824
 25
118.9156822692363
 35
0
 40
0
  0
DIMENSION
  5
33B
100
AcDbEntity
  8
Bemaßung (ISO)
  6
CONTINUOUS
 62
    7
370
   18
100
AcDbDimension
  2
*D9
 10
349.2394940017895
 20
33.75882801974495
 30
0
 11
324.2394940017895
 21
33.75882801974495
 31
0
 70
   32
  1
<>
 71
    5
 72
    0
  3
Pauli_DINGroßer Text
 53
0
210
0
220
0
230
1
100
AcDbAlignedDimension
 13
299.2394940017895
 23
45.25882801974496
 33
0
 14
349.2394940017895
 24
67.75882801974495
 34
0
 50
180
100
AcDbRotatedDimension
  0
DIMENSION
  5
33C
100
AcDbEntity
  8
Bemaßung (ISO)
  6
CONTINUOUS
 62
    7
370
   18
100
AcDbDimension
  2
*D10
 10
254.7702277605591
 20
63.25882801974491
 30
0
 11
254.7702277605591
 21
95.25882801974493
 31
0
 70
   32
  1
<>
 71
    5
 72
    0
  3
Pauli_DINGroßer Text
 53
0
210
0
220
0
230
1
100
AcDbAlignedDimension
 13
244.7702277605591
 23
127.2588280197449
 33
0
 14
244.7702277605591
 24
63.25882801974488
 34
0
 50
90
100
AcDbRotatedDimension
  0
DIMENSION
  5
33D
100
AcDbEntity
  8
Bemaßung (ISO)
  6
CONTINUOUS
 62
    7
370
   18
100
AcDbDimension
  2
*D11
 10
244.7702277605591
 20
53.25882801974488
 30
0
 11
205.7702277605613
 21
53.25882801974488
 31
0
 70
   32
  1
<>
 71
    5
 72
    0
  3
Pauli_DINGroßer Text
 53
0
210
0
220
0
230
1
100
AcDbAlignedDimension
 13
166.7702277605636
 23
63.25882801974493
 33
0
 14
244.7702277605591
 24
63.25882801974488
 34
0
 50
180
100
AcDbRotatedDimension
  0
ENDSEC
  0
SECTION
  2
OBJECTS
  0
DICTIONARY
  5
C
330
0
100
AcDbDictionary
281
    1
  3
ACAD_GROUP
350
D
  0
DICTIONARY
  5
D
330
C
100
AcDbDictionary
281
    1
  0
ENDSEC
  0
EOF
