999
dxfrw 0.6.3
  0
SECTION
  2
HEADER
  9
$ACADVER
  1
AC1021
  9
$DWGCODEPAGE
  3
ANSI_1252
  9
$INSBASE
 10
0
 20
0
 30
0
  9
$EXTMIN
 10
10000000000
 20
10000000000
 30
0
  9
$EXTMAX
 10
-10000000000
 20
-10000000000
 30
0
  9
$LIMMIN
 10
0
 20
0
  9
$LIMMAX
 10
420
 20
297
  9
$ORTHOMODE
 70
    0
  9
$REGENMODE
 70
    1
  9
$FILLMODE
 70
    1
  9
$QTEXTMODE
 70
    0
  9
$MIRRTEXT
 70
    0
  9
$LTSCALE
 40
1
  9
$ATTMODE
 70
    1
  9
$TEXTSIZE
 40
0.2
  9
$TRACEWID
 40
0.05
  9
$TEXTSTYLE
  7
Standard
  9
$CLAYER
  8
0
  9
$CELTYPE
  6
ByLayer
  9
$CECOLOR
 62
  256
  9
$CELTSCALE
 40
1
  9
$DISPSILH
 70
    0
  9
$DIMSCALE
 40
1
  9
$DIMASZ
 40
0.18
  9
$DIMEXO
 40
0.0625
  9
$DIMDLI
 40
0.38
  9
$DIMRND
 40
0
  9
$DIMDLE
 40
0
  9
$DIMEXE
 40
0.18
  9
$DIMTP
 40
0
  9
$DIMTM
 40
0
  9
$DIMTXT
 40
0.18
  9
$DIMCEN
 40
0.09
  9
$DIMTSZ
 40
0
  9
$DIMTOL
 70
    0
  9
$DIMLIM
 70
    0
  9
$DIMTIH
 70
    1
  9
$DIMTOH
 70
    1
  9
$DIMSE1
 70
    0
  9
$DIMSE2
 70
    0
  9
$DIMTAD
 70
    0
  9
$DIMZIN
 70
    0
  9
$DIMBLK
  1

  9
$DIMASO
 70
    1
  9
$DIMSHO
 70
    1
  9
$DIMPOST
  1

  9
$DIMAPOST
  1

  9
$DIMALT
 70
    0
  9
$DIMALTD
 70
    2
  9
$DIMALTF
 40
25.4
  9
$DIMLFAC
 40
1
  9
$DIMTOFL
 70
    0
  9
$DIMTVP
 40
0
  9
$DIMTIX
 70
    0
  9
$DIMSOXD
 70
    0
  9
$DIMSAH
 70
    0
  9
$DIMBLK1
  1

  9
$DIMBLK2
  1

  9
$DIMSTYLE
  2
Standard
  9
$DIMCLRD
 70
    0
  9
$DIMCLRE
 70
    0
  9
$DIMCLRT
 70
    0
  9
$DIMTFAC
 40
1
  9
$DIMGAP
 40
0.09
  9
$DIMJUST
 70
    0
  9
$DIMSD1
 70
    0
  9
$DIMSD2
 70
    0
  9
$DIMTOLJ
 70
    1
  9
$DIMTZIN
 70
    0
  9
$DIMALTZ
 70
    0
  9
$DIMALTTZ
 70
    0
  9
$DIMUPT
 70
    0
  9
$DIMDEC
 70
    4
  9
$DIMTDEC
 70
    4
  9
$DIMALTU
 70
    2
  9
$DIMALTTD
 70
    2
  9
$DIMTXSTY
  7
Standard
  9
$DIMAUNIT
 70
    0
  9
$DIMADEC
 70
    0
  9
$DIMALTRND
 40
0
  9
$DIMAZIN
 70
    0
  9
$DIMDSEP
 70
   46
  9
$DIMATFIT
 70
    3
  9
$DIMFRAC
 70
    0
  9
$DIMLDRBLK
  1

  9
$DIMLUNIT
 70
    2
  9
$DIMLWD
 70
   -2
  9
$DIMLWE
 70
   -2
  9
$DIMTMOVE
 70
    0
  9
$DIMFXL
 40
1
  9
$DIMFXLON
 70
    0
  9
$DIMJOGANG
 40
0.7853981633974483
  9
$DIMTFILL
 70
    0
  9
$DIMTFILLCLR
 70
    0
  9
$DIMARCSYM
 70
    0
  9
$DIMLTYPE
  6

  9
$DIMLTEX1
  6

  9
$DIMLTEX2
  6

  9
$LUNITS
 70
    2
  9
$LUPREC
 70
    4
  9
$SKETCHINC
 40
0.1
  9
$FILLETRAD
 40
0
  9
$AUNITS
 70
    0
  9
$AUPREC
 70
    0
  9
$MENU
  1
.
  9
$ELEVATION
 40
0
  9
$PELEVATION
 40
0
  9
$THICKNESS
 40
0
  9
$LIMCHECK
 70
    0
  9
$CHAMFERA
 40
0
  9
$CHAMFERB
 40
0
  9
$CHAMFERC
 40
0
  9
$CHAMFERD
 40
0
  9
$SKPOLY
 70
    0
  9
$USRTIMER
 70
    1
  9
$ANGBASE
 50
0
  9
$ANGDIR
 70
    0
  9
$PDMODE
 70
    0
  9
$PDSIZE
 40
0
  9
$PLINEWID
 40
0
  9
$SPLFRAME
 70
    0
  9
$SPLINETYPE
 70
    6
  9
$SPLINESEGS
 70
    8
  9
$HANDSEED
  5
20000
  9
$SURFTAB1
 70
    6
  9
$SURFTAB2
 70
    6
  9
$SURFTYPE
 70
    6
  9
$SURFU
 70
    6
  9
$SURFV
 70
    6
  9
$UCSBASE
  2

  9
$UCSNAME
  2

  9
$UCSORG
 10
0
 20
0
 30
0
  9
$UCSXDIR
 10
1
 20
0
 30
0
  9
$UCSYDIR
 10
0
 20
1
 30
0
  9
$UCSORTHOREF
  2

  9
$UCSORTHOVIEW
 70
    0
  9
$UCSORGTOP
 10
0
 20
0
 30
0
  9
$UCSORGBOTTOM
 10
0
 20
0
 30
0
  9
$UCSORGLEFT
 10
0
 20
0
 30
0
  9
$UCSORGRIGHT
 10
0
 20
0
 30
0
  9
$UCSORGFRONT
 10
0
 20
0
 30
0
  9
$UCSORGBACK
 10
0
 20
0
 30
0
  9
$PUCSBASE
  2

  9
$PUCSNAME
  2

  9
$PUCSORG
 10
0
 20
0
 30
0
  9
$PUCSXDIR
 10
1
 20
0
 30
0
  9
$PUCSYDIR
 10
0
 20
1
 30
0
  9
$PUCSORTHOREF
  2

  9
$PUCSORTHOVIEW
 70
    0
  9
$PUCSORGTOP
 10
0
 20
0
 30
0
  9
$PUCSORGBOTTOM
 10
0
 20
0
 30
0
  9
$PUCSORGLEFT
 10
0
 20
0
 30
0
  9
$PUCSORGRIGHT
 10
0
 20
0
 30
0
  9
$PUCSORGFRONT
 10
0
 20
0
 30
0
  9
$PUCSORGBACK
 10
0
 20
0
 30
0
  9
$USERI1
 70
    0
  9
$USERI2
 70
    0
  9
$USERI3
 70
    0
  9
$USERI4
 70
    0
  9
$USERI5
 70
    0
  9
$USERR1
 40
0
  9
$USERR2
 40
0
  9
$USERR3
 40
0
  9
$USERR4
 40
0
  9
$USERR5
 40
0
  9
$WORLDVIEW
 70
    1
  9
$SHADEDGE
 70
    3
  9
$SHADEDIF
 70
   70
  9
$TILEMODE
 70
    1
  9
$MAXACTVP
 70
   64
  9
$PINSBASE
 10
0
 20
0
 30
0
  9
$PLIMCHECK
 70
    0
  9
$PEXTMIN
 10
0
 20
0
 30
0
  9
$PEXTMAX
 10
420
 20
297
 30
0
  9
$GRIDMODE
 70
    0
  9
$SNAPSTYLE
 70
    0
  9
$PLIMMIN
 10
0
 20
0
  9
$PLIMMAX
 10
420
 20
297
  9
$UNITMODE
 70
    0
  9
$VISRETAIN
 70
    1
  9
$PLINEGEN
 70
    0
  9
$PSLTSCALE
 70
    1
  9
$TREEDEPTH
 70
 3020
  9
$CMLSTYLE
  2
Standard
  9
$CMLJUST
 70
    0
  9
$CMLSCALE
 40
1
  9
$PROXYGRAPHICS
 70
    1
  9
$MEASUREMENT
 70
    1
  9
$CELWEIGHT
370
   -1
  9
$ENDCAPS
280
    0
  9
$JOINSTYLE
280
    0
  9
$LWDISPLAY
290
    0
  9
$INSUNITS
 70
    4
  9
$HYPERLINKBASE
  1

  9
$STYLESHEET
  1

  9
$XEDIT
290
    1
  9
$CEPSNTYPE
380
    0
  9
$PSTYLEMODE
290
    1
  9
$EXTNAMES
290
    1
  9
$PSVPSCALE
 40
0
  9
$OLESTARTUP
290
    0
  9
$SORTENTS
280
  127
  9
$INDEXCTL
280
    0
  9
$HIDETEXT
280
    1
  9
$XCLIPFRAME
290
    2
  9
$HALOGAP
280
    0
  9
$OBSCOLOR
 70
  257
  9
$OBSLTYPE
280
    0
  9
$INTERSECTIONDISPLAY
280
    0
  9
$INTERSECTIONCOLOR
 70
  257
  9
$DIMASSOC
280
    1
  9
$PROJECTNAME
  1

  9
$CAMERADISPLAY
290
    0
  9
$LENSLENGTH
 40
50
  9
$CAMERAHEIGHT
 40
0
  9
$STEPSPERSEC
 40
2
  9
$STEPSIZE
 40
6
  9
$3DDWFPREC
 40
2
  9
$PSOLWIDTH
 40
0.25
  9
$PSOLHEIGHT
 40
4
  9
$LOFTANG1
 40
1.570796326794896
  9
$LOFTANG2
 40
1.570796326794896
  9
$LOFTMAG1
 40
0
  9
$LOFTMAG2
 40
0
  9
$LOFTPARAM
 70
    7
  9
$LOFTNORMALS
280
    1
  9
$LATITUDE
 40
37.795
  9
$LONGITUDE
 40
-122.394
  9
$NORTHDIRECTION
 40
0
  9
$TIMEZONE
 70
-8000
  9
$LIGHTGLYPHDISPLAY
280
    1
  9
$TILEMODELIGHTSYNCH
280
    1
  9
$SOLIDHIST
280
    0
  9
$SHOWHIST
280
    1
  9
$DWFFRAME
280
    2
  9
$DGNFRAME
280
    0
  9
$REALWORLDSCALE
290
    1
  9
$INTERFERECOLOR
 62
    1
  9
$CSHADOW
280
    0
  9
$SHADOWPLANELOCATION
 40
0
  0
ENDSEC
  0
SECTION
  2
CLASSES
  0
ENDSEC
  0
SECTION
  2
TABLES
  0
TABLE
  2
VPORT
  5
8
330
0
100
AcDbSymbolTable
 70
    1
  0
VPORT
  5
31
330
2
100
AcDbSymbolTableRecord
100
AcDbViewportTableRecord
  2
*ACTIVE
 70
    0
 10
0
 20
0
 11
1
 21
1
 12
280.0407489038955
 22
155.5278856079032
 13
0
 23
0
 14
10
 24
10
 15
10
 25
10
 16
0
 26
0
 36
1
 17
0
 27
0
 37
0
 40
383.9523930000055
 41
2.200471698113208
 42
50
 43
0
 44
0
 50
0
 51
0
 71
    0
 72
  100
 73
    1
 74
    3
 75
    0
 76
    0
 77
    0
 78
    0
281
    0
 65
    1
110
0
120
0
130
0
111
1
121
0
131
0
112
0
122
1
132
0
 79
    0
146
0
348
10020
 60
    7
 61
    5
292
1
282
    1
141
0
142
0
 63
  250
421
3358443
  0
ENDTAB
  0
TABLE
  2
LTYPE
  5
5
330
0
100
AcDbSymbolTable
 70
    4
  0
LTYPE
  5
14
330
5
100
AcDbSymbolTableRecord
100
AcDbLinetypeTableRecord
  2
ByBlock
 70
    0
  3

 72
   65
 73
    0
 40
0
  0
LTYPE
  5
15
330
5
100
AcDbSymbolTableRecord
100
AcDbLinetypeTableRecord
  2
ByLayer
 70
    0
  3

 72
   65
 73
    0
 40
0
  0
LTYPE
  5
16
330
5
100
AcDbSymbolTableRecord
100
AcDbLinetypeTableRecord
  2
Continuous
 70
    0
  3
Solid line
 72
   65
 73
    0
 40
0
  0
LTYPE
  5
32
330
5
100
AcDbSymbolTableRecord
100
AcDbLinetypeTableRecord
  2
DOT
 70
    0
  3
Dot . . . . . . . . . . . . . . . . . . . . . .
 72
   65
 73
    2
 40
6.35
 49
0
 74
    0
 49
-6.35
 74
    0
  0
LTYPE
  5
33
330
5
100
AcDbSymbolTableRecord
100
AcDbLinetypeTableRecord
  2
DOTTINY
 70
    0
  3
Dot (.15x) .....................................
 72
   65
 73
    2
 40
0.9525
 49
0
 74
    0
 49
-0.9525
 74
    0
  0
LTYPE
  5
34
330
5
100
AcDbSymbolTableRecord
100
AcDbLinetypeTableRecord
  2
DOT2
 70
    0
  3
Dot (.5x) .....................................
 72
   65
 73
    2
 40
3.175
 49
0
 74
    0
 49
-3.175
 74
    0
  0
LTYPE
  5
35
330
5
100
AcDbSymbolTableRecord
100
AcDbLinetypeTableRecord
  2
DOTX2
 70
    0
  3
Dot (2x) .  .  .  .  .  .  .  .  .  .  .  .  .
 72
   65
 73
    2
 40
12.7
 49
0
 74
    0
 49
-12.7
 74
    0
  0
LTYPE
  5
36
330
5
100
AcDbSymbolTableRecord
100
AcDbLinetypeTableRecord
  2
DASHED
 70
    0
  3
Dashed _ _ _ _ _ _ _ _ _ _ _ _ _ _ _ _ _
 72
   65
 73
    2
 40
19.05
 49
12.7
 74
    0
 49
-6.35
 74
    0
  0
LTYPE
  5
37
330
5
100
AcDbSymbolTableRecord
100
AcDbLinetypeTableRecord
  2
DASHEDTINY
 70
    0
  3
Dashed (.15x) _ _ _ _ _ _ _ _ _ _ _ _ _ _ _ _ _
 72
   65
 73
    2
 40
2.8575
 49
1.905
 74
    0
 49
-0.9525
 74
    0
  0
LTYPE
  5
38
330
5
100
AcDbSymbolTableRecord
100
AcDbLinetypeTableRecord
  2
DASHED2
 70
    0
  3
Dashed (.5x) _ _ _ _ _ _ _ _ _ _ _ _ _ _ _ _ _
 72
   65
 73
    2
 40
9.524999999999999
 49
6.35
 74
    0
 49
-3.175
 74
    0
  0
LTYPE
  5
39
330
5
100
AcDbSymbolTableRecord
100
AcDbLinetypeTableRecord
  2
DASHEDX2
 70
    0
  3
Dashed (2x) ____  ____  ____  ____  ____  ___
 72
   65
 73
    2
 40
38.09999999999999
 49
25.4
 74
    0
 49
-12.7
 74
    0
  0
LTYPE
  5
3A
330
5
100
AcDbSymbolTableRecord
100
AcDbLinetypeTableRecord
  2
DASHDOT
 70
    0
  3
Dash dot __ . __ . __ . __ . __ . __ . __ . __
 72
   65
 73
    4
 40
25.4
 49
12.7
 74
    0
 49
-6.35
 74
    0
 49
0
 74
    0
 49
-6.35
 74
    0
  0
LTYPE
  5
3B
330
5
100
AcDbSymbolTableRecord
100
AcDbLinetypeTableRecord
  2
DASHDOTTINY
 70
    0
  3
Dash dot (.15x) _._._._._._._._._._._._._._._.
 72
   65
 73
    4
 40
3.81
 49
1.905
 74
    0
 49
-0.9525
 74
    0
 49
0
 74
    0
 49
-0.9525
 74
    0
  0
LTYPE
  5
3C
330
5
100
AcDbSymbolTableRecord
100
AcDbLinetypeTableRecord
  2
DASHDOT2
 70
    0
  3
Dash dot (.5x) _._._._._._._._._._._._._._._.
 72
   65
 73
    4
 40
12.7
 49
6.35
 74
    0
 49
-3.175
 74
    0
 49
0
 74
    0
 49
-3.175
 74
    0
  0
LTYPE
  5
3D
330
5
100
AcDbSymbolTableRecord
100
AcDbLinetypeTableRecord
  2
DASHDOTX2
 70
    0
  3
Dash dot (2x) ____  .  ____  .  ____  .  ___
 72
   65
 73
    4
 40
50.8
 49
25.4
 74
    0
 49
-12.7
 74
    0
 49
0
 74
    0
 49
-12.7
 74
    0
  0
LTYPE
  5
3E
330
5
100
AcDbSymbolTableRecord
100
AcDbLinetypeTableRecord
  2
DIVIDE
 70
    0
  3
Divide ____ . . ____ . . ____ . . ____ . . ____
 72
   65
 73
    6
 40
31.75
 49
12.7
 74
    0
 49
-6.35
 74
    0
 49
0
 74
    0
 49
-6.35
 74
    0
 49
0
 74
    0
 49
-6.35
 74
    0
  0
LTYPE
  5
3F
330
5
100
AcDbSymbolTableRecord
100
AcDbLinetypeTableRecord
  2
DIVIDETINY
 70
    0
  3
Divide (.15x) __..__..__..__..__..__..__..__.._
 72
   65
 73
    6
 40
4.7625
 49
1.905
 74
    0
 49
-0.9525
 74
    0
 49
0
 74
    0
 49
-0.9525
 74
    0
 49
0
 74
    0
 49
-0.9525
 74
    0
  0
LTYPE
  5
40
330
5
100
AcDbSymbolTableRecord
100
AcDbLinetypeTableRecord
  2
DIVIDE2
 70
    0
  3
Divide (.5x) __..__..__..__..__..__..__..__.._
 72
   65
 73
    6
 40
15.875
 49
6.35
 74
    0
 49
-3.175
 74
    0
 49
0
 74
    0
 49
-3.175
 74
    0
 49
0
 74
    0
 49
-3.175
 74
    0
  0
LTYPE
  5
41
330
5
100
AcDbSymbolTableRecord
100
AcDbLinetypeTableRecord
  2
DIVIDEX2
 70
    0
  3
Divide (2x) ________  .  .  ________  .  .  _
 72
   65
 73
    6
 40
63.5
 49
25.4
 74
    0
 49
-12.7
 74
    0
 49
0
 74
    0
 49
-12.7
 74
    0
 49
0
 74
    0
 49
-12.7
 74
    0
  0
LTYPE
  5
42
330
5
100
AcDbSymbolTableRecord
100
AcDbLinetypeTableRecord
  2
BORDER
 70
    0
  3
Border __ __ . __ __ . __ __ . __ __ . __ __ .
 72
   65
 73
    6
 40
44.45
 49
12.7
 74
    0
 49
-6.35
 74
    0
 49
12.7
 74
    0
 49
-6.35
 74
    0
 49
0
 74
    0
 49
-6.35
 74
    0
  0
LTYPE
  5
43
330
5
100
AcDbSymbolTableRecord
100
AcDbLinetypeTableRecord
  2
BORDERTINY
 70
    0
  3
Border (.15x) __.__.__.__.__.__.__.__.__.__.__.
 72
   65
 73
    6
 40
6.6675
 49
1.905
 74
    0
 49
-0.9525
 74
    0
 49
1.905
 74
    0
 49
-0.9525
 74
    0
 49
0
 74
    0
 49
-0.9525
 74
    0
  0
LTYPE
  5
44
330
5
100
AcDbSymbolTableRecord
100
AcDbLinetypeTableRecord
  2
BORDER2
 70
    0
  3
Border (.5x) __.__.__.__.__.__.__.__.__.__.__.
 72
   65
 73
    6
 40
22.225
 49
6.35
 74
    0
 49
-3.175
 74
    0
 49
6.35
 74
    0
 49
-3.175
 74
    0
 49
0
 74
    0
 49
-3.175
 74
    0
  0
LTYPE
  5
45
330
5
100
AcDbSymbolTableRecord
100
AcDbLinetypeTableRecord
  2
BORDERX2
 70
    0
  3
Border (2x) ____  ____  .  ____  ____  .  ___
 72
   65
 73
    6
 40
88.89999999999999
 49
25.4
 74
    0
 49
-12.7
 74
    0
 49
25.4
 74
    0
 49
-12.7
 74
    0
 49
0
 74
    0
 49
-12.7
 74
    0
  0
LTYPE
  5
46
330
5
100
AcDbSymbolTableRecord
100
AcDbLinetypeTableRecord
  2
CENTER
 70
    0
  3
Center ____ _ ____ _ ____ _ ____ _ ____ _ ____
 72
   65
 73
    4
 40
50.8
 49
31.75
 74
    0
 49
-6.35
 74
    0
 49
6.35
 74
    0
 49
-6.35
 74
    0
  0
LTYPE
  5
47
330
5
100
AcDbSymbolTableRecord
100
AcDbLinetypeTableRecord
  2
CENTERTINY
 70
    0
  3
Center (.15x) ___ _ ___ _ ___ _ ___ _ ___ _ ___
 72
   65
 73
    4
 40
7.62
 49
4.7625
 74
    0
 49
-0.9525
 74
    0
 49
0.9525
 74
    0
 49
-0.9525
 74
    0
  0
LTYPE
  5
48
330
5
100
AcDbSymbolTableRecord
100
AcDbLinetypeTableRecord
  2
CENTER2
 70
    0
  3
Center (.5x) ___ _ ___ _ ___ _ ___ _ ___ _ ___
 72
   65
 73
    4
 40
28.575
 49
19.05
 74
    0
 49
-3.175
 74
    0
 49
3.175
 74
    0
 49
-3.175
 74
    0
  0
LTYPE
  5
49
330
5
100
AcDbSymbolTableRecord
100
AcDbLinetypeTableRecord
  2
CENTERX2
 70
    0
  3
Center (2x) ________  __  ________  __  _____
 72
   65
 73
    4
 40
101.6
 49
63.5
 74
    0
 49
-12.7
 74
    0
 49
12.7
 74
    0
 49
-12.7
 74
    0
  0
ENDTAB
  0
TABLE
  2
LAYER
  5
2
330
0
100
AcDbSymbolTable
 70
    1
  0
LAYER
  5
10
330
2
100
AcDbSymbolTableRecord
100
AcDbLayerTableRecord
  2
0
 70
    0
 62
    7
  6
CONTINUOUS
370
   -3
390
F
  0
LAYER
  5
4A
330
2
100
AcDbSymbolTableRecord
100
AcDbLayerTableRecord
  2
Bemaßung (ISO)
 70
    0
 62
    7
  6
CONTINUOUS
370
    9
390
F
  0
LAYER
  5
4B
330
2
100
AcDbSymbolTableRecord
100
AcDbLayerTableRecord
  2
Defpoints
 70
    0
 62
    7
  6
CONTINUOUS
290
0
370
   -3
390
F
  0
LAYER
  5
4C
330
2
100
AcDbSymbolTableRecord
100
AcDbLayerTableRecord
  2
Mittelpunktmarkierung (ISO)
 70
    0
 62
    1
  6
CONTINUOUS
370
    9
390
F
  0
LAYER
  5
4D
330
2
100
AcDbSymbolTableRecord
100
AcDbLayerTableRecord
  2
Schraffur
 70
    0
 62
    1
  6
CONTINUOUS
370
    9
390
F
  0
LAYER
  5
4E
330
2
100
AcDbSymbolTableRecord
100
AcDbLayerTableRecord
  2
Schraffur (ISO)
 70
    0
 62
    6
  6
CONTINUOUS
370
    9
390
F
  0
LAYER
  5
4F
330
2
100
AcDbSymbolTableRecord
100
AcDbLayerTableRecord
  2
Sichtbar (ISO)
 70
    0
 62
    7
  6
CONTINUOUS
370
   25
390
F
  0
LAYER
  5
50
330
2
100
AcDbSymbolTableRecord
100
AcDbLayerTableRecord
  2
Skizziergeometrie (ISO)
 70
    0
 62
    7
  6
CONTINUOUS
370
   18
390
F
  0
LAYER
  5
51
330
2
100
AcDbSymbolTableRecord
100
AcDbLayerTableRecord
  2
Skizziergeometrie(DIN)
 70
    0
 62
  179
420
2500185
  6
CONTINUOUS
370
   35
390
F
  0
LAYER
  5
52
330
2
100
AcDbSymbolTableRecord
100
AcDbLayerTableRecord
  2
Symbol (ISO)
 70
    0
 62
    5
  6
CONTINUOUS
370
    9
390
F
  0
LAYER
  5
53
330
2
100
AcDbSymbolTableRecord
100
AcDbLayerTableRecord
  2
Symbole(DIN)
 70
    0
 62
    7
  6
CONTINUOUS
370
   18
390
F
  0
ENDTAB
  0
TABLE
  2
STYLE
  5
3
330
0
100
AcDbSymbolTable
 70
    3
  0
STYLE
  5
54
330
2
100
AcDbSymbolTableRecord
100
AcDbTextStyleTableRecord
  2
notiztext (din)
 70
    0
 40
0
 41
1
 50
0
 71
    0
 42
1
  3
notiztext (din)
  4

  0
STYLE
  5
55
330
2
100
AcDbSymbolTableRecord
100
AcDbTextStyleTableRecord
  2
aktuell-din
 70
    0
 40
0
 41
1
 50
0
 71
    0
 42
1
  3
aktuell-din
  4

  0
STYLE
  5
56
330
2
100
AcDbSymbolTableRecord
100
AcDbTextStyleTableRecord
  2
Standard
 70
    0
 40
0
 41
1
 50
0
 71
    0
 42
1
  3
txt
  4

  0
ENDTAB
  0
TABLE
  2
VIEW
  5
6
330
0
100
AcDbSymbolTable
 70
    0
  0
ENDTAB
  0
TABLE
  2
UCS
  5
7
330
0
100
AcDbSymbolTable
 70
    0
  0
ENDTAB
  0
TABLE
  2
APPID
  5
9
330
0
100
AcDbSymbolTable
 70
    1
  0
APPID
  5
12
330
9
100
AcDbSymbolTableRecord
100
AcDbRegAppTableRecord
  2
ACAD
 70
    0
  0
APPID
  5
57
330
9
100
AcDbSymbolTableRecord
100
AcDbRegAppTableRecord
  2
LibreCad
 70
    0
  0
ENDTAB
  0
TABLE
  2
DIMSTYLE
  5
A
330
0
100
AcDbSymbolTable
 70
    1
100
AcDbDimStyleTable
 71
    1
  0
DIMSTYLE
105
58
330
A
100
AcDbSymbolTableRecord
100
AcDbDimStyleTableRecord
  2
Standard
 70
    0
 40
1
 41
0.18
 42
0.0625
 43
0.38
 44
0.18
 45
0
 46
0
 47
0
 48
0
 49
1
140
0.18
141
0.09
142
0
143
25.4
144
1
145
0
146
1
147
0.09
148
0
 71
    0
 72
    0
 73
    1
 74
    1
 75
    0
 76
    0
 77
    0
 78
    0
 79
    0
170
    0
171
    2
172
    0
173
    0
174
    0
175
    0
176
    0
177
    0
178
    0
179
    0
271
    4
272
    4
273
    2
274
    2
275
    0
276
    0
277
    2
278
   46
279
    0
280
    0
281
    0
282
    0
283
    1
284
    0
285
    0
286
    0
288
    0
289
    3
340
Standard
341

371
   -2
372
   -2
  0
ENDTAB
  0
TABLE
  2
BLOCK_RECORD
  5
1
330
0
100
AcDbSymbolTable
 70
    2
  0
BLOCK_RECORD
  5
1F
330
1
100
AcDbSymbolTableRecord
100
AcDbBlockTableRecord
  2
*Model_Space
 70
    0
280
    1
281
    0
  0
BLOCK_RECORD
  5
1E
330
1
100
AcDbSymbolTableRecord
100
AcDbBlockTableRecord
  2
*Paper_Space
 70
    0
280
    1
281
    0
  0
BLOCK_RECORD
  5
59
330
1
100
AcDbSymbolTableRecord
100
AcDbBlockTableRecord
  2
*D4
 70
    0
280
    1
281
    0
  0
BLOCK_RECORD
  5
5C
330
1
100
AcDbSymbolTableRecord
100
AcDbBlockTableRecord
  2
*D9
 70
    0
280
    1
281
    0
  0
BLOCK_RECORD
  5
5F
330
1
100
AcDbSymbolTableRecord
100
AcDbBlockTableRecord
  2
*D2
 70
    0
280
    1
281
    0
  0
BLOCK_RECORD
  5
62
330
1
100
AcDbSymbolTableRecord
100
AcDbBlockTableRecord
  2
*D8
 70
    0
280
    1
281
    0
  0
BLOCK_RECORD
  5
65
330
1
100
AcDbSymbolTableRecord
100
AcDbBlockTableRecord
  2
*D7
 70
    0
280
    1
281
    0
  0
BLOCK_RECORD
  5
68
330
1
100
AcDbSymbolTableRecord
100
AcDbBlockTableRecord
  2
*D3
 70
    0
280
    1
281
    0
  0
BLOCK_RECORD
  5
6B
330
1
100
AcDbSymbolTableRecord
100
AcDbBlockTableRecord
  2
*D6
 70
    0
280
    1
281
    0
  0
BLOCK_RECORD
  5
6E
330
1
100
AcDbSymbolTableRecord
100
AcDbBlockTableRecord
  2
*D11
 70
    0
280
    1
281
    0
  0
BLOCK_RECORD
  5
71
330
1
100
AcDbSymbolTableRecord
100
AcDbBlockTableRecord
  2
*D5
 70
    0
280
    1
281
    0
  0
BLOCK_RECORD
  5
74
330
1
100
AcDbSymbolTableRecord
100
AcDbBlockTableRecord
  2
*D1
 70
    0
280
    1
281
    0
  0
BLOCK_RECORD
  5
77
330
1
100
AcDbSymbolTableRecord
100
AcDbBlockTableRecord
  2
*D10
 70
    0
280
    1
281
    0
  0
BLOCK_RECORD
  5
7A
330
1
100
AcDbSymbolTableRecord
100
AcDbBlockTableRecord
  2
*D12
 70
    0
280
    1
281
    0
  0
BLOCK_RECORD
  5
7D
330
1
100
AcDbSymbolTableRecord
100
AcDbBlockTableRecord
  2
Filled-1
 70
    0
280
    1
281
    0
  0
BLOCK_RECORD
  5
80
330
1
100
AcDbSymbolTableRecord
100
AcDbBlockTableRecord
  2
DatumFilled45
 70
    0
280
    1
281
    0
  0
BLOCK_RECORD
  5
83
330
1
100
AcDbSymbolTableRecord
100
AcDbBlockTableRecord
  2
Glasbearbeitung
 70
    0
280
    1
281
    0
  0
BLOCK_RECORD
  5
86
330
1
100
AcDbSymbolTableRecord
100
AcDbBlockTableRecord
  2
unbemaßte_Kanten
 70
    0
280
    1
281
    0
  0
BLOCK_RECORD
  5
89
330
1
100
AcDbSymbolTableRecord
100
AcDbBlockTableRecord
  2
Schleifrichtung
 70
    0
280
    1
281
    0
  0
BLOCK_RECORD
  5
8C
330
1
100
AcDbSymbolTableRecord
100
AcDbBlockTableRecord
  2
Senkung DIN 974-1 für Zylinderkopfschrauben
 70
    0
280
    1
281
    0
  0
BLOCK_RECORD
  5
8F
330
1
100
AcDbSymbolTableRecord
100
AcDbBlockTableRecord
  2
Senkung DIN 74-1 B (f) f. Senkschrauben
 70
    0
280
    1
281
    0
  0
BLOCK_RECORD
  5
92
330
1
100
AcDbSymbolTableRecord
100
AcDbBlockTableRecord
  2
Rz4(Rz16)
 70
    0
280
    1
281
    0
  0
BLOCK_RECORD
  5
95
330
1
100
AcDbSymbolTableRecord
100
AcDbBlockTableRecord
  2
Rz16(Rz4)
 70
    0
280
    1
281
    0
  0
BLOCK_RECORD
  5
98
330
1
100
AcDbSymbolTableRecord
100
AcDbBlockTableRecord
  2
unbemaßte_Kanten 0_5
 70
    0
280
    1
281
    0
  0
BLOCK_RECORD
  5
9B
330
1
100
AcDbSymbolTableRecord
100
AcDbBlockTableRecord
  2
unbemaßte_Kanten 1
 70
    0
280
    1
281
    0
  0
BLOCK_RECORD
  5
9E
330
1
100
AcDbSymbolTableRecord
100
AcDbBlockTableRecord
  2
Schleifrichtung rund
 70
    0
280
    1
281
    0
  0
BLOCK_RECORD
  5
A1
330
1
100
AcDbSymbolTableRecord
100
AcDbBlockTableRecord
  2
Prototyp
 70
    0
280
    1
281
    0
  0
BLOCK_RECORD
  5
A4
330
1
100
AcDbSymbolTableRecord
100
AcDbBlockTableRecord
  2
Freigabe
 70
    0
280
    1
281
    0
  0
BLOCK_RECORD
  5
A7
330
1
100
AcDbSymbolTableRecord
100
AcDbBlockTableRecord
  2
Freigabe(Englisch)
 70
    0
280
    1
281
    0
  0
BLOCK_RECORD
  5
AA
330
1
100
AcDbSymbolTableRecord
100
AcDbBlockTableRecord
  2
Freigabe(Französisch)
 70
    0
280
    1
281
    0
  0
BLOCK_RECORD
  5
AD
330
1
100
AcDbSymbolTableRecord
100
AcDbBlockTableRecord
  2
Freigabe(Spanisch)
 70
    0
280
    1
281
    0
  0
BLOCK_RECORD
  5
B0
330
1
100
AcDbSymbolTableRecord
100
AcDbBlockTableRecord
  2
Schleifrichtung 30°
 70
    0
280
    1
281
    0
  0
BLOCK_RECORD
  5
B3
330
1
100
AcDbSymbolTableRecord
100
AcDbBlockTableRecord
  2
Schleifrichtung 60°
 70
    0
280
    1
281
    0
  0
BLOCK_RECORD
  5
B6
330
1
100
AcDbSymbolTableRecord
100
AcDbBlockTableRecord
  2
Schleifrichtung 40°
 70
    0
280
    1
281
    0
  0
BLOCK_RECORD
  5
B9
330
1
100
AcDbSymbolTableRecord
100
AcDbBlockTableRecord
  2
Schleifrichtung 90°
 70
    0
280
    1
281
    0
  0
BLOCK_RECORD
  5
BC
330
1
100
AcDbSymbolTableRecord
100
AcDbBlockTableRecord
  2
Schleifrichtung 20°
 70
    0
280
    1
281
    0
  0
BLOCK_RECORD
  5
BF
330
1
100
AcDbSymbolTableRecord
100
AcDbBlockTableRecord
  2
Schleifrichtung 15°
 70
    0
280
    1
281
    0
  0
BLOCK_RECORD
  5
C2
330
1
100
AcDbSymbolTableRecord
100
AcDbBlockTableRecord
  2
Schleifrichtung -30°
 70
    0
280
    1
281
    0
  0
BLOCK_RECORD
  5
C5
330
1
100
AcDbSymbolTableRecord
100
AcDbBlockTableRecord
  2
Schleifrichtung -15°
 70
    0
280
    1
281
    0
  0
BLOCK_RECORD
  5
C8
330
1
100
AcDbSymbolTableRecord
100
AcDbBlockTableRecord
  2
Schleifrichtung -40°
 70
    0
280
    1
281
    0
  0
BLOCK_RECORD
  5
CB
330
1
100
AcDbSymbolTableRecord
100
AcDbBlockTableRecord
  2
Schleifrichtung -60°
 70
    0
280
    1
281
    0
  0
BLOCK_RECORD
  5
CE
330
1
100
AcDbSymbolTableRecord
100
AcDbBlockTableRecord
  2
Schleifrichtung -50°
 70
    0
280
    1
281
    0
  0
BLOCK_RECORD
  5
D1
330
1
100
AcDbSymbolTableRecord
100
AcDbBlockTableRecord
  2
Flächen Galvanik
 70
    0
280
    1
281
    0
  0
BLOCK_RECORD
  5
D4
330
1
100
AcDbSymbolTableRecord
100
AcDbBlockTableRecord
  2
Duschenglas 8mm
 70
    0
280
    1
281
    0
  0
BLOCK_RECORD
  5
D7
330
1
100
AcDbSymbolTableRecord
100
AcDbBlockTableRecord
  2
Außerhalb der AbZ 85
 70
    0
280
    1
281
    0
  0
BLOCK_RECORD
  5
DA
330
1
100
AcDbSymbolTableRecord
100
AcDbBlockTableRecord
  2
Duschenglas 6mm
 70
    0
280
    1
281
    0
  0
BLOCK_RECORD
  5
DD
330
1
100
AcDbSymbolTableRecord
100
AcDbBlockTableRecord
  2
unbemaßte Kanten R_0_2 runden
 70
    0
280
    1
281
    0
  0
BLOCK_RECORD
  5
E0
330
1
100
AcDbSymbolTableRecord
100
AcDbBlockTableRecord
  2
Prüfzertifikat nach DIN EN 10204 (3.1) erforderlich
 70
    0
280
    1
281
    0
  0
BLOCK_RECORD
  5
E3
330
1
100
AcDbSymbolTableRecord
100
AcDbBlockTableRecord
  2
Reinigen
 70
    0
280
    1
281
    0
  0
BLOCK_RECORD
  5
E6
330
1
100
AcDbSymbolTableRecord
100
AcDbBlockTableRecord
  2
Schleifrichtung rund-2
 70
    0
280
    1
281
    0
  0
BLOCK_RECORD
  5
E9
330
1
100
AcDbSymbolTableRecord
100
AcDbBlockTableRecord
  2
EPDM-washer
 70
    0
280
    1
281
    0
  0
BLOCK_RECORD
  5
EC
330
1
100
AcDbSymbolTableRecord
100
AcDbBlockTableRecord
  2
isometric view
 70
    0
280
    1
281
    0
  0
BLOCK_RECORD
  5
EF
330
1
100
AcDbSymbolTableRecord
100
AcDbBlockTableRecord
  2
glazing
 70
    0
280
    1
281
    0
  0
BLOCK_RECORD
  5
F2
330
1
100
AcDbSymbolTableRecord
100
AcDbBlockTableRecord
  2
countersink screw EN ISO A2
 70
    0
280
    1
281
    0
  0
BLOCK_RECORD
  5
F5
330
1
100
AcDbSymbolTableRecord
100
AcDbBlockTableRecord
  2
cylinder head screw EN ISO A2
 70
    0
280
    1
281
    0
  0
BLOCK_RECORD
  5
F8
330
1
100
AcDbSymbolTableRecord
100
AcDbBlockTableRecord
  2
P+S glass clamp
 70
    0
280
    1
281
    0
  0
ENDTAB
  0
ENDSEC
  0
SECTION
  2
BLOCKS
  0
BLOCK
  5
20
330
1F
100
AcDbEntity
  8
0
100
AcDbBlockBegin
  2
*Model_Space
 70
    0
 10
0
 20
0
 30
0
  3
*Model_Space
  1

  0
ENDBLK
  5
21
330
1F
100
AcDbEntity
  8
0
100
AcDbBlockEnd
  0
BLOCK
  5
1C
330
1B
100
AcDbEntity
  8
0
100
AcDbBlockBegin
  2
*Paper_Space
 70
    0
 10
0
 20
0
 30
0
  3
*Paper_Space
  1

  0
ENDBLK
  5
1D
330
1F
100
AcDbEntity
  8
0
100
AcDbBlockEnd
  0
BLOCK
  5
5A
330
59
100
AcDbEntity
  8
0
100
AcDbBlockBegin
  2
*D4
 70
    1
 10
0
 20
0
  3
*D4
  1

  0
SOLID
  5
FB
100
AcDbEntity
  8
Bemaßung (ISO)
  6
ByBlock
 62
    0
370
   -2
100
AcDbTrace
 10
246.4997554974847
 20
122.63328808502
 30
0
 11
246.393670031589
 21
122.4848151096886
 31
0
 12
246.3512825221532
 22
122.5272026191243
 32
0
 13
246.3512825221532
 23
122.5272026191243
 33
0
  0
LINE
  5
FC
100
AcDbEntity
  8
Bemaßung (ISO)
  6
ByBlock
 62
    0
370
   -2
100
AcDbLine
 10
242.9642215915515
 20
119.0977541790879
 11
246.4997554974847
 21
122.63328808502
  0
MTEXT
  5
FD
100
AcDbEntity
  8
Bemaßung (ISO)
  6
CONTINUOUS
 62
    0
370
   -2
100
AcDbMText
 10
254.3702977272502
 20
134.332070750849
 30
0
 40
0.18
 41
0.7000000000000112
 71
    5
 72
    1
  1
5.0000
  7
Standard
210
0
220
0
230
1
 50
44.99999999999113
 73
    2
 44
1
  0
ENDBLK
  5
5B
330
59
100
AcDbEntity
  8
0
100
AcDbBlockEnd
  0
BLOCK
  5
5D
330
5C
100
AcDbEntity
  8
0
100
AcDbBlockBegin
  2
*D9
 70
    1
 10
0
 20
0
  3
*D9
  1

  0
LINE
  5
FE
100
AcDbEntity
  8
Bemaßung (ISO)
  6
ByBlock
 62
    0
370
   -2
100
AcDbLine
 10
214.514889079888
 20
267.3181373866424
 11
214.514889079888
 21
241.7481373866423
  0
SOLID
  5
FF
100
AcDbEntity
  8
Bemaßung (ISO)
  6
ByBlock
 62
    0
370
   -2
100
AcDbTrace
 10
214.514889079888
 20
267.3181373866424
 30
0
 11
214.5448615752477
 21
267.1381373866424
 31
0
 12
214.4849165845284
 22
267.1381373866424
 32
0
 13
214.4849165845284
 23
267.1381373866424
 33
0
  0
SOLID
  5
100
100
AcDbEntity
  8
Bemaßung (ISO)
  6
ByBlock
 62
    0
370
   -2
100
AcDbTrace
 10
214.514889079888
 20
215.8181373866423
 30
0
 11
214.4849165845283
 21
215.9981373866423
 31
0
 12
214.5448615752477
 22
215.9981373866423
 32
0
 13
214.5448615752477
 23
215.9981373866423
 33
0
  0
LINE
  5
101
100
AcDbEntity
  8
Bemaßung (ISO)
  6
ByBlock
 62
    0
370
   -2
100
AcDbLine
 10
214.514889079888
 20
241.3881373866423
 11
214.514889079888
 21
215.8181373866423
  0
MTEXT
  5
102
100
AcDbEntity
  8
Bemaßung (ISO)
  6
CONTINUOUS
 62
    0
370
   -2
100
AcDbMText
 10
214.5148890798881
 20
241.5681373866423
 30
0
 40
0.18
 41
0.8000000000000224
 71
    5
 72
    1
  1
51.5000
  7
Standard
210
0
220
0
230
1
 50
0
 73
    2
 44
1
  0
LINE
  5
103
100
AcDbEntity
  8
Bemaßung (ISO)
  6
ByBlock
 62
    0
370
   -2
100
AcDbLine
 10
232.4523890798881
 20
267.3181373866424
 11
214.334889079888
 21
267.3181373866424
  0
LINE
  5
104
100
AcDbEntity
  8
Bemaßung (ISO)
  6
ByBlock
 62
    0
370
   -2
100
AcDbLine
 10
232.352389079888
 20
215.8181373866423
 11
214.334889079888
 21
215.8181373866423
  0
ENDBLK
  5
5E
330
5C
100
AcDbEntity
  8
0
100
AcDbBlockEnd
  0
BLOCK
  5
60
330
5F
100
AcDbEntity
  8
0
100
AcDbBlockBegin
  2
*D2
 70
    1
 10
0
 20
0
  3
*D2
  1

  0
LINE
  5
105
100
AcDbEntity
  8
Bemaßung (ISO)
  6
ByBlock
 62
    0
370
   -2
100
AcDbLine
 10
288.4642215915514
 20
107.0977541790878
 11
288.4642215915514
 21
89.27775417908789
  0
SOLID
  5
106
100
AcDbEntity
  8
Bemaßung (ISO)
  6
ByBlock
 62
    0
370
   -2
100
AcDbTrace
 10
288.4642215915514
 20
107.0977541790878
 30
0
 11
288.494194086911
 21
106.9177541790878
 31
0
 12
288.4342490961918
 22
106.9177541790878
 32
0
 13
288.4342490961918
 23
106.9177541790878
 33
0
  0
SOLID
  5
107
100
AcDbEntity
  8
Bemaßung (ISO)
  6
ByBlock
 62
    0
370
   -2
100
AcDbTrace
 10
288.4642215915514
 20
71.0977541790879
 30
0
 11
288.4342490961918
 21
71.27775417908791
 31
0
 12
288.494194086911
 22
71.27775417908791
 32
0
 13
288.494194086911
 23
71.27775417908791
 33
0
  0
LINE
  5
108
100
AcDbEntity
  8
Bemaßung (ISO)
  6
ByBlock
 62
    0
370
   -2
100
AcDbLine
 10
288.4642215915514
 20
88.91775417908788
 11
288.4642215915514
 21
71.0977541790879
  0
MTEXT
  5
109
100
AcDbEntity
  8
Bemaßung (ISO)
  6
CONTINUOUS
 62
    0
370
   -2
100
AcDbMText
 10
288.4642215915513
 20
89.09775417908789
 30
0
 40
0.18
 41
0.8400000000000223
 71
    5
 72
    1
  1
36.0000
  7
Standard
210
0
220
0
230
1
 50
0
 73
    2
 44
1
  0
LINE
  5
10A
100
AcDbEntity
  8
Bemaßung (ISO)
  6
ByBlock
 62
    0
370
   -2
100
AcDbLine
 10
298.4017215915513
 20
107.0977541790878
 11
288.2842215915514
 21
107.0977541790878
  0
LINE
  5
10B
100
AcDbEntity
  8
Bemaßung (ISO)
  6
ByBlock
 62
    0
370
   -2
100
AcDbLine
 10
298.4017215915513
 20
71.0977541790879
 11
288.2842215915514
 21
71.0977541790879
  0
ENDBLK
  5
61
330
5F
100
AcDbEntity
  8
0
100
AcDbBlockEnd
  0
BLOCK
  5
63
330
62
100
AcDbEntity
  8
0
100
AcDbBlockBegin
  2
*D8
 70
    1
 10
0
 20
0
  3
*D8
  1

  0
LINE
  5
10C
100
AcDbEntity
  8
Bemaßung (ISO)
  6
ByBlock
 62
    0
370
   -2
100
AcDbLine
 10
232.414889079888
 20
204.8181373866428
 11
235.4148890798881
 21
204.8181373866428
  0
SOLID
  5
10D
100
AcDbEntity
  8
Bemaßung (ISO)
  6
ByBlock
 62
    0
370
   -2
100
AcDbTrace
 10
232.414889079888
 20
204.8181373866428
 30
0
 11
232.594889079888
 21
204.8481098820025
 31
0
 12
232.594889079888
 22
204.7881648912831
 32
0
 13
232.594889079888
 23
204.7881648912831
 33
0
  0
SOLID
  5
10E
100
AcDbEntity
  8
Bemaßung (ISO)
  6
ByBlock
 62
    0
370
   -2
100
AcDbTrace
 10
235.4148890798881
 20
204.8181373866428
 30
0
 11
235.2348890798881
 21
204.7881648912831
 31
0
 12
235.2348890798881
 22
204.8481098820025
 32
0
 13
235.2348890798881
 23
204.8481098820025
 33
0
  0
MTEXT
  5
10F
100
AcDbEntity
  8
Bemaßung (ISO)
  6
CONTINUOUS
 62
    0
370
   -2
100
AcDbMText
 10
247.4427199192315
 20
204.8181373866428
 30
0
 40
0.18
 41
0.7000000000000112
 71
    5
 72
    1
  1
3.0000
  7
Standard
210
0
220
0
230
1
 50
0
 73
    2
 44
1
  0
LINE
  5
110
100
AcDbEntity
  8
Bemaßung (ISO)
  6
ByBlock
 62
    0
370
   -2
100
AcDbLine
 10
232.414889079888
 20
215.7556373866423
 11
232.414889079888
 21
204.6381373866428
  0
LINE
  5
111
100
AcDbEntity
  8
Bemaßung (ISO)
  6
ByBlock
 62
    0
370
   -2
100
AcDbLine
 10
235.4148890798881
 20
222.7556373866428
 11
235.4148890798881
 21
204.6381373866428
  0
ENDBLK
  5
64
330
62
100
AcDbEntity
  8
0
100
AcDbBlockEnd
  0
BLOCK
  5
66
330
65
100
AcDbEntity
  8
0
100
AcDbBlockBegin
  2
*D7
 70
    1
 10
0
 20
0
  3
*D7
  1

  0
LINE
  5
112
100
AcDbEntity
  8
Bemaßung (ISO)
  6
ByBlock
 62
    0
370
   -2
100
AcDbLine
 10
242.9642215915513
 20
27.59775417908792
 11
270.4542215915512
 21
27.59775417908792
  0
SOLID
  5
113
100
AcDbEntity
  8
Bemaßung (ISO)
  6
ByBlock
 62
    0
370
   -2
100
AcDbTrace
 10
242.9642215915513
 20
27.59775417908792
 30
0
 11
243.1442215915513
 21
27.62772667444756
 31
0
 12
243.1442215915513
 22
27.56778168372827
 32
0
 13
243.1442215915513
 23
27.56778168372827
 33
0
  0
SOLID
  5
114
100
AcDbEntity
  8
Bemaßung (ISO)
  6
ByBlock
 62
    0
370
   -2
100
AcDbTrace
 10
298.9642215915513
 20
27.59775417908791
 30
0
 11
298.7842215915513
 21
27.56778168372827
 31
0
 12
298.7842215915513
 22
27.62772667444755
 32
0
 13
298.7842215915513
 23
27.62772667444755
 33
0
  0
LINE
  5
115
100
AcDbEntity
  8
Bemaßung (ISO)
  6
ByBlock
 62
    0
370
   -2
100
AcDbLine
 10
271.4742215915512
 20
27.59775417908792
 11
298.9642215915513
 21
27.59775417908791
  0
MTEXT
  5
116
100
AcDbEntity
  8
Bemaßung (ISO)
  6
CONTINUOUS
 62
    0
370
   -2
100
AcDbMText
 10
270.9642215915512
 20
27.59775417908791
 30
0
 40
0.18
 41
0.8400000000000223
 71
    5
 72
    1
  1
56.0000
  7
Standard
210
0
220
0
230
1
 50
0
 73
    2
 44
1
  0
LINE
  5
117
100
AcDbEntity
  8
Bemaßung (ISO)
  6
ByBlock
 62
    0
370
   -2
100
AcDbLine
 10
242.9642215915513
 20
39.03525417908792
 11
242.9642215915513
 21
27.41775417908792
  0
LINE
  5
118
100
AcDbEntity
  8
Bemaßung (ISO)
  6
ByBlock
 62
    0
370
   -2
100
AcDbLine
 10
298.9642215915513
 20
61.5352541790879
 11
298.9642215915513
 21
27.41775417908791
  0
ENDBLK
  5
67
330
65
100
AcDbEntity
  8
0
100
AcDbBlockEnd
  0
BLOCK
  5
69
330
68
100
AcDbEntity
  8
0
100
AcDbBlockBegin
  2
*D3
 70
    1
 10
0
 20
0
  3
*D3
  1

  0
SOLID
  5
119
100
AcDbEntity
  8
Bemaßung (ISO)
  6
ByBlock
 62
    0
370
   -2
100
AcDbTrace
 10
304.6210758410448
 20
112.7546084285796
 30
0
 11
304.5149903751491
 21
112.6061354532481
 31
0
 12
304.4726028657133
 22
112.6485229626839
 32
0
 13
304.4726028657133
 23
112.6485229626839
 33
0
  0
LINE
  5
11A
100
AcDbEntity
  8
Bemaßung (ISO)
  6
ByBlock
 62
    0
370
   -2
100
AcDbLine
 10
298.9642215915516
 20
107.0977541790879
 11
304.6210758410448
 21
112.7546084285796
  0
MTEXT
  5
11B
100
AcDbEntity
  8
Bemaßung (ISO)
  6
CONTINUOUS
 62
    0
370
   -2
100
AcDbMText
 10
312.4789567112506
 20
124.4515823287574
 30
0
 40
0.18
 41
0.7
 71
    5
 72
    1
  1
8.0000
  7
Standard
210
0
220
0
230
1
 50
44.99999999999259
 73
    2
 44
1
  0
ENDBLK
  5
6A
330
68
100
AcDbEntity
  8
0
100
AcDbBlockEnd
  0
BLOCK
  5
6C
330
6B
100
AcDbEntity
  8
0
100
AcDbBlockBegin
  2
*D6
 70
    1
 10
0
 20
0
  3
*D6
  1

  0
LINE
  5
11C
100
AcDbEntity
  8
Bemaßung (ISO)
  6
ByBlock
 62
    0
370
   -2
100
AcDbLine
 10
212.5633580607981
 20
54.09775417908786
 11
212.5633580607981
 21
88.91775417908784
  0
SOLID
  5
11D
100
AcDbEntity
  8
Bemaßung (ISO)
  6
ByBlock
 62
    0
370
   -2
100
AcDbTrace
 10
212.5633580607981
 20
54.09775417908786
 30
0
 11
212.5333855654384
 21
54.27775417908786
 31
0
 12
212.5933305561578
 22
54.27775417908786
 32
0
 13
212.5933305561578
 23
54.27775417908786
 33
0
  0
SOLID
  5
11E
100
AcDbEntity
  8
Bemaßung (ISO)
  6
ByBlock
 62
    0
370
   -2
100
AcDbTrace
 10
212.5633580607981
 20
124.0977541790879
 30
0
 11
212.5933305561578
 21
123.9177541790879
 31
0
 12
212.5333855654384
 22
123.9177541790879
 32
0
 13
212.5333855654384
 23
123.9177541790879
 33
0
  0
LINE
  5
11F
100
AcDbEntity
  8
Bemaßung (ISO)
  6
ByBlock
 62
    0
370
   -2
100
AcDbLine
 10
212.5633580607981
 20
89.27775417908785
 11
212.5633580607981
 21
124.0977541790879
  0
MTEXT
  5
120
100
AcDbEntity
  8
Bemaßung (ISO)
  6
CONTINUOUS
 62
    0
370
   -2
100
AcDbMText
 10
212.5633580607981
 20
89.09775417908784
 30
0
 40
0.18
 41
0.99999996
 71
    5
 72
    1
  1
(70.0000)
  7
Standard
210
0
220
0
230
1
 50
0
 73
    2
 44
1
  0
LINE
  5
121
100
AcDbEntity
  8
Bemaßung (ISO)
  6
ByBlock
 62
    0
370
   -2
100
AcDbLine
 10
242.9017215915514
 20
54.09775417908786
 11
212.3833580607981
 21
54.09775417908786
  0
LINE
  5
122
100
AcDbEntity
  8
Bemaßung (ISO)
  6
ByBlock
 62
    0
370
   -2
100
AcDbLine
 10
242.9017215915514
 20
124.0977541790879
 11
212.3833580607981
 21
124.0977541790879
  0
ENDBLK
  5
6D
330
6B
100
AcDbEntity
  8
0
100
AcDbBlockEnd
  0
BLOCK
  5
6F
330
6E
100
AcDbEntity
  8
0
100
AcDbBlockBegin
  2
*D11
 70
    1
 10
0
 20
0
  3
*D11
  1

  0
LINE
  5
123
100
AcDbEntity
  8
Bemaßung (ISO)
  6
ByBlock
 62
    0
370
   -2
100
AcDbLine
 10
335.4148890798881
 20
230.8181373866428
 11
335.4148890798881
 21
248.8881373866426
  0
SOLID
  5
124
100
AcDbEntity
  8
Bemaßung (ISO)
  6
ByBlock
 62
    0
370
   -2
100
AcDbTrace
 10
335.4148890798881
 20
230.8181373866428
 30
0
 11
335.3849165845285
 21
230.9981373866428
 31
0
 12
335.4448615752477
 22
230.9981373866428
 32
0
 13
335.4448615752477
 23
230.9981373866428
 33
0
  0
SOLID
  5
125
100
AcDbEntity
  8
Bemaßung (ISO)
  6
ByBlock
 62
    0
370
   -2
100
AcDbTrace
 10
335.4148890798881
 20
267.3181373866424
 30
0
 11
335.4448615752477
 21
267.1381373866424
 31
0
 12
335.3849165845285
 22
267.1381373866424
 32
0
 13
335.3849165845285
 23
267.1381373866424
 33
0
  0
LINE
  5
126
100
AcDbEntity
  8
Bemaßung (ISO)
  6
ByBlock
 62
    0
370
   -2
100
AcDbLine
 10
335.4148890798881
 20
249.2481373866426
 11
335.4148890798881
 21
267.3181373866424
  0
MTEXT
  5
127
100
AcDbEntity
  8
Bemaßung (ISO)
  6
CONTINUOUS
 62
    0
370
   -2
100
AcDbMText
 10
335.4148890798881
 20
249.0681373866426
 30
0
 40
0.18
 41
1.29500000000005
 71
    5
 72
    1
  1
ca. 36.5000
  7
Standard
210
0
220
0
230
1
 50
0
 73
    2
 44
1
  0
LINE
  5
128
100
AcDbEntity
  8
Bemaßung (ISO)
  6
ByBlock
 62
    0
370
   -2
100
AcDbLine
 10
325.4773890798881
 20
230.8181373866428
 11
335.5948890798881
 21
230.8181373866428
  0
LINE
  5
129
100
AcDbEntity
  8
Bemaßung (ISO)
  6
ByBlock
 62
    0
370
   -2
100
AcDbLine
 10
239.977389079888
 20
267.3181373866424
 11
335.5948890798881
 21
267.3181373866424
  0
ENDBLK
  5
70
330
6E
100
AcDbEntity
  8
0
100
AcDbBlockEnd
  0
BLOCK
  5
72
330
71
100
AcDbEntity
  8
0
100
AcDbBlockBegin
  2
*D5
 70
    1
 10
0
 20
0
  3
*D5
  1

  0
LINE
  5
12A
100
AcDbEntity
  8
Bemaßung (ISO)
  6
ByBlock
 62
    0
370
   -2
100
AcDbLine
 10
222.1217727150157
 20
119.0977541790879
 11
222.1217727150157
 21
89.27775417908789
  0
SOLID
  5
12B
100
AcDbEntity
  8
Bemaßung (ISO)
  6
ByBlock
 62
    0
370
   -2
100
AcDbTrace
 10
222.1217727150157
 20
119.0977541790879
 30
0
 11
222.1517452103754
 21
118.9177541790879
 31
0
 12
222.0918002196561
 22
118.9177541790879
 32
0
 13
222.0918002196561
 23
118.9177541790879
 33
0
  0
SOLID
  5
12C
100
AcDbEntity
  8
Bemaßung (ISO)
  6
ByBlock
 62
    0
370
   -2
100
AcDbTrace
 10
222.1217727150157
 20
59.09775417908786
 30
0
 11
222.0918002196561
 21
59.27775417908786
 31
0
 12
222.1517452103754
 22
59.27775417908786
 32
0
 13
222.1517452103754
 23
59.27775417908786
 33
0
  0
LINE
  5
12D
100
AcDbEntity
  8
Bemaßung (ISO)
  6
ByBlock
 62
    0
370
   -2
100
AcDbLine
 10
222.1217727150157
 20
88.91775417908788
 11
222.1217727150157
 21
59.09775417908786
  0
MTEXT
  5
12E
100
AcDbEntity
  8
Bemaßung (ISO)
  6
CONTINUOUS
 62
    0
370
   -2
100
AcDbMText
 10
222.1217727150157
 20
89.09775417908789
 30
0
 40
0.18
 41
0.8400000000000112
 71
    5
 72
    1
  1
60.0000
  7
Standard
210
0
220
0
230
1
 50
0
 73
    2
 44
1
  0
LINE
  5
12F
100
AcDbEntity
  8
Bemaßung (ISO)
  6
ByBlock
 62
    0
370
   -2
100
AcDbLine
 10
242.4017215915513
 20
119.0977541790879
 11
221.9417727150157
 21
119.0977541790879
  0
LINE
  5
130
100
AcDbEntity
  8
Bemaßung (ISO)
  6
ByBlock
 62
    0
370
   -2
100
AcDbLine
 10
242.4017215915513
 20
59.09775417908786
 11
221.9417727150157
 21
59.09775417908786
  0
ENDBLK
  5
73
330
71
100
AcDbEntity
  8
0
100
AcDbBlockEnd
  0
BLOCK
  5
75
330
74
100
AcDbEntity
  8
0
100
AcDbBlockBegin
  2
*D1
 70
    1
 10
0
 20
0
  3
*D1
  1

  0
LINE
  5
131
100
AcDbEntity
  8
Bemaßung (ISO)
  6
ByBlock
 62
    0
370
   -2
100
AcDbLine
 10
229.9642215915514
 20
112.0977541790878
 11
229.9642215915514
 21
89.27775417908782
  0
SOLID
  5
132
100
AcDbEntity
  8
Bemaßung (ISO)
  6
ByBlock
 62
    0
370
   -2
100
AcDbTrace
 10
229.9642215915514
 20
112.0977541790878
 30
0
 11
229.9941940869111
 21
111.9177541790878
 31
0
 12
229.9342490961917
 22
111.9177541790878
 32
0
 13
229.9342490961917
 23
111.9177541790878
 33
0
  0
SOLID
  5
133
100
AcDbEntity
  8
Bemaßung (ISO)
  6
ByBlock
 62
    0
370
   -2
100
AcDbTrace
 10
229.9642215915514
 20
66.0977541790879
 30
0
 11
229.9342490961917
 21
66.27775417908791
 31
0
 12
229.9941940869111
 22
66.27775417908791
 32
0
 13
229.9941940869111
 23
66.27775417908791
 33
0
  0
LINE
  5
134
100
AcDbEntity
  8
Bemaßung (ISO)
  6
ByBlock
 62
    0
370
   -2
100
AcDbLine
 10
229.9642215915514
 20
88.91775417908781
 11
229.9642215915514
 21
66.0977541790879
  0
MTEXT
  5
135
100
AcDbEntity
  8
Bemaßung (ISO)
  6
CONTINUOUS
 62
    0
370
   -2
100
AcDbMText
 10
229.9642215915513
 20
89.09775417908781
 30
0
 40
0.18
 41
0.8600000000000112
 71
    5
 72
    1
  1
46.0000
  7
Standard
210
0
220
0
230
1
 50
0
 73
    2
 44
1
  0
LINE
  5
136
100
AcDbEntity
  8
Bemaßung (ISO)
  6
ByBlock
 62
    0
370
   -2
100
AcDbLine
 10
247.9017215915514
 20
112.0977541790878
 11
229.7842215915514
 21
112.0977541790878
  0
LINE
  5
137
100
AcDbEntity
  8
Bemaßung (ISO)
  6
ByBlock
 62
    0
370
   -2
100
AcDbLine
 10
247.9017215915514
 20
66.0977541790879
 11
229.7842215915514
 21
66.0977541790879
  0
ENDBLK
  5
76
330
74
100
AcDbEntity
  8
0
100
AcDbBlockEnd
  0
BLOCK
  5
78
330
77
100
AcDbEntity
  8
0
100
AcDbBlockBegin
  2
*D10
 70
    1
 10
0
 20
0
  3
*D10
  1

  0
LINE
  5
138
100
AcDbEntity
  8
Bemaßung (ISO)
  6
ByBlock
 62
    0
370
   -2
100
AcDbLine
 10
225.293015519925
 20
215.8181373866423
 11
225.293015519925
 21
226.6381373866423
  0
SOLID
  5
139
100
AcDbEntity
  8
Bemaßung (ISO)
  6
ByBlock
 62
    0
370
   -2
100
AcDbTrace
 10
225.293015519925
 20
215.8181373866423
 30
0
 11
225.2630430245653
 21
215.9981373866423
 31
0
 12
225.3229880152847
 22
215.9981373866423
 32
0
 13
225.3229880152847
 23
215.9981373866423
 33
0
  0
SOLID
  5
13A
100
AcDbEntity
  8
Bemaßung (ISO)
  6
ByBlock
 62
    0
370
   -2
100
AcDbTrace
 10
225.293015519925
 20
237.8181373866424
 30
0
 11
225.3229880152847
 21
237.6381373866424
 31
0
 12
225.2630430245653
 22
237.6381373866424
 32
0
 13
225.2630430245653
 23
237.6381373866424
 33
0
  0
LINE
  5
13B
100
AcDbEntity
  8
Bemaßung (ISO)
  6
ByBlock
 62
    0
370
   -2
100
AcDbLine
 10
225.293015519925
 20
226.9981373866423
 11
225.293015519925
 21
237.8181373866424
  0
MTEXT
  5
13C
100
AcDbEntity
  8
Bemaßung (ISO)
  6
CONTINUOUS
 62
    0
370
   -2
100
AcDbMText
 10
225.293015519925
 20
226.8181373866423
 30
0
 40
0.18
 41
0.8400000000000001
 71
    5
 72
    1
  1
22.0000
  7
Standard
210
0
220
0
230
1
 50
0
 73
    2
 44
1
  0
LINE
  5
13D
100
AcDbEntity
  8
Bemaßung (ISO)
  6
ByBlock
 62
    0
370
   -2
100
AcDbLine
 10
232.352389079888
 20
215.8181373866423
 11
225.113015519925
 21
215.8181373866423
  0
LINE
  5
13E
100
AcDbEntity
  8
Bemaßung (ISO)
  6
ByBlock
 62
    0
370
   -2
100
AcDbLine
 10
241.266602642261
 20
237.8181373866424
 11
225.113015519925
 21
237.8181373866424
  0
ENDBLK
  5
79
330
77
100
AcDbEntity
  8
0
100
AcDbBlockEnd
  0
BLOCK
  5
7B
330
7A
100
AcDbEntity
  8
0
100
AcDbBlockBegin
  2
*D12
 70
    1
 10
0
 20
0
  3
*D12
  1

  0
LINE
  5
13F
100
AcDbEntity
  8
Bemaßung (ISO)
  6
ByBlock
 62
    0
370
   -2
100
AcDbLine
 10
335.4148890798881
 20
230.8181373866428
 11
335.4148890798881
 21
222.8181373866429
  0
SOLID
  5
140
100
AcDbEntity
  8
Bemaßung (ISO)
  6
ByBlock
 62
    0
370
   -2
100
AcDbTrace
 10
335.4148890798881
 20
230.8181373866428
 30
0
 11
335.4448615752477
 21
230.6381373866428
 31
0
 12
335.3849165845285
 22
230.6381373866428
 32
0
 13
335.3849165845285
 23
230.6381373866428
 33
0
  0
SOLID
  5
141
100
AcDbEntity
  8
Bemaßung (ISO)
  6
ByBlock
 62
    0
370
   -2
100
AcDbTrace
 10
335.4148890798881
 20
222.8181373866429
 30
0
 11
335.3849165845285
 21
222.9981373866429
 31
0
 12
335.4448615752477
 22
222.9981373866429
 32
0
 13
335.4448615752477
 23
222.9981373866429
 33
0
  0
MTEXT
  5
142
100
AcDbEntity
  8
Bemaßung (ISO)
  6
CONTINUOUS
 62
    0
370
   -2
100
AcDbMText
 10
335.4148890798881
 20
196.1727246068251
 30
0
 40
0.18
 41
1.495000000000028
 71
    5
 72
    1
  1
 6, 8 o. 10mm
  7
Standard
210
0
220
0
230
1
 50
0
 73
    2
 44
1
  0
LINE
  5
143
100
AcDbEntity
  8
Bemaßung (ISO)
  6
ByBlock
 62
    0
370
   -2
100
AcDbLine
 10
325.4773890798881
 20
230.8181373866428
 11
335.5948890798881
 21
230.8181373866428
  0
LINE
  5
144
100
AcDbEntity
  8
Bemaßung (ISO)
  6
ByBlock
 62
    0
370
   -2
100
AcDbLine
 10
325.4773890798881
 20
222.8181373866429
 11
335.5948890798881
 21
222.8181373866429
  0
ENDBLK
  5
7C
330
7A
100
AcDbEntity
  8
0
100
AcDbBlockEnd
  0
BLOCK
  5
7E
330
7D
100
AcDbEntity
  8
0
100
AcDbBlockBegin
  2
Filled-1
 70
    0
 10
0
 20
0
  3
Filled-1
  1

  0
LINE
  5
145
100
AcDbEntity
  8
0
  6
ByLayer
 62
    0
370
   -1
100
AcDbLine
 10
-1
 20
0
 11
0
 21
0
  0
LWPOLYLINE
  5
146
100
AcDbEntity
  8
0
  6
ByLayer
 62
    0
370
   -1
100
AcDbPolyline
 90
    4
 70
    0
 43
0
 10
-1
 20
-0.1
 10
0
 20
0
 10
-1
 20
0.1
 10
-1
 20
-0.1
  0
SOLID
  5
147
100
AcDbEntity
  8
0
  6
ByLayer
 62
    0
370
   -1
100
AcDbTrace
 10
-1
 20
-0.1
 30
0
 11
0
 21
0
 31
0
 12
-1
 22
0.1
 32
0
 13
-1
 23
-0.1
 33
0
  0
LINE
  5
148
100
AcDbEntity
  8
0
  6
ByLayer
 62
    0
370
   -1
100
AcDbLine
 10
-1
 20
-0.1
 11
0
 21
0
  0
LINE
  5
149
100
AcDbEntity
  8
0
  6
ByLayer
 62
    0
370
   -1
100
AcDbLine
 10
0
 20
0
 11
-1
 21
0.1
  0
LINE
  5
14A
100
AcDbEntity
  8
0
  6
ByLayer
 62
    0
370
   -1
100
AcDbLine
 10
-1
 20
0.1
 11
-1
 21
-0.1
  0
ENDBLK
  5
7F
330
7D
100
AcDbEntity
  8
0
100
AcDbBlockEnd
  0
BLOCK
  5
81
330
80
100
AcDbEntity
  8
0
100
AcDbBlockBegin
  2
DatumFilled45
 70
    0
 10
0
 20
0
  3
DatumFilled45
  1

  0
LWPOLYLINE
  5
14B
100
AcDbEntity
  8
0
  6
ByLayer
 62
    0
370
   -1
100
AcDbPolyline
 90
    4
 70
    0
 43
0
 10
0
 20
1
 10
0
 20
-1
 10
-1
 20
0
 10
0
 20
1
  0
SOLID
  5
14C
100
AcDbEntity
  8
0
  6
ByLayer
 62
    0
370
   -1
100
AcDbTrace
 10
0
 20
1
 30
0
 11
0
 21
-1
 31
0
 12
-1
 22
0
 32
0
 13
0
 23
1
 33
0
  0
ENDBLK
  5
82
330
80
100
AcDbEntity
  8
0
100
AcDbBlockEnd
  0
BLOCK
  5
84
330
83
100
AcDbEntity
  8
0
100
AcDbBlockBegin
  2
Glasbearbeitung
 70
    0
 10
0
 20
0
  3
Glasbearbeitung
  1

  0
MTEXT
  5
14D
100
AcDbEntity
  8
Symbole(DIN)
  6
ByLayer
 62
    7
370
   -1
100
AcDbMText
 10
-36.95807933807373
 20
2.29287352412939
 30
0
 40
3.499999940395355
 41
131.0555551236998
 71
    1
 72
    1
  1
\fArial|b0|i0;\H3.5000;Alle Kanten geschliffen und poliert
  7
aktuell-din
210
0
220
0
230
1
 50
0
 73
    1
 44
1
  0
ENDBLK
  5
85
330
83
100
AcDbEntity
  8
0
100
AcDbBlockEnd
  0
BLOCK
  5
87
330
86
100
AcDbEntity
  8
0
100
AcDbBlockBegin
  2
unbemaßte_Kanten
 70
    0
 10
0
 20
0
  3
unbemaßte_Kanten
  1

  0
MTEXT
  5
14E
100
AcDbEntity
  8
Symbole(DIN)
  6
ByLayer
 62
    7
370
   -1
100
AcDbMText
 10
-25.81729110330343
 20
1.518673673272132
 30
0
 40
2.5
 41
124.9305568412757
 71
    1
 72
    1
  1
unbemaßte Kanten 0,2x45\fAIGDT|b0|i0;\H2.5000;~\fArial|b0|i0;\H2.5000; fasen
  7
aktuell-din
210
0
220
0
230
1
 50
0
 73
    1
 44
1
  0
ENDBLK
  5
88
330
86
100
AcDbEntity
  8
0
100
AcDbBlockEnd
  0
BLOCK
  5
8A
330
89
100
AcDbEntity
  8
0
100
AcDbBlockBegin
  2
Schleifrichtung
 70
    0
 10
0
 20
0
  3
Schleifrichtung
  1

  0
HATCH
  5
14F
100
AcDbEntity
  8
Schraffur
  6
ByLayer
 62
  179
420
2500185
370
   -1
100
AcDbHatch
 10
0
 20
0
 30
0
210
0
220
0
230
1
  2
SOLID
 70
    1
 71
    0
 91
    1
 92
    0
 93
    3
 72
    1
 10
0
 20
5
 11
-0.4999999999999983
 21
2.78774508444858
 72
    1
 10
-0.4999999999999983
 20
2.78774508444858
 11
0.4999999999999983
 21
2.78774508444858
 72
    1
 10
0.4999999999999983
 20
2.78774508444858
 11
0
 21
5
 97
    0
 75
    0
 76
    1
 98
    0
  0
HATCH
  5
150
100
AcDbEntity
  8
Schraffur
  6
ByLayer
 62
  179
420
2500185
370
   -1
100
AcDbHatch
 10
0
 20
0
 30
0
210
0
220
0
230
1
  2
SOLID
 70
    1
 71
    0
 91
    1
 92
    0
 93
    3
 72
    1
 10
0
 20
-5
 11
0.4999999999999983
 21
-2.78774508444858
 72
    1
 10
0.4999999999999983
 20
-2.78774508444858
 11
-0.4999999999999983
 21
-2.78774508444858
 72
    1
 10
-0.4999999999999983
 20
-2.78774508444858
 11
0
 21
-5
 97
    0
 75
    0
 76
    1
 98
    0
  0
LINE
  5
151
100
AcDbEntity
  8
Skizziergeometrie(DIN)
  6
ByLayer
 62
  256
370
   -1
100
AcDbLine
 10
0
 20
5
 11
0
 21
-5
  0
LINE
  5
152
100
AcDbEntity
  8
Skizziergeometrie(DIN)
  6
ByLayer
 62
  256
370
   -1
100
AcDbLine
 10
0
 20
5
 11
-0.4999999999999983
 21
2.78774508444858
  0
LINE
  5
153
100
AcDbEntity
  8
Skizziergeometrie(DIN)
  6
ByLayer
 62
  256
370
   -1
100
AcDbLine
 10
-0.4999999999999983
 20
2.78774508444858
 11
0.4999999999999983
 21
2.78774508444858
  0
LINE
  5
154
100
AcDbEntity
  8
Skizziergeometrie(DIN)
  6
ByLayer
 62
  256
370
   -1
100
AcDbLine
 10
0.4999999999999983
 20
2.78774508444858
 11
0
 21
5
  0
LINE
  5
155
100
AcDbEntity
  8
Skizziergeometrie(DIN)
  6
ByLayer
 62
  256
370
   -1
100
AcDbLine
 10
0
 20
-5
 11
-0.4999999999999983
 21
-2.78774508444858
  0
LINE
  5
156
100
AcDbEntity
  8
Skizziergeometrie(DIN)
  6
ByLayer
 62
  256
370
   -1
100
AcDbLine
 10
-0.4999999999999983
 20
-2.78774508444858
 11
0.4999999999999983
 21
-2.78774508444858
  0
LINE
  5
157
100
AcDbEntity
  8
Skizziergeometrie(DIN)
  6
ByLayer
 62
  256
370
   -1
100
AcDbLine
 10
0.4999999999999983
 20
-2.78774508444858
 11
0
 21
-5
  0
ENDBLK
  5
8B
330
89
100
AcDbEntity
  8
0
100
AcDbBlockEnd
  0
BLOCK
  5
8D
330
8C
100
AcDbEntity
  8
0
100
AcDbBlockBegin
  2
Senkung DIN 974-1 für Zylinderkopfschrauben
 70
    0
 10
0
 20
0
  3
Senkung DIN 974-1 für Zylinderkopfschrauben
  1

  0
MTEXT
  5
158
100
AcDbEntity
  8
Symbole(DIN)
  6
ByLayer
 62
    7
370
   -1
100
AcDbMText
 10
-22.51524209976196
 20
1.639672182500362
 30
0
 40
2.5
 41
45.90277696999526
 71
    1
 72
    1
  1
Senkung DIN 974-1 (Reihe1)
  7
aktuell-din
210
0
220
0
230
1
 50
0
 73
    1
 44
1
  0
ENDBLK
  5
8E
330
8C
100
AcDbEntity
  8
0
100
AcDbBlockEnd
  0
BLOCK
  5
90
330
8F
100
AcDbEntity
  8
0
100
AcDbBlockBegin
  2
Senkung DIN 74-1 B (f) f. Senkschrauben
 70
    0
 10
0
 20
0
  3
Senkung DIN 74-1 B (f) f. Senkschrauben
  1

  0
MTEXT
  5
159
100
AcDbEntity
  8
Symbole(DIN)
  6
ByLayer
 62
    7
370
   -1
100
AcDbMText
 10
-18.14691185951233
 20
1.639672182500362
 30
0
 40
2.5
 41
39.4444436366618
 71
    1
 72
    1
  1
Senkung DIN 74-1 B (f)
  7
aktuell-din
210
0
220
0
230
1
 50
0
 73
    1
 44
1
  0
ENDBLK
  5
91
330
8F
100
AcDbEntity
  8
0
100
AcDbBlockEnd
  0
BLOCK
  5
93
330
92
100
AcDbEntity
  8
0
100
AcDbBlockBegin
  2
Rz4(Rz16)
 70
    0
 10
0
 20
0
  3
Rz4(Rz16)
  1

  0
LINE
  5
15A
100
AcDbEntity
  8
Skizziergeometrie(DIN)
  6
ByLayer
 62
  256
370
   -1
100
AcDbLine
 10
-13.35665995719496
 20
-0.624154925091176
 11
-11.35665995719495
 21
-4.124154925091172
  0
LINE
  5
15B
100
AcDbEntity
  8
Skizziergeometrie(DIN)
  6
ByLayer
 62
  256
370
   -1
100
AcDbLine
 10
-11.35665995719495
 20
-4.124154925091172
 11
-9.356659957194953
 21
-0.624154925091176
  0
LINE
  5
15C
100
AcDbEntity
  8
Skizziergeometrie(DIN)
  6
ByLayer
 62
  256
370
   -1
100
AcDbLine
 10
-9.356659957194953
 20
-0.624154925091176
 11
-13.35665995719496
 21
-0.624154925091176
  0
LINE
  5
15D
100
AcDbEntity
  8
Skizziergeometrie(DIN)
  6
ByLayer
 62
  256
370
   -1
100
AcDbLine
 10
-9.356659957194953
 20
-0.624154925091176
 11
-6.643340042805041
 21
4.12415492509119
  0
LINE
  5
15E
100
AcDbEntity
  8
Skizziergeometrie(DIN)
  6
ByLayer
 62
  256
370
   -1
100
AcDbLine
 10
-6.643340042805041
 20
4.12415492509119
 11
13.35665995719496
 21
4.124154925091172
  0
MTEXT
  5
15F
100
AcDbEntity
  8
Symbole(DIN)
  6
ByLayer
 62
    7
370
   -1
100
AcDbMText
 10
-6.476606384140213
 20
3.265635088166192
 30
0
 40
2.5
 41
20.90277750000016
 71
    1
 72
    1
  1
Rz 4 (Rz 16)
  7
aktuell-din
210
0
220
0
230
1
 50
0
 73
    1
 44
1
  0
ENDBLK
  5
94
330
92
100
AcDbEntity
  8
0
100
AcDbBlockEnd
  0
BLOCK
  5
96
330
95
100
AcDbEntity
  8
0
100
AcDbBlockBegin
  2
Rz16(Rz4)
 70
    0
 10
0
 20
0
  3
Rz16(Rz4)
  1

  0
LINE
  5
160
100
AcDbEntity
  8
Skizziergeometrie(DIN)
  6
ByLayer
 62
  256
370
   -1
100
AcDbLine
 10
-13.35665995719496
 20
-0.624154925091176
 11
-11.35665995719495
 21
-4.124154925091172
  0
LINE
  5
161
100
AcDbEntity
  8
Skizziergeometrie(DIN)
  6
ByLayer
 62
  256
370
   -1
100
AcDbLine
 10
-11.35665995719495
 20
-4.124154925091172
 11
-9.356659957194953
 21
-0.624154925091176
  0
LINE
  5
162
100
AcDbEntity
  8
Skizziergeometrie(DIN)
  6
ByLayer
 62
  256
370
   -1
100
AcDbLine
 10
-9.356659957194953
 20
-0.624154925091176
 11
-13.35665995719496
 21
-0.624154925091176
  0
LINE
  5
163
100
AcDbEntity
  8
Skizziergeometrie(DIN)
  6
ByLayer
 62
  256
370
   -1
100
AcDbLine
 10
-9.356659957194953
 20
-0.624154925091176
 11
-6.643340042805041
 21
4.12415492509119
  0
LINE
  5
164
100
AcDbEntity
  8
Skizziergeometrie(DIN)
  6
ByLayer
 62
  256
370
   -1
100
AcDbLine
 10
-6.643340042805041
 20
4.12415492509119
 11
13.35665995719496
 21
4.124154925091172
  0
MTEXT
  5
165
100
AcDbEntity
  8
Symbole(DIN)
  6
ByLayer
 62
    7
370
   -1
100
AcDbMText
 10
-6.476606384140213
 20
3.265635088166192
 30
0
 40
2.5
 41
20.90277750000016
 71
    1
 72
    1
  1
Rz 16 (Rz 4)
  7
aktuell-din
210
0
220
0
230
1
 50
0
 73
    1
 44
1
  0
ENDBLK
  5
97
330
95
100
AcDbEntity
  8
0
100
AcDbBlockEnd
  0
BLOCK
  5
99
330
98
100
AcDbEntity
  8
0
100
AcDbBlockBegin
  2
unbemaßte_Kanten 0_5
 70
    0
 10
0
 20
0
  3
unbemaßte_Kanten 0_5
  1

  0
MTEXT
  5
166
100
AcDbEntity
  8
Symbole(DIN)
  6
ByLayer
 62
    7
370
   -1
100
AcDbMText
 10
-25.81729110330343
 20
1.518673673272132
 30
0
 40
2.5
 41
124.9305568412758
 71
    1
 72
    1
  1
unbemaßte Kanten 0,5x45\fAIGDT|b0|i0;\H2.5000;~\fArial|b0|i0;\H2.5000; fasen
  7
aktuell-din
210
0
220
0
230
1
 50
0
 73
    1
 44
1
  0
ENDBLK
  5
9A
330
98
100
AcDbEntity
  8
0
100
AcDbBlockEnd
  0
BLOCK
  5
9C
330
9B
100
AcDbEntity
  8
0
100
AcDbBlockBegin
  2
unbemaßte_Kanten 1
 70
    0
 10
0
 20
0
  3
unbemaßte_Kanten 1
  1

  0
MTEXT
  5
167
100
AcDbEntity
  8
Symbole(DIN)
  6
ByLayer
 62
    7
370
   -1
100
AcDbMText
 10
-24.36149891465902
 20
1.291920635849237
 30
0
 40
2.5
 41
121.4583346190534
 71
    1
 72
    1
  1
unbemaßte Kanten 1x45\fAIGDT|b0|i0;\H2.5000;~\fArial|b0|i0;\H2.5000; fasen
  7
aktuell-din
210
0
220
0
230
1
 50
0
 73
    1
 44
1
  0
ENDBLK
  5
9D
330
9B
100
AcDbEntity
  8
0
100
AcDbBlockEnd
  0
BLOCK
  5
9F
330
9E
100
AcDbEntity
  8
0
100
AcDbBlockBegin
  2
Schleifrichtung rund
 70
    0
 10
0
 20
0
  3
Schleifrichtung rund
  1

  0
HATCH
  5
168
100
AcDbEntity
  8
Schraffur
  6
ByLayer
 62
  179
420
2500185
370
   -1
100
AcDbHatch
 10
0
 20
0
 30
0
210
0
220
0
230
1
  2
SOLID
 70
    1
 71
    0
 91
    1
 92
    0
 93
    3
 72
    1
 10
2.685970543868814
 20
1.033598154028645
 11
1.500695516670456
 21
2.910062754248521
 72
    1
 10
1.500695516670456
 20
2.910062754248521
 11
0.8087002570814227
 21
2.218067494659514
 72
    1
 10
0.8087002570814227
 20
2.218067494659514
 11
2.685970543868814
 21
1.033598154028645
 97
    0
 75
    0
 76
    1
 98
    0
  0
HATCH
  5
169
100
AcDbEntity
  8
Schraffur
  6
ByLayer
 62
  179
420
2500185
370
   -1
100
AcDbHatch
 10
0
 20
0
 30
0
210
0
220
0
230
1
  2
SOLID
 70
    1
 71
    0
 91
    1
 92
    0
 93
    3
 72
    1
 10
2.746159792612967
 20
-0.9654959543953012
 11
0.9437208322689283
 21
-2.260567411965119
 72
    1
 10
0.9437208322689283
 20
-2.260567411965119
 11
1.675752716096035
 21
-2.910062754248556
 72
    1
 10
1.675752716096035
 20
-2.910062754248556
 11
2.746159792612967
 21
-0.9654959543953012
 97
    0
 75
    0
 76
    1
 98
    0
  0
LINE
  5
16A
100
AcDbEntity
  8
Skizziergeometrie(DIN)
  6
ByLayer
 62
  256
370
   -1
100
AcDbLine
 10
2.685970543868814
 20
1.033598154028645
 11
1.500695516670456
 21
2.910062754248521
  0
LINE
  5
16B
100
AcDbEntity
  8
Skizziergeometrie(DIN)
  6
ByLayer
 62
  256
370
   -1
100
AcDbLine
 10
1.500695516670456
 20
2.910062754248521
 11
0.8087002570814227
 21
2.218067494659514
  0
LINE
  5
16C
100
AcDbEntity
  8
Skizziergeometrie(DIN)
  6
ByLayer
 62
  256
370
   -1
100
AcDbLine
 10
0.8087002570814227
 20
2.218067494659514
 11
2.685970543868814
 21
1.033598154028645
  0
LINE
  5
16D
100
AcDbEntity
  8
Skizziergeometrie(DIN)
  6
ByLayer
 62
  256
370
   -1
100
AcDbLine
 10
2.746159792612967
 20
-0.9654959543953012
 11
1.675752716096035
 21
-2.910062754248556
  0
LINE
  5
16E
100
AcDbEntity
  8
Skizziergeometrie(DIN)
  6
ByLayer
 62
  256
370
   -1
100
AcDbLine
 10
1.675752716096035
 20
-2.910062754248556
 11
0.9437208322689283
 21
-2.260567411965119
  0
LINE
  5
16F
100
AcDbEntity
  8
Skizziergeometrie(DIN)
  6
ByLayer
 62
  256
370
   -1
100
AcDbLine
 10
0.9437208322689283
 20
-2.260567411965119
 11
2.746159792612967
 21
-0.9654959543953012
  0
ARC
  5
170
100
AcDbEntity
  8
Skizziergeometrie (ISO)
  6
ByLayer
 62
  256
370
   -1
100
AcDbCircle
 10
0.07706842498974351
 20
-0.0454045049720975
 40
2.823228117602702
100
AcDbArc
 50
67.56090338518598
 51
295.8882073090315
  0
ENDBLK
  5
A0
330
9E
100
AcDbEntity
  8
0
100
AcDbBlockEnd
  0
BLOCK
  5
A2
330
A1
100
AcDbEntity
  8
0
100
AcDbBlockBegin
  2
Prototyp
 70
    0
 10
0
 20
0
  3
Prototyp
  1

  0
MTEXT
  5
171
100
AcDbEntity
  8
Symbol (ISO)
  6
ByLayer
 62
    1
370
   -1
100
AcDbMText
 10
-38.43368768692016
 20
5.167682543396949
 30
0
 40
10
 41
232.2222222222232
 71
    1
 72
    1
  1
\fArial|b1|i0;\H10.0000;\LPROTOTYP\l
  7
notiztext (din)
210
0
220
0
230
1
 50
0
 73
    1
 44
1
  0
ENDBLK
  5
A3
330
A1
100
AcDbEntity
  8
0
100
AcDbBlockEnd
  0
BLOCK
  5
A5
330
A4
100
AcDbEntity
  8
0
100
AcDbBlockBegin
  2
Freigabe
 70
    0
 10
0
 20
0
  3
Freigabe
  1

  0
MTEXT
  5
172
100
AcDbEntity
  8
Symbole(DIN)
  6
ByLayer
 62
    7
370
   -1
100
AcDbMText
 10
-44.64234352111816
 20
18.7593937292695
 30
0
 40
3.499999940395355
 41
191.6249967366486
 71
    1
 72
    1
  1
\fArial|b1|i0;\H3.5000;\LWir bitten um Freigabe zur Fertigung:\l\fArial|b1|i0;\H3.5000;\P\fArial|b0|i0;\H3.5000; \PDatum:___________________________\P \PName: ___________________________\P \PUnterschrift:_______________________
  7
aktuell-din
210
0
220
0
230
1
 50
0
 73
    2
 44
0.9442214965820312
  0
ENDBLK
  5
A6
330
A4
100
AcDbEntity
  8
0
100
AcDbBlockEnd
  0
BLOCK
  5
A8
330
A7
100
AcDbEntity
  8
0
100
AcDbBlockBegin
  2
Freigabe(Englisch)
 70
    0
 10
0
 20
0
  3
Freigabe(Englisch)
  1

  0
MTEXT
  5
173
100
AcDbEntity
  8
Symbole(DIN)
  6
ByLayer
 62
    7
370
   -1
100
AcDbMText
 10
-44.64234352111816
 20
18.75806000083685
 30
0
 40
3.499999940395355
 41
161.6805528021524
 71
    1
 72
    1
  1
\fArial|b1|i0;\H3.5000;\LWe ask for release for our production:\P\l\fArial|b0|i0;\H3.5000; \PDate:___________________________\P \PName: ___________________________\P \PSignature:_______________________
  7
aktuell-din
210
0
220
0
230
1
 50
0
 73
    2
 44
0.9442214965820312
  0
ENDBLK
  5
A9
330
A7
100
AcDbEntity
  8
0
100
AcDbBlockEnd
  0
BLOCK
  5
AB
330
AA
100
AcDbEntity
  8
0
100
AcDbBlockBegin
  2
Freigabe(Französisch)
 70
    0
 10
0
 20
0
  3
Freigabe(Französisch)
  1

  0
MTEXT
  5
174
100
AcDbEntity
  8
Symbole(DIN)
  6
ByLayer
 62
    7
370
   -1
100
AcDbMText
 10
-59.52934741973876
 20
18.78740441054105
 30
0
 40
3.499999940395355
 41
171.4027802588235
 71
    1
 72
    1
  1
\fArial|b1|i0;\H3.5000;\LNous demandons l'autorisation pour la production:\P\l\fArial|b0|i0;\H3.5000; \PDate:___________________________\P \PNom: ___________________________\P \PSignature:_______________________
  7
aktuell-din
210
0
220
0
230
1
 50
0
 73
    2
 44
0.9442214965820312
  0
ENDBLK
  5
AC
330
AA
100
AcDbEntity
  8
0
100
AcDbBlockEnd
  0
BLOCK
  5
AE
330
AD
100
AcDbEntity
  8
0
100
AcDbBlockBegin
  2
Freigabe(Spanisch)
 70
    0
 10
0
 20
0
  3
Freigabe(Spanisch)
  1

  0
MTEXT
  5
175
100
AcDbEntity
  8
Symbole(DIN)
  6
ByLayer
 62
    7
370
   -1
100
AcDbMText
 10
-46.81517124176025
 20
18.71937859803438
 30
0
 40
3.499999940395355
 41
166.7361082716124
 71
    1
 72
    1
  1
\fArial|b1|i0;\H3.5000;\LPor favor, dénos permiso para producir:\P\l\fArial|b0|i0;\H3.5000; \PFecha:___________________________\P \PNombre: ___________________________\P \PFirma:_______________________
  7
aktuell-din
210
0
220
0
230
1
 50
0
 73
    2
 44
0.9442214965820312
  0
ENDBLK
  5
AF
330
AD
100
AcDbEntity
  8
0
100
AcDbBlockEnd
  0
BLOCK
  5
B1
330
B0
100
AcDbEntity
  8
0
100
AcDbBlockBegin
  2
Schleifrichtung 30°
 70
    0
 10
0
 20
0
  3
Schleifrichtung 30°
  1

  0
MTEXT
  5
176
100
AcDbEntity
  8
Symbol (ISO)
  6
ByLayer
 62
  256
370
   -1
100
AcDbMText
 10
-1.291992841288447
 20
2.237797244126866
 30
0
 40
2.000000029802322
 41
45.77777803591607
 71
    2
 72
    1
  1
\fAIGDT|b0|i0;\H2.0000;#\P\fArial|b0|i0;\H2.0000;Schleifrichtung
  7
notiztext (din)
210
0
220
0
230
1
 50
29.99999999999999
 73
    2
 44
0.75
  0
ENDBLK
  5
B2
330
B0
100
AcDbEntity
  8
0
100
AcDbBlockEnd
  0
BLOCK
  5
B4
330
B3
100
AcDbEntity
  8
0
100
AcDbBlockBegin
  2
Schleifrichtung 60°
 70
    0
 10
0
 20
0
  3
Schleifrichtung 60°
  1

  0
MTEXT
  5
177
100
AcDbEntity
  8
Symbol (ISO)
  6
ByLayer
 62
  256
370
   -1
100
AcDbMText
 10
-2.237797244126848
 20
1.291992841288447
 30
0
 40
2.000000029802322
 41
45.77777803591607
 71
    2
 72
    1
  1
\fAIGDT|b0|i0;\H2.0000;#\P\fArial|b0|i0;\H2.0000;Schleifrichtung
  7
notiztext (din)
210
0
220
0
230
1
 50
60.00000000000005
 73
    2
 44
0.75
  0
ENDBLK
  5
B5
330
B3
100
AcDbEntity
  8
0
100
AcDbBlockEnd
  0
BLOCK
  5
B7
330
B6
100
AcDbEntity
  8
0
100
AcDbBlockBegin
  2
Schleifrichtung 40°
 70
    0
 10
0
 20
0
  3
Schleifrichtung 40°
  1

  0
MTEXT
  5
178
100
AcDbEntity
  8
Symbol (ISO)
  6
ByLayer
 62
  256
370
   -1
100
AcDbMText
 10
-1.660953980367843
 20
1.979447873236992
 30
0
 40
2.000000029802322
 41
45.77777803591607
 71
    2
 72
    1
  1
\fAIGDT|b0|i0;\H2.0000;#\P\fArial|b0|i0;\H2.0000;Schleifrichtung
  7
notiztext (din)
210
0
220
0
230
1
 50
39.99999999999999
 73
    2
 44
0.75
  0
ENDBLK
  5
B8
330
B6
100
AcDbEntity
  8
0
100
AcDbBlockEnd
  0
BLOCK
  5
BA
330
B9
100
AcDbEntity
  8
0
100
AcDbBlockBegin
  2
Schleifrichtung 90°
 70
    0
 10
0
 20
0
  3
Schleifrichtung 90°
  1

  0
MTEXT
  5
179
100
AcDbEntity
  8
Symbol (ISO)
  6
ByLayer
 62
  256
370
   -1
100
AcDbMText
 10
-2.583985682576894
 20
0
 30
0
 40
2.000000029802322
 41
45.77777803591607
 71
    2
 72
    1
  1
\fAIGDT|b0|i0;\H2.0000;#\P\fArial|b0|i0;\H2.0000;Schleifrichtung
  7
notiztext (din)
210
0
220
0
230
1
 50
89.99999999999991
 73
    2
 44
0.75
  0
ENDBLK
  5
BB
330
B9
100
AcDbEntity
  8
0
100
AcDbBlockEnd
  0
BLOCK
  5
BD
330
BC
100
AcDbEntity
  8
0
100
AcDbBlockBegin
  2
Schleifrichtung 20°
 70
    0
 10
0
 20
0
  3
Schleifrichtung 20°
  1

  0
MTEXT
  5
17A
100
AcDbEntity
  8
Symbol (ISO)
  6
ByLayer
 62
  256
370
   -1
100
AcDbMText
 10
-0.8837751535064342
 20
2.428152278134021
 30
0
 40
2.000000029802322
 41
45.77777803591607
 71
    2
 72
    1
  1
\fAIGDT|b0|i0;\H2.0000;#\P\fArial|b0|i0;\H2.0000;Schleifrichtung
  7
notiztext (din)
210
0
220
0
230
1
 50
20.00000000000012
 73
    2
 44
0.75
  0
ENDBLK
  5
BE
330
BC
100
AcDbEntity
  8
0
100
AcDbBlockEnd
  0
BLOCK
  5
C0
330
BF
100
AcDbEntity
  8
0
100
AcDbBlockBegin
  2
Schleifrichtung 15°
 70
    0
 10
0
 20
0
  3
Schleifrichtung 15°
  1

  0
MTEXT
  5
17B
100
AcDbEntity
  8
Symbol (ISO)
  6
ByLayer
 62
  256
370
   -1
100
AcDbMText
 10
-0.6687847069231267
 20
2.495938505562165
 30
0
 40
2.000000029802322
 41
45.77777803591607
 71
    2
 72
    1
  1
\fAIGDT|b0|i0;\H2.0000;#\P\fArial|b0|i0;\H2.0000;Schleifrichtung
  7
notiztext (din)
210
0
220
0
230
1
 50
15.00000000000012
 73
    2
 44
0.75
  0
ENDBLK
  5
C1
330
BF
100
AcDbEntity
  8
0
100
AcDbBlockEnd
  0
BLOCK
  5
C3
330
C2
100
AcDbEntity
  8
0
100
AcDbBlockBegin
  2
Schleifrichtung -30°
 70
    0
 10
0
 20
0
  3
Schleifrichtung -30°
  1

  0
MTEXT
  5
17C
100
AcDbEntity
  8
Symbol (ISO)
  6
ByLayer
 62
  256
370
   -1
100
AcDbMText
 10
1.291992841288447
 20
2.237797244126795
 30
0
 40
2.000000029802322
 41
45.77777803591607
 71
    2
 72
    1
  1
\fAIGDT|b0|i0;\H2.0000;#\P\fArial|b0|i0;\H2.0000;Schleifrichtung
  7
notiztext (din)
210
0
220
0
230
1
 50
-30.00000000000004
 73
    2
 44
0.75
  0
ENDBLK
  5
C4
330
C2
100
AcDbEntity
  8
0
100
AcDbBlockEnd
  0
BLOCK
  5
C6
330
C5
100
AcDbEntity
  8
0
100
AcDbBlockBegin
  2
Schleifrichtung -15°
 70
    0
 10
0
 20
0
  3
Schleifrichtung -15°
  1

  0
MTEXT
  5
17D
100
AcDbEntity
  8
Symbol (ISO)
  6
ByLayer
 62
  256
370
   -1
100
AcDbMText
 10
0.6687847069231267
 20
2.495938505562236
 30
0
 40
2.000000029802322
 41
45.77777803591607
 71
    2
 72
    1
  1
\fAIGDT|b0|i0;\H2.0000;#\P\fArial|b0|i0;\H2.0000;Schleifrichtung
  7
notiztext (din)
210
0
220
0
230
1
 50
-14.9999999999998
 73
    2
 44
0.75
  0
ENDBLK
  5
C7
330
C5
100
AcDbEntity
  8
0
100
AcDbBlockEnd
  0
BLOCK
  5
C9
330
C8
100
AcDbEntity
  8
0
100
AcDbBlockBegin
  2
Schleifrichtung -40°
 70
    0
 10
0
 20
0
  3
Schleifrichtung -40°
  1

  0
MTEXT
  5
17E
100
AcDbEntity
  8
Symbol (ISO)
  6
ByLayer
 62
  256
370
   -1
100
AcDbMText
 10
1.660953980367843
 20
1.979447873236992
 30
0
 40
2.000000029802322
 41
45.77777803591607
 71
    2
 72
    1
  1
\fAIGDT|b0|i0;\H2.0000;#\P\fArial|b0|i0;\H2.0000;Schleifrichtung
  7
notiztext (din)
210
0
220
0
230
1
 50
-40.00000000000016
 73
    2
 44
0.75
  0
ENDBLK
  5
CA
330
C8
100
AcDbEntity
  8
0
100
AcDbBlockEnd
  0
BLOCK
  5
CC
330
CB
100
AcDbEntity
  8
0
100
AcDbBlockBegin
  2
Schleifrichtung -60°
 70
    0
 10
0
 20
0
  3
Schleifrichtung -60°
  1

  0
MTEXT
  5
17F
100
AcDbEntity
  8
Symbol (ISO)
  6
ByLayer
 62
  256
370
   -1
100
AcDbMText
 10
2.237797244126848
 20
1.291992841288447
 30
0
 40
2.000000029802322
 41
45.77777803591607
 71
    2
 72
    1
  1
\fAIGDT|b0|i0;\H2.0000;#\P\fArial|b0|i0;\H2.0000;Schleifrichtung
  7
notiztext (din)
210
0
220
0
230
1
 50
-59.99999999999974
 73
    2
 44
0.75
  0
ENDBLK
  5
CD
330
CB
100
AcDbEntity
  8
0
100
AcDbBlockEnd
  0
BLOCK
  5
CF
330
CE
100
AcDbEntity
  8
0
100
AcDbBlockBegin
  2
Schleifrichtung -50°
 70
    0
 10
0
 20
0
  3
Schleifrichtung -50°
  1

  0
MTEXT
  5
180
100
AcDbEntity
  8
Symbol (ISO)
  6
ByLayer
 62
  256
370
   -1
100
AcDbMText
 10
1.979447873237027
 20
1.660953980367807
 30
0
 40
2.000000029802322
 41
45.77777803591607
 71
    2
 72
    1
  1
\fAIGDT|b0|i0;\H2.0000;#\P\fArial|b0|i0;\H2.0000;Schleifrichtung
  7
notiztext (din)
210
0
220
0
230
1
 50
-49.99999999999986
 73
    2
 44
0.75
  0
ENDBLK
  5
D0
330
CE
100
AcDbEntity
  8
0
100
AcDbBlockEnd
  0
BLOCK
  5
D2
330
D1
100
AcDbEntity
  8
0
100
AcDbBlockBegin
  2
Flächen Galvanik
 70
    0
 10
0
 20
0
  3
Flächen Galvanik
  1

  0
MTEXT
  5
181
100
AcDbEntity
  8
Symbol (ISO)
  6
ByLayer
 62
    8
370
   -1
100
AcDbMText
 10
-70.91235160827635
 20
11.89210736808782
 30
0
 40
6.99999988079071
 41
179.4722176818141
 71
    1
 72
    1
  1
\fArial|b1|i0;\H7.0000;FLÄCHE SCHLEIFEN!\P
  7
notiztext (din)
210
0
220
0
230
1
 50
0
 73
    2
 44
0.8571428656578063
  0
MTEXT
  5
182
100
AcDbEntity
  8
Symbol (ISO)
  6
ByLayer
 62
    1
370
   -1
100
AcDbMText
 10
-70.91235160827635
 20
3.200806027419123
 30
0
 40
6.99999988079071
 41
219.7222184803757
 71
    1
 72
    1
  1
\fArial|b1|i0;\H7.0000;FLÄCHE NICHT BEARBEITEN!
  7
notiztext (din)
210
0
220
0
230
1
 50
0
 73
    1
 44
1
  0
MTEXT
  5
183
100
AcDbEntity
  8
Symbol (ISO)
  6
ByLayer
 62
    5
370
   -1
100
AcDbMText
 10
-70.91235160827635
 20
-8.518632516837172
 30
0
 40
5
 41
185.6944444444452
 71
    1
 72
    1
  1
\fArial|b0|i0;\H5.0000;ACHTUNG! ALLE KANTEN GRATFREI!
  7
notiztext (din)
210
0
220
0
230
1
 50
0
 73
    1
 44
1
  0
ENDBLK
  5
D3
330
D1
100
AcDbEntity
  8
0
100
AcDbBlockEnd
  0
BLOCK
  5
D5
330
D4
100
AcDbEntity
  8
0
100
AcDbBlockBegin
  2
Duschenglas 8mm
 70
    0
 10
0
 20
0
  3
Duschenglas 8mm
  1

  0
MTEXT
  5
184
100
AcDbEntity
  8
Symbol (ISO)
  6
ByLayer
 62
    5
370
   -1
100
AcDbMText
 10
-45.90224742889404
 20
7.150431517511606
 30
0
 40
2.5
 41
97.84722398587674
 71
    1
 72
    1
  1
ESG 8mm klar gefertigt nach DIN EN14428 (Duschenglas).\PEin entsprechender Nachweis (Stempel) ist erforderlich.\PKanten umlaufend geschliffen und poliert.\PAlle Ecken stoßen oder leicht runden.
  7
notiztext (din)
210
0
220
0
230
1
 50
0
 73
    2
 44
0.9442214965820312
  0
ENDBLK
  5
D6
330
D4
100
AcDbEntity
  8
0
100
AcDbBlockEnd
  0
BLOCK
  5
D8
330
D7
100
AcDbEntity
  8
0
100
AcDbBlockBegin
  2
Außerhalb der AbZ 85
 70
    0
 10
0
 20
0
  3
Außerhalb der AbZ 85
  1

  0
MTEXT
  5
185
100
AcDbEntity
  8
Symbol (ISO)
  6
ByLayer
 62
  256
370
   -1
100
AcDbMText
 10
-61.90739154815673
 20
2.585746762342751
 30
0
 40
5
 41
204.4444444444475
 71
    1
 72
    1
  1
\fArial|b1|i0;\H5.0000;\LVordach außerhalb der AbZ Z-70.3-85
  7
notiztext (din)
210
0
220
0
230
1
 50
0
 73
    1
 44
1
  0
ENDBLK
  5
D9
330
D7
100
AcDbEntity
  8
0
100
AcDbBlockEnd
  0
BLOCK
  5
DB
330
DA
100
AcDbEntity
  8
0
100
AcDbBlockBegin
  2
Duschenglas 6mm
 70
    0
 10
0
 20
0
  3
Duschenglas 6mm
  1

  0
MTEXT
  5
186
100
AcDbEntity
  8
Symbol (ISO)
  6
ByLayer
 62
    5
370
   -1
100
AcDbMText
 10
-45.90224742889404
 20
7.150431517511606
 30
0
 40
2.5
 41
97.84722398587689
 71
    1
 72
    1
  1
ESG 6mm klar gefertigt nach DIN EN14428 (Duschenglas).\PEin entsprechender Nachweis (Stempel) ist erforderlich.\PKanten umlaufend geschliffen und poliert.\PAlle Ecken stoßen oder leicht runden.
  7
notiztext (din)
210
0
220
0
230
1
 50
0
 73
    2
 44
0.9442214965820312
  0
ENDBLK
  5
DC
330
DA
100
AcDbEntity
  8
0
100
AcDbBlockEnd
  0
BLOCK
  5
DE
330
DD
100
AcDbEntity
  8
0
100
AcDbBlockBegin
  2
unbemaßte Kanten R_0_2 runden
 70
    0
 10
0
 20
0
  3
unbemaßte Kanten R_0_2 runden
  1

  0
MTEXT
  5
187
100
AcDbEntity
  8
Symbol (ISO)
  6
ByLayer
 62
  256
370
   -1
100
AcDbMText
 10
-25.96322298049927
 20
1.518673673272132
 30
0
 40
2.5
 41
54.93055555555673
 71
    1
 72
    1
  1
unbemaßte Kanten R=0,2 runden
  7
notiztext (din)
210
0
220
0
230
1
 50
0
 73
    1
 44
1
  0
ENDBLK
  5
DF
330
DD
100
AcDbEntity
  8
0
100
AcDbBlockEnd
  0
BLOCK
  5
E1
330
E0
100
AcDbEntity
  8
0
100
AcDbBlockBegin
  2
Prüfzertifikat nach DIN EN 10204 (3.1) erforderlich
 70
    0
 10
0
 20
0
  3
Prüfzertifikat nach DIN EN 10204 (3.1) erforderlich
  1

  0
MTEXT
  5
188
100
AcDbEntity
  8
Symbol (ISO)
  6
ByLayer
 62
  256
370
   -1
100
AcDbMText
 10
-39.00819301605224
 20
1.638719402253627
 30
0
 40
2.5
 41
86.80555527777867
 71
    1
 72
    1
  1
Prüfzertifikat nach DIN EN 10204 (3.1) erforderlich
  7
notiztext (din)
210
0
220
0
230
1
 50
0
 73
    1
 44
1
  0
ENDBLK
  5
E2
330
E0
100
AcDbEntity
  8
0
100
AcDbBlockEnd
  0
BLOCK
  5
E4
330
E3
100
AcDbEntity
  8
0
100
AcDbBlockBegin
  2
Reinigen
 70
    0
 10
0
 20
0
  3
Reinigen
  1

  0
MTEXT
  5
189
100
AcDbEntity
  8
Symbol (ISO)
  6
ByLayer
 62
  256
370
   -1
100
AcDbMText
 10
-53.57374191284179
 20
3.583934530615806
 30
0
 40
2.5
 41
119.5138914603266
 71
    1
 72
    1
  1
Nach der Bearbeitung von Dreh- und Frästeilen müssen \PBearbeitungsöle und -emulsionen von den Bauteilen entfernt werden.
  7
notiztext (din)
210
0
220
0
230
1
 50
0
 73
    2
 44
0.9442214965820312
  0
ENDBLK
  5
E5
330
E3
100
AcDbEntity
  8
0
100
AcDbBlockEnd
  0
BLOCK
  5
E7
330
E6
100
AcDbEntity
  8
0
100
AcDbBlockBegin
  2
Schleifrichtung rund-2
 70
    0
 10
0
 20
0
  3
Schleifrichtung rund-2
  1

  0
HATCH
  5
18A
100
AcDbEntity
  8
Schraffur (ISO)
  6
ByLayer
 62
  156
420
16512
370
   -1
100
AcDbHatch
 10
0
 20
0
 30
0
210
0
220
0
230
1
  2
SOLID
 70
    1
 71
    0
 91
    1
 92
    0
 93
    3
 72
    1
 10
-10.47794571960972
 20
20.90644694881277
 11
-6.849893015193186
 21
13.46116476233097
 72
    1
 10
-6.849893015193186
 20
13.46116476233097
 11
-3.613318818075255
 21
16.27266978918406
 72
    1
 10
-3.613318818075255
 20
16.27266978918406
 11
-10.47794571960972
 21
20.90644694881277
 97
    0
 75
    0
 76
    1
 98
    0
  0
HATCH
  5
18B
100
AcDbEntity
  8
Schraffur (ISO)
  6
ByLayer
 62
    7
370
   -1
100
AcDbHatch
 10
0
 20
0
 30
0
210
0
220
0
230
1
  2
SOLID
 70
    1
 71
    0
 91
    1
 92
    0
 93
    3
 72
    1
 10
8.373591724927785
 20
-13.05289092354922
 11
9.897290434662391
 21
-20.90644694881275
 72
    1
 10
9.897290434662391
 20
-20.90644694881275
 11
10.47794571960972
 21
-12.6446170847675
 72
    1
 10
10.47794571960972
 20
-12.6446170847675
 11
8.373591724927785
 21
-13.05289092354922
 97
    0
 75
    0
 76
    1
 98
    0
  0
HATCH
  5
18C
100
AcDbEntity
  8
Schraffur (ISO)
  6
ByLayer
 62
    7
370
   -1
100
AcDbHatch
 10
0
 20
0
 30
0
210
0
220
0
230
1
  2
SOLID
 70
    1
 71
    0
 91
    1
 92
    0
 93
    3
 72
    1
 10
8.373591724927785
 20
-13.05289092354922
 11
6.269237730245844
 21
-13.46116476233096
 72
    1
 10
6.269237730245844
 20
-13.46116476233096
 11
9.897290434662391
 21
-20.90644694881275
 72
    1
 10
9.897290434662391
 20
-20.90644694881275
 11
8.373591724927785
 21
-13.05289092354922
 97
    0
 75
    0
 76
    1
 98
    0
  0
HATCH
  5
18D
100
AcDbEntity
  8
Schraffur (ISO)
  6
ByLayer
 62
    7
370
   -1
100
AcDbHatch
 10
0
 20
0
 30
0
210
0
220
0
230
1
  2
SOLID
 70
    1
 71
    0
 91
    1
 92
    0
 93
    3
 72
    1
 10
-5.231605916634229
 20
14.86691727575753
 11
-10.47794571960972
 21
20.90644694881277
 72
    1
 10
-10.47794571960972
 20
20.90644694881277
 11
-6.849893015193186
 21
13.46116476233097
 72
    1
 10
-6.849893015193186
 20
13.46116476233097
 11
-5.231605916634229
 21
14.86691727575753
 97
    0
 75
    0
 76
    1
 98
    0
  0
HATCH
  5
18E
100
AcDbEntity
  8
Schraffur (ISO)
  6
ByLayer
 62
    7
370
   -1
100
AcDbHatch
 10
0
 20
0
 30
0
210
0
220
0
230
1
  2
SOLID
 70
    1
 71
    0
 91
    1
 92
    0
 93
    3
 72
    1
 10
-5.231605916634229
 20
14.86691727575753
 11
-3.613318818075255
 21
16.27266978918406
 72
    1
 10
-3.613318818075255
 20
16.27266978918406
 11
-10.47794571960972
 21
20.90644694881277
 72
    1
 10
-10.47794571960972
 20
20.90644694881277
 11
-5.231605916634229
 21
14.86691727575753
 97
    0
 75
    0
 76
    1
 98
    0
  0
ARC
  5
18F
100
AcDbEntity
  8
Skizziergeometrie (ISO)
  6
ByLayer
 62
  256
370
   -1
100
AcDbCircle
 10
-50.5280784645487
 20
-24.48063124655874
 40
60
100
AcDbArc
 50
10.97976698014274
 51
40.9797669801427
  0
LINE
  5
190
100
AcDbEntity
  8
Skizziergeometrie (ISO)
  6
ByLayer
 62
  256
370
   -1
100
AcDbLine
 10
-5.231605916634229
 20
14.86691727575753
 11
-10.47794571960972
 21
20.90644694881277
  0
LINE
  5
191
100
AcDbEntity
  8
Skizziergeometrie (ISO)
  6
ByLayer
 62
  256
370
   -1
100
AcDbLine
 10
-10.47794571960972
 20
20.90644694881277
 11
-6.849893015193186
 21
13.46116476233097
  0
LINE
  5
192
100
AcDbEntity
  8
Skizziergeometrie (ISO)
  6
ByLayer
 62
  256
370
   -1
100
AcDbLine
 10
-6.849893015193186
 20
13.46116476233097
 11
-3.613318818075255
 21
16.27266978918406
  0
LINE
  5
193
100
AcDbEntity
  8
Skizziergeometrie (ISO)
  6
ByLayer
 62
  256
370
   -1
100
AcDbLine
 10
-3.613318818075255
 20
16.27266978918406
 11
-10.47794571960972
 21
20.90644694881277
  0
LINE
  5
194
100
AcDbEntity
  8
Skizziergeometrie (ISO)
  6
ByLayer
 62
  256
370
   -1
100
AcDbLine
 10
8.373591724927785
 20
-13.05289092354922
 11
9.897290434662391
 21
-20.90644694881275
  0
LINE
  5
195
100
AcDbEntity
  8
Skizziergeometrie (ISO)
  6
ByLayer
 62
  256
370
   -1
100
AcDbLine
 10
9.897290434662391
 20
-20.90644694881275
 11
6.269237730245844
 21
-13.46116476233096
  0
LINE
  5
196
100
AcDbEntity
  8
Skizziergeometrie (ISO)
  6
ByLayer
 62
  256
370
   -1
100
AcDbLine
 10
6.269237730245844
 20
-13.46116476233096
 11
10.47794571960972
 21
-12.6446170847675
  0
LINE
  5
197
100
AcDbEntity
  8
Skizziergeometrie (ISO)
  6
ByLayer
 62
  256
370
   -1
100
AcDbLine
 10
10.47794571960972
 20
-12.6446170847675
 11
9.897290434662391
 21
-20.90644694881275
  0
ENDBLK
  5
E8
330
E6
100
AcDbEntity
  8
0
100
AcDbBlockEnd
  0
BLOCK
  5
EA
330
E9
100
AcDbEntity
  8
0
100
AcDbBlockBegin
  2
EPDM-washer
 70
    0
 10
0
 20
0
  3
EPDM-washer
  1

  0
MTEXT
  5
198
100
AcDbEntity
  8
Symbole(DIN)
  6
ByLayer
 62
    7
370
   -1
100
AcDbMText
 10
-11.25666856765747
 20
1.270007696002721
 30
0
 40
2.5
 41
21.94444573016283
 71
    1
 72
    1
  1
EPDM-washer
  7
aktuell-din
210
0
220
0
230
1
 50
0
 73
    1
 44
1
  0
ENDBLK
  5
EB
330
E9
100
AcDbEntity
  8
0
100
AcDbBlockEnd
  0
BLOCK
  5
ED
330
EC
100
AcDbEntity
  8
0
100
AcDbBlockBegin
  2
isometric view
 70
    0
 10
0
 20
0
  3
isometric view
  1

  0
MTEXT
  5
199
100
AcDbEntity
  8
Symbole(DIN)
  6
ByLayer
 62
    7
370
   -1
100
AcDbMText
 10
-10.96417665481567
 20
1.270007696002721
 30
0
 40
2.5
 41
23.263890174607
 71
    1
 72
    1
  1
isometric view
  7
aktuell-din
210
0
220
0
230
1
 50
0
 73
    1
 44
1
  0
ENDBLK
  5
EE
330
EC
100
AcDbEntity
  8
0
100
AcDbBlockEnd
  0
BLOCK
  5
F0
330
EF
100
AcDbEntity
  8
0
100
AcDbBlockBegin
  2
glazing
 70
    0
 10
0
 20
0
  3
glazing
  1

  0
MTEXT
  5
19A
100
AcDbEntity
  8
Symbole(DIN)
  6
ByLayer
 62
    7
370
   -1
100
AcDbMText
 10
-5.532583594322204
 20
1.616806462407112
 30
0
 40
2.5
 41
10.83333333333391
 71
    1
 72
    1
  1
glazing
  7
aktuell-din
210
0
220
0
230
1
 50
0
 73
    1
 44
1
  0
ENDBLK
  5
F1
330
EF
100
AcDbEntity
  8
0
100
AcDbBlockEnd
  0
BLOCK
  5
F3
330
F2
100
AcDbEntity
  8
0
100
AcDbBlockBegin
  2
countersink screw EN ISO A2
 70
    0
 10
0
 20
0
  3
countersink screw EN ISO A2
  1

  0
MTEXT
  5
19B
100
AcDbEntity
  8
Symbole(DIN)
  6
ByLayer
 62
    7
370
   -1
100
AcDbMText
 10
-16.98551774024963
 20
5.20426383242011
 30
0
 40
2.5
 41
33.40277724777287
 71
    1
 72
    1
  1
countersink screw\PEN ISO 10642 M6x16\Pmaterial: A2
  7
aktuell-din
210
0
220
0
230
1
 50
0
 73
    2
 44
0.9442214965820312
  0
ENDBLK
  5
F4
330
F2
100
AcDbEntity
  8
0
100
AcDbBlockEnd
  0
BLOCK
  5
F6
330
F5
100
AcDbEntity
  8
0
100
AcDbBlockBegin
  2
cylinder head screw EN ISO A2
 70
    0
 10
0
 20
0
  3
cylinder head screw EN ISO A2
  1

  0
MTEXT
  5
19C
100
AcDbEntity
  8
Symbole(DIN)
  6
ByLayer
 62
    7
370
   -1
100
AcDbMText
 10
-16.01467132568359
 20
5.20426383242011
 30
0
 40
2.5
 41
33.47222350794068
 71
    1
 72
    1
  1
cylinder head screw\PEN ISO 4762 M8x20\Pmaterial: A2
  7
aktuell-din
210
0
220
0
230
1
 50
0
 73
    2
 44
0.9442214965820312
  0
ENDBLK
  5
F7
330
F5
100
AcDbEntity
  8
0
100
AcDbBlockEnd
  0
BLOCK
  5
F9
330
F8
100
AcDbEntity
  8
0
100
AcDbBlockBegin
  2
P+S glass clamp
 70
    0
 10
0
 20
0
  3
P+S glass clamp
  1

  0
MTEXT
  5
19D
100
AcDbEntity
  8
Symbole(DIN)
  6
ByLayer
 62
    7
370
   -1
100
AcDbMText
 10
-26.10899209976196
 20
3.277438879013061
 30
0
 40
5
 41
120.8333374161963
 71
    1
 72
    1
  1
\fArial|b0|i0;\H5.0000;P+S glass clamp
  7
aktuell-din
210
0
220
0
230
1
 50
0
 73
    1
 44
1
  0
ENDBLK
  5
FA
330
F8
100
AcDbEntity
  8
0
100
AcDbBlockEnd
  0
ENDSEC
  0
SECTION
  2
ENTITIES
  0
LINE
  5
19E
100
AcDbEntity
  8
Sichtbar (ISO)
  6
ByLayer
 62
  256
370
   -1
100
AcDbLine
 10
239.514889079888
 20
215.8181373866423
 11
239.514889079888
 21
216.7737359609724
  0
LINE
  5
19F
100
AcDbEntity
  8
Sichtbar (ISO)
  6
ByLayer
 62
  256
370
   -1
100
AcDbLine
 10
242.6380579038423
 20
215.8181373866423
 11
239.514889079888
 21
215.8181373866423
  0
LINE
  5
1A0
100
AcDbEntity
  8
Sichtbar (ISO)
  6
ByLayer
 62
  256
370
   -1
100
AcDbLine
 10
242.6380579038377
 20
237.8181373866424
 11
241.329102642261
 21
237.8181373866424
  0
LINE
  5
1A1
100
AcDbEntity
  8
Sichtbar (ISO)
  6
ByLayer
 62
  256
370
   -1
100
AcDbLine
 10
239.514889079888
 20
215.8181373866423
 11
232.414889079888
 21
215.8181373866423
  0
LINE
  5
1A2
100
AcDbEntity
  8
Sichtbar (ISO)
  6
ByLayer
 62
  256
370
   -1
100
AcDbLine
 10
239.914889079888
 20
238.8181373866423
 11
239.914889079888
 21
237.3181373866423
  0
ARC
  5
1A3
100
AcDbEntity
  8
Sichtbar (ISO)
  6
ByLayer
 62
  256
370
   -1
100
AcDbCircle
 10
251.4148890798881
 20
226.8181373866423
 40
15.57241150239751
100
AcDbArc
 50
194.8840948324786
 51
220.1666191898524
  0
ARC
  5
1A4
100
AcDbEntity
  8
Sichtbar (ISO)
  6
ByLayer
 62
  256
370
   -1
100
AcDbCircle
 10
251.414889079888
 20
226.8181373866423
 40
15.57241150239747
100
AcDbArc
 50
137.6025622024999
 51
165.1159051675179
  0
LINE
  5
1A5
100
AcDbEntity
  8
Sichtbar (ISO)
  6
ByLayer
 62
  256
370
   -1
100
AcDbLine
 10
239.914889079888
 20
238.8181373866423
 11
232.414889079888
 21
238.8181373866423
  0
LINE
  5
1A6
100
AcDbEntity
  8
Sichtbar (ISO)
  6
ByLayer
 62
  256
370
   -1
100
AcDbLine
 10
232.514889079888
 20
265.8181373866423
 11
232.414889079888
 21
265.8181373866423
  0
LINE
  5
1A7
100
AcDbEntity
  8
Sichtbar (ISO)
  6
ByLayer
 62
  256
370
   -1
100
AcDbLine
 10
232.414889079888
 20
265.8181373866424
 11
232.414889079888
 21
261.3181373866424
  0
LINE
  5
1A8
100
AcDbEntity
  8
Sichtbar (ISO)
  6
ByLayer
 62
  256
370
   -1
100
AcDbLine
 10
232.414889079888
 20
238.8181373866423
 11
232.414889079888
 21
261.3181373866423
  0
LINE
  5
1A9
100
AcDbEntity
  8
Sichtbar (ISO)
  6
ByLayer
 62
  256
370
   -1
100
AcDbLine
 10
232.414889079888
 20
215.8181373866423
 11
232.414889079888
 21
238.8181373866423
  0
ARC
  5
1AA
100
AcDbEntity
  8
Sichtbar (ISO)
  6
ByLayer
 62
  256
370
   -1
100
AcDbCircle
 10
241.329102642261
 20
239.3181373866424
 40
1.500000000000005
100
AcDbArc
 50
199.4712206344922
 51
270
  0
LINE
  5
1AB
100
AcDbEntity
  8
Sichtbar (ISO)
  6
ByLayer
 62
  256
370
   -1
100
AcDbLine
 10
238.914889079889
 20
231.418137386642
 11
238.914889079889
 21
231.818137386642
  0
LINE
  5
1AC
100
AcDbEntity
  8
Sichtbar (ISO)
  6
ByLayer
 62
  256
370
   -1
100
AcDbLine
 10
241.253688363438
 20
231.818137386642
 11
238.914889079889
 21
231.818137386642
  0
ARC
  5
1AD
100
AcDbEntity
  8
Sichtbar (ISO)
  6
ByLayer
 62
  256
370
   -1
100
AcDbCircle
 10
241.253688363438
 20
239.8181373866417
 40
7.99999999999976
100
AcDbArc
 50
270.0000000000002
 51
278.3459706368546
  0
LINE
  5
1AE
100
AcDbEntity
  8
Sichtbar (ISO)
  6
ByLayer
 62
  256
370
   -1
100
AcDbLine
 10
238.9148890798889
 20
220.8181373866428
 11
238.9148890798889
 21
222.8181373866431
  0
LINE
  5
1AF
100
AcDbEntity
  8
Sichtbar (ISO)
  6
ByLayer
 62
  256
370
   -1
100
AcDbLine
 10
238.9148890798889
 20
230.8181373866425
 11
238.914889079889
 21
231.418137386642
  0
LINE
  5
1B0
100
AcDbEntity
  8
Sichtbar (ISO)
  6
ByLayer
 62
  256
370
   -1
100
AcDbLine
 10
238.914889079889
 20
220.3541784222922
 11
238.9148890798889
 21
220.8181373866428
  0
LINE
  5
1B1
100
AcDbEntity
  8
Sichtbar (ISO)
  6
ByLayer
 62
  256
370
   -1
100
AcDbLine
 10
310.4148890798835
 20
221.3181373866428
 11
310.4148890798835
 21
215.8181373866432
  0
ARC
  5
1B2
100
AcDbEntity
  8
Sichtbar (ISO)
  6
ByLayer
 62
  256
370
   -1
100
AcDbCircle
 10
251.414889079888
 20
226.8181373866423
 40
14.07241150239642
100
AcDbArc
 50
207.3442404654072
 51
231.4138525222044
  0
LINE
  5
1B3
100
AcDbEntity
  8
Sichtbar (ISO)
  6
ByLayer
 62
  256
370
   -1
100
AcDbLine
 10
310.4148890798835
 20
215.8181373866432
 11
242.638057903843
 21
215.8181373866431
  0
ARC
  5
1B4
100
AcDbEntity
  8
Sichtbar (ISO)
  6
ByLayer
 62
  256
370
   -1
100
AcDbCircle
 10
255.812804841544
 20
218.318137386643
 40
2.999999999999764
100
AcDbArc
 50
90
 51
113.5564643091011
  0
ARC
  5
1B5
100
AcDbEntity
  8
Sichtbar (ISO)
  6
ByLayer
 62
  256
370
   -1
100
AcDbCircle
 10
253.4148890798879
 20
223.8181373866426
 40
2.999999999999775
100
AcDbArc
 50
269.9999999999993
 51
293.5564643091002
  0
LINE
  5
1B6
100
AcDbEntity
  8
Sichtbar (ISO)
  6
ByLayer
 62
  256
370
   -1
100
AcDbLine
 10
310.4148890798835
 20
221.3181373866428
 11
255.812804841544
 21
221.3181373866428
  0
LINE
  5
1B7
100
AcDbEntity
  8
Sichtbar (ISO)
  6
ByLayer
 62
  256
370
   -1
100
AcDbLine
 10
253.4148890798879
 20
220.8181373866428
 11
238.9148890798889
 21
220.8181373866428
  0
LINE
  5
1B8
100
AcDbEntity
  8
Sichtbar (ISO)
  6
ByLayer
 62
  256
370
   -1
100
AcDbLine
 10
242.4148890798856
 20
220.8181373866428
 11
242.4148890798856
 21
222.0181373866429
  0
LINE
  5
1B9
100
AcDbEntity
  8
Sichtbar (ISO)
  6
ByLayer
 62
  256
370
   -1
100
AcDbLine
 10
245.9148890798857
 20
222.0181373866428
 11
242.4148890798856
 21
222.0181373866428
  0
LINE
  5
1BA
100
AcDbEntity
  8
Sichtbar (ISO)
  6
ByLayer
 62
  256
370
   -1
100
AcDbLine
 10
245.9148890798857
 20
222.0181373866428
 11
305.714889079886
 21
222.0181373866429
  0
LINE
  5
1BB
100
AcDbEntity
  8
Sichtbar (ISO)
  6
ByLayer
 62
  256
370
   -1
100
AcDbLine
 10
309.2148890798859
 20
222.0181373866428
 11
305.714889079886
 21
222.0181373866428
  0
LINE
  5
1BC
100
AcDbEntity
  8
Sichtbar (ISO)
  6
ByLayer
 62
  256
370
   -1
100
AcDbLine
 10
309.2148890798859
 20
221.3181373866424
 11
309.2148890798859
 21
222.0181373866429
  0
LINE
  5
1BD
100
AcDbEntity
  8
Sichtbar (ISO)
  6
ByLayer
 62
  256
370
   -1
100
AcDbLine
 10
242.4148890798854
 20
231.6181373866424
 11
242.4148890798854
 21
232.3181373866425
  0
LINE
  5
1BE
100
AcDbEntity
  8
Sichtbar (ISO)
  6
ByLayer
 62
  256
370
   -1
100
AcDbLine
 10
245.9148890798855
 20
231.6181373866424
 11
242.4148890798854
 21
231.6181373866424
  0
LINE
  5
1BF
100
AcDbEntity
  8
Sichtbar (ISO)
  6
ByLayer
 62
  256
370
   -1
100
AcDbLine
 10
245.9148890798855
 20
231.6181373866423
 11
305.7148890798851
 21
231.6181373866424
  0
LINE
  5
1C0
100
AcDbEntity
  8
Sichtbar (ISO)
  6
ByLayer
 62
  256
370
   -1
100
AcDbLine
 10
309.214889079885
 20
231.6181373866424
 11
305.7148890798851
 21
231.6181373866424
  0
LINE
  5
1C1
100
AcDbEntity
  8
Sichtbar (ISO)
  6
ByLayer
 62
  256
370
   -1
100
AcDbLine
 10
309.214889079885
 20
231.6181373866424
 11
309.214889079885
 21
232.3181373866424
  0
LINE
  5
1C2
100
AcDbEntity
  8
Sichtbar (ISO)
  6
ByLayer
 62
  256
370
   -1
100
AcDbLine
 10
242.4148890798853
 20
230.8181373866429
 11
242.4148890798853
 21
232.3181373866425
  0
LINE
  5
1C3
100
AcDbEntity
  8
Sichtbar (ISO)
  6
ByLayer
 62
  256
370
   -1
100
AcDbLine
 10
309.214889079885
 20
230.8181373866429
 11
309.214889079885
 21
232.3181373866424
  0
LINE
  5
1C4
100
AcDbEntity
  8
Sichtbar (ISO)
  6
ByLayer
 62
  256
370
   -1
100
AcDbLine
 10
242.4148890798856
 20
220.8181373866428
 11
242.4148890798856
 21
222.818137386643
  0
LINE
  5
1C5
100
AcDbEntity
  8
Sichtbar (ISO)
  6
ByLayer
 62
  256
370
   -1
100
AcDbLine
 10
309.2148890798859
 20
221.3181373866424
 11
309.2148890798859
 21
222.818137386643
  0
LINE
  5
1C6
100
AcDbEntity
  8
Sichtbar (ISO)
  6
ByLayer
 62
  256
370
   -1
100
AcDbLine
 10
242.4148890798853
 20
230.8181373866429
 11
242.4148890798853
 21
232.3181373866425
  0
LINE
  5
1C7
100
AcDbEntity
  8
Sichtbar (ISO)
  6
ByLayer
 62
  256
370
   -1
100
AcDbLine
 10
309.214889079885
 20
230.8181373866429
 11
309.214889079885
 21
232.3181373866424
  0
LINE
  5
1C8
100
AcDbEntity
  8
Sichtbar (ISO)
  6
ByLayer
 62
  256
370
   -1
100
AcDbLine
 10
242.4148890798856
 20
220.8181373866428
 11
242.4148890798856
 21
222.818137386643
  0
LINE
  5
1C9
100
AcDbEntity
  8
Sichtbar (ISO)
  6
ByLayer
 62
  256
370
   -1
100
AcDbLine
 10
309.2148890798859
 20
221.3181373866424
 11
309.2148890798859
 21
222.8181373866429
  0
LINE
  5
1CA
100
AcDbEntity
  8
Sichtbar (ISO)
  6
ByLayer
 62
  256
370
   -1
100
AcDbLine
 10
239.914889079888
 20
238.8181373866423
 11
239.914889079888
 21
267.3181373866424
  0
LINE
  5
1CB
100
AcDbEntity
  8
Sichtbar (ISO)
  6
ByLayer
 62
  256
370
   -1
100
AcDbLine
 10
232.514889079888
 20
267.3181373866424
 11
232.514889079888
 21
238.8181373866423
  0
LINE
  5
1CC
100
AcDbEntity
  8
Sichtbar (ISO)
  6
ByLayer
 62
  256
370
   -1
100
AcDbLine
 10
232.514889079888
 20
238.8181373866423
 11
239.914889079888
 21
238.8181373866423
  0
LINE
  5
1CD
100
AcDbEntity
  8
Sichtbar (ISO)
  6
ByLayer
 62
  256
370
   -1
100
AcDbLine
 10
232.514889079888
 20
267.3181373866424
 11
239.914889079888
 21
267.3181373866424
  0
LINE
  5
1CE
100
AcDbEntity
  8
Sichtbar (ISO)
  6
ByLayer
 62
  256
370
   -1
100
AcDbLine
 10
242.6380579038378
 20
237.8181373866424
 11
310.4148890798835
 21
237.8181373866422
  0
ARC
  5
1CF
100
AcDbEntity
  8
Sichtbar (ISO)
  6
ByLayer
 62
  256
370
   -1
100
AcDbCircle
 10
251.4148890798835
 20
226.8181373866425
 40
14.07241150239739
100
AcDbArc
 50
128.5861474777962
 51
152.6557595345932
  0
LINE
  5
1D0
100
AcDbEntity
  8
Sichtbar (ISO)
  6
ByLayer
 62
  256
370
   -1
100
AcDbLine
 10
238.9148890798836
 20
232.3181373866424
 11
238.9148890798836
 21
233.282096350993
  0
LINE
  5
1D1
100
AcDbEntity
  8
Sichtbar (ISO)
  6
ByLayer
 62
  256
370
   -1
100
AcDbLine
 10
310.4148890798835
 20
232.3181373866423
 11
238.9148890798835
 21
232.3181373866424
  0
LINE
  5
1D2
100
AcDbEntity
  8
Sichtbar (ISO)
  6
ByLayer
 62
  256
370
   -1
100
AcDbLine
 10
310.4148890798835
 20
237.8181373866422
 11
310.4148890798835
 21
232.3181373866423
  0
LINE
  5
1D3
100
AcDbEntity
  8
Sichtbar (ISO)
  6
ByLayer
 62
  256
370
   -1
100
AcDbLine
 10
235.4148890798881
 20
230.8181373866428
 11
325.4148890798882
 21
230.8181373866429
  0
LINE
  5
1D4
100
AcDbEntity
  8
Sichtbar (ISO)
  6
ByLayer
 62
  256
370
   -1
100
AcDbLine
 10
235.4148890798881
 20
230.8181373866428
 11
235.4148890798881
 21
222.8181373866429
  0
LINE
  5
1D5
100
AcDbEntity
  8
Sichtbar (ISO)
  6
ByLayer
 62
  256
370
   -1
100
AcDbLine
 10
325.4148890798882
 20
222.8181373866429
 11
235.4148890798881
 21
222.8181373866429
  0
LINE
  5
1D6
100
AcDbEntity
  8
Sichtbar (ISO)
  6
ByLayer
 62
  256
370
   -1
100
AcDbLine
 10
325.4148890798882
 20
222.8181373866429
 11
325.4148890798882
 21
230.8181373866429
  0
ARC
  5
1D7
100
AcDbEntity
  8
Sichtbar (ISO)
  6
ByLayer
 62
  256
370
   -1
100
AcDbCircle
 10
295.9148890798882
 20
235.8181373866427
 40
25
100
AcDbArc
 50
0
 51
67.69484138154753
  0
LINE
  5
1D8
100
AcDbEntity
  8
Sichtbar (ISO)
  6
ByLayer
 62
  256
370
   -1
100
AcDbLine
 10
320.9148890798881
 20
235.8181373866427
 11
325.4148890798882
 21
235.8181373866427
  0
ARC
  5
1D9
100
AcDbEntity
  8
Sichtbar (ISO)
  6
ByLayer
 62
  256
370
   -1
100
AcDbCircle
 10
295.9148890798882
 20
235.8181373866427
 40
29.49999999999999
100
AcDbArc
 50
0
 51
69.79780506887406
  0
LINE
  5
1DA
100
AcDbEntity
  8
Sichtbar (ISO)
  6
ByLayer
 62
  256
370
   -1
100
AcDbLine
 10
306.1022465421526
 20
263.5032913131797
 11
307.4956256524639
 21
266.2124243386569
  0
LINE
  5
1DB
100
AcDbEntity
  8
Sichtbar (ISO)
  6
ByLayer
 62
  256
370
   -1
100
AcDbLine
 10
305.7675066069456
 20
256.2178871820502
 11
304.4764292488344
 21
258.333487719603
  0
LINE
  5
1DC
100
AcDbEntity
  8
Sichtbar (ISO)
  6
ByLayer
 62
  256
370
   -1
100
AcDbLine
 10
305.7675066069456
 20
256.2178871820502
 11
305.4033755582371
 21
258.9475261453235
  0
SPLINE
  5
1DD
100
AcDbEntity
  8
Sichtbar (ISO)
  6
ByLayer
 62
  256
370
   -1
100
AcDbSpline
210
0
220
0
230
0
 70
    8
 71
    3
 72
   18
 73
   14
 74
    0
 42
1e-007
 43
1e-007
 40
0
 40
0
 40
0
 40
0
 40
0.02002717699594
 40
0.02002717699594
 40
0.044545871881488
 40
0.044545871881488
 40
0.0833055248065748
 40
0.0833055248065748
 40
0.148958115181627
 40
0.148958115181627
 40
0.2120326979996595
 40
0.2120326979996595
 40
0.2127169956761196
 40
0.2127169956761196
 40
0.2127169956761196
 40
0.2127169956761196
 10
305.4033755582371
 20
258.9475261453235
 30
0
 10
305.4033755582371
 20
258.9475261453235
 30
0
 10
305.3952295692856
 20
258.9580921178813
 30
0
 10
305.361940837819
 20
259.0011874358268
 30
0
 10
305.3340718751116
 20
259.0372264371414
 30
0
 10
305.249055652701
 20
259.1467816644309
 30
0
 10
305.1828934124909
 20
259.2316941619209
 30
0
 10
304.9974956909242
 20
259.4680500329867
 30
0
 10
304.851722644886
 20
259.6523503813695
 30
0
 10
304.5296816094396
 20
260.053250506984
 30
0
 10
304.3624744796066
 20
260.258734684282
 30
0
 10
304.1956127895002
 20
260.4610847422935
 30
0
 10
304.1938217731751
 20
260.4632563693509
 30
0
 10
304.1920306113468
 20
260.4654278679147
 30
0
  0
LINE
  5
1DE
100
AcDbEntity
  8
Sichtbar (ISO)
  6
ByLayer
 62
  256
370
   -1
100
AcDbLine
 10
295.9148890798882
 20
263.0681373866428
 11
298.2464938029299
 21
262.66498809965
  0
LINE
  5
1DF
100
AcDbEntity
  8
Sichtbar (ISO)
  6
ByLayer
 62
  256
370
   -1
100
AcDbLine
 10
295.9148890798882
 20
263.0681373866428
 11
305.7675066069456
 21
256.2178871820502
  0
LINE
  5
1E0
100
AcDbEntity
  8
Sichtbar (ISO)
  6
ByLayer
 62
  256
370
   -1
100
AcDbLine
 10
307.4956256524639
 20
266.2124243386569
 11
305.569140913207
 21
264.6531607533284
  0
LINE
  5
1E1
100
AcDbEntity
  8
Sichtbar (ISO)
  6
ByLayer
 62
  256
370
   -1
100
AcDbLine
 10
307.4956256524639
 20
266.2124243386569
 11
295.9148890798882
 21
263.0681373866428
  0
SPLINE
  5
1E2
100
AcDbEntity
  8
Sichtbar (ISO)
  6
ByLayer
 62
  256
370
   -1
100
AcDbSpline
210
0
220
0
230
0
 70
    8
 71
    3
 72
   18
 73
   14
 74
    0
 42
1e-007
 43
1e-007
 40
-0.0006900732479622
 40
-0.0006900732479622
 40
-0.0006900732479622
 40
-0.0006900732479622
 40
0
 40
0
 40
0.052076942320704
 40
0.052076942320704
 40
0.1005381486776573
 40
0.1005381486776573
 40
0.1433324279049918
 40
0.1433324279049918
 40
0.1742262417633141
 40
0.1742262417633141
 40
0.2008645961684354
 40
0.2008645961684354
 40
0.2008645961684354
 40
0.2008645961684354
 10
304.6854704464138
 20
262.9350491299285
 30
0
 10
304.6875966766608
 20
262.9359267791362
 30
0
 10
304.6897229508839
 20
262.9368043316997
 30
0
 10
304.8523123961056
 20
263.0038992169694
 30
0
 10
305.0145202676823
 20
263.0701630646296
 30
0
 10
305.3164621279784
 20
263.1923475353043
 30
0
 10
305.4600359580559
 20
263.2499001839029
 30
0
 10
305.7072749459123
 20
263.348253827219
 30
0
 10
305.8160077350733
 20
263.3911650079815
 30
0
 10
305.9677946047075
 20
263.4507878215047
 30
0
 10
306.0205417699236
 20
263.4714097733889
 30
0
 10
306.0859962722195
 20
263.4969640391171
 30
0
 10
306.1022465421526
 20
263.5032913131797
 30
0
 10
306.1022465421526
 20
263.5032913131797
 30
0
  0
SPLINE
  5
1E3
100
AcDbEntity
  8
Sichtbar (ISO)
  6
ByLayer
 62
  256
370
   -1
100
AcDbSpline
210
0
220
0
230
0
 70
    8
 71
    3
 72
   18
 73
   14
 74
    0
 42
1e-007
 43
1e-007
 40
-0.0006433994800897
 40
-0.0006433994800897
 40
-0.0006433994800897
 40
-0.0006433994800897
 40
0
 40
0
 40
0.045551712664149
 40
0.045551712664149
 40
0.08865231016050409
 40
0.08865231016050409
 40
0.1317284265166483
 40
0.1317284265166483
 40
0.1640587251217467
 40
0.1640587251217467
 40
0.192392043982726
 40
0.192392043982726
 40
0.192392043982726
 40
0.192392043982726
 10
324.3973398171403
 20
236.8181373866427
 30
0
 10
324.3988827002726
 20
236.8166477224799
 30
0
 10
324.400425524971
 20
236.8151579936926
 30
0
 10
324.5111929881251
 20
236.708193875199
 30
0
 10
324.6208045808694
 20
236.6017234219622
 30
0
 10
324.8264095743332
 20
236.4009166193635
 30
0
 10
324.9241802857733
 20
236.3049025842312
 30
0
 10
325.1043836420296
 20
236.1271462155794
 30
0
 10
325.1879980292459
 20
236.0442344150893
 30
0
 10
325.3071404781755
 20
235.9257334396038
 30
0
 10
325.3491354313679
 20
235.8838310976922
 30
0
 10
325.4017819698924
 20
235.8312518325252
 30
0
 10
325.4148890798882
 20
235.8181373866427
 30
0
 10
325.4148890798882
 20
235.8181373866427
 30
0
  0
SPLINE
  5
1E4
100
AcDbEntity
  8
Sichtbar (ISO)
  6
ByLayer
 62
  256
370
   -1
100
AcDbSpline
210
0
220
0
230
0
 70
    8
 71
    3
 72
   18
 73
   14
 74
    0
 42
1e-007
 43
1e-007
 40
-0.1888024440799916
 40
-0.1888024440799916
 40
-0.1888024440799916
 40
-0.1888024440799916
 40
-0.1881878451224395
 40
-0.1881878451224395
 40
-0.1447077253374638
 40
-0.1447077253374638
 40
-0.1030213431747049
 40
-0.1030213431747049
 40
-0.0601646066784886
 40
-0.0601646066784886
 40
-0.0280630261739818
 40
-0.0280630261739818
 40
0
 40
0
 40
0
 40
0
 10
321.8956511934213
 20
236.8181373866427
 30
0
 10
321.8942176810719
 20
236.8166476369093
 30
0
 10
321.8927841054793
 20
236.8151579447496
 30
0
 10
321.7899277166615
 20
236.7082841442061
 30
0
 10
321.687630628365
 20
236.6026248611
 30
0
 10
321.493396494974
 20
236.4031574460114
 30
0
 10
321.3999906323488
 20
236.3077953644117
 30
0
 10
321.2243278135279
 20
236.1293325785025
 30
0
 10
321.1411966283711
 20
236.0453772220487
 30
0
 10
321.0225602703537
 20
235.9259888124197
 30
0
 10
320.9805872713446
 20
235.8839061615821
 30
0
 10
320.9280069026063
 20
235.8312466209499
 30
0
 10
320.9148890798881
 20
235.8181373866427
 30
0
 10
320.9148890798881
 20
235.8181373866427
 30
0
  0
SPLINE
  5
1E5
100
AcDbEntity
  8
Sichtbar (ISO)
  6
ByLayer
 62
  256
370
   -1
100
AcDbSpline
210
0
220
0
230
0
 70
    8
 71
    3
 72
   18
 73
   14
 74
    0
 42
1e-007
 43
1e-007
 40
-0.0008444702507317
 40
-0.0008444702507317
 40
-0.0008444702507317
 40
-0.0008444702507317
 40
0
 40
0
 40
0.0778383598031728
 40
0.0778383598031728
 40
0.1588581576901741
 40
0.1588581576901741
 40
0.2066902268928183
 40
0.2066902268928183
 40
0.236947977466366
 40
0.236947977466366
 40
0.2616628870104464
 40
0.2616628870104464
 40
0.2616628870104464
 40
0.2616628870104464
 10
304.1920306113468
 20
193.1708469053707
 30
0
 10
304.1938217731758
 20
193.1730184039356
 30
0
 10
304.1956127894997
 20
193.1751900309912
 30
0
 10
304.3624744796289
 20
193.3775400890326
 30
0
 10
304.5296816094433
 20
193.5830242663061
 30
0
 10
304.8517226448855
 20
193.9839243919154
 30
0
 10
304.9974956909239
 20
194.1682247402983
 30
0
 10
305.182893412491
 20
194.4045806113647
 30
0
 10
305.249055652701
 20
194.4894931088547
 30
0
 10
305.3340718751116
 20
194.5990483361441
 30
0
 10
305.361940837819
 20
194.6350873374587
 30
0
 10
305.3952295692856
 20
194.6781826554042
 30
0
 10
305.4033755582371
 20
194.688748627962
 30
0
 10
305.4033755582371
 20
194.688748627962
 30
0
  0
LINE
  5
1E6
100
AcDbEntity
  8
Sichtbar (ISO)
  6
ByLayer
 62
  256
370
   -1
100
AcDbLine
 10
305.4033755582371
 20
194.688748627962
 11
305.7675066069456
 21
197.4183875912353
  0
LINE
  5
1E7
100
AcDbEntity
  8
Sichtbar (ISO)
  6
ByLayer
 62
  256
370
   -1
100
AcDbLine
 10
305.7675066069456
 20
197.4183875912354
 11
304.4764292488345
 21
195.3027870536825
  0
SPLINE
  5
1E8
100
AcDbEntity
  8
Sichtbar (ISO)
  6
ByLayer
 62
  256
370
   -1
100
AcDbSpline
210
0
220
0
230
0
 70
    8
 71
    3
 72
   18
 73
   14
 74
    0
 42
1e-007
 43
1e-007
 40
-0.0006202322734978
 40
-0.0006202322734978
 40
-0.0006202322734978
 40
-0.0006202322734978
 40
0
 40
0
 40
0.0438786516266022
 40
0.0438786516266022
 40
0.0859471245178286
 40
0.0859471245178286
 40
0.1291966790236158
 40
0.1291966790236158
 40
0.1615924974936979
 40
0.1615924974936979
 40
0.1899127448885523
 40
0.1899127448885523
 40
0.1899127448885523
 40
0.1899127448885523
 10
321.8956511934213
 20
216.8181373866428
 30
0
 10
321.8942176810721
 20
216.8196271363761
 30
0
 10
321.8927841054791
 20
216.8211168285361
 30
0
 10
321.7899277166655
 20
216.9279906290761
 30
0
 10
321.6876306283657
 20
217.0336499121849
 30
0
 10
321.493396494974
 20
217.2331173272741
 30
0
 10
321.3999906323489
 20
217.3284794088739
 30
0
 10
321.2243278135279
 20
217.506942194783
 30
0
 10
321.1411966283711
 20
217.5908975512369
 30
0
 10
321.0225602703537
 20
217.7102859608658
 30
0
 10
320.9805872713446
 20
217.7523686117035
 30
0
 10
320.9280069026063
 20
217.8050281523356
 30
0
 10
320.9148890798881
 20
217.8181373866428
 30
0
 10
320.9148890798881
 20
217.8181373866428
 30
0
  0
ARC
  5
1E9
100
AcDbEntity
  8
Sichtbar (ISO)
  6
ByLayer
 62
  256
370
   -1
100
AcDbCircle
 10
295.9148890798882
 20
217.8181373866428
 40
25
100
AcDbArc
 50
292.3051586184525
 51
0
  0
LINE
  5
1EA
100
AcDbEntity
  8
Sichtbar (ISO)
  6
ByLayer
 62
  256
370
   -1
100
AcDbLine
 10
307.4956256524639
 20
187.4238504346286
 11
305.5691409132071
 21
188.9831140199571
  0
LINE
  5
1EB
100
AcDbEntity
  8
Sichtbar (ISO)
  6
ByLayer
 62
  256
370
   -1
100
AcDbLine
 10
307.4956256524639
 20
187.4238504346285
 11
306.1022465421526
 21
190.1329834601058
  0
SPLINE
  5
1EC
100
AcDbEntity
  8
Sichtbar (ISO)
  6
ByLayer
 62
  256
370
   -1
100
AcDbSpline
210
0
220
0
230
0
 70
    8
 71
    3
 72
   18
 73
   14
 74
    0
 42
1e-007
 43
1e-007
 40
0
 40
0
 40
0
 40
0
 40
0.0263416040920467
 40
0.0263416040920467
 40
0.0568912619715498
 40
0.0568912619715498
 40
0.0992088144624922
 40
0.0992088144624922
 40
0.1471301647179941
 40
0.1471301647179941
 40
0.1986269717679979
 40
0.1986269717679979
 40
0.1993093576247007
 40
0.1993093576247007
 40
0.1993093576247007
 40
0.1993093576247007
 10
306.1022465421526
 20
190.1329834601058
 30
0
 10
306.1022465421526
 20
190.1329834601058
 30
0
 10
306.0859962722195
 20
190.1393107341684
 30
0
 10
306.0205417699236
 20
190.1648649998966
 30
0
 10
305.9677946047076
 20
190.1854869517808
 30
0
 10
305.8160077350733
 20
190.2451097653041
 30
0
 10
305.7072749459123
 20
190.2880209460666
 30
0
 10
305.460035958056
 20
190.3863745893827
 30
0
 10
305.3164621279785
 20
190.4439272379812
 30
0
 10
305.0145202676831
 20
190.5661117086556
 30
0
 10
304.8523123961103
 20
190.6323755563145
 30
0
 10
304.6897229508839
 20
190.6994704415859
 30
0
 10
304.6875966766608
 20
190.7003479941493
 30
0
 10
304.6854704464138
 20
190.7012256433569
 30
0
  0
ARC
  5
1ED
100
AcDbEntity
  8
Sichtbar (ISO)
  6
ByLayer
 62
  256
370
   -1
100
AcDbCircle
 10
295.9148890798882
 20
217.8181373866428
 40
29.49999999999999
100
AcDbArc
 50
290.202194931126
 51
0
  0
SPLINE
  5
1EE
100
AcDbEntity
  8
Sichtbar (ISO)
  6
ByLayer
 62
  256
370
   -1
100
AcDbSpline
210
0
220
0
230
0
 70
    8
 71
    3
 72
   18
 73
   14
 74
    0
 42
1e-007
 43
1e-007
 40
0
 40
0
 40
0
 40
0
 40
0.0280611086154845
 40
0.0280611086154845
 40
0.060080796290623
 40
0.060080796290623
 40
0.1027430620750846
 40
0.1027430620750846
 40
0.1454295737990318
 40
0.1454295737990318
 40
0.1905436517843627
 40
0.1905436517843627
 40
0.1911808698519868
 40
0.1911808698519868
 40
0.1911808698519868
 40
0.1911808698519868
 10
325.4148890798882
 20
217.8181373866428
 30
0
 10
325.4148890798882
 20
217.8181373866428
 30
0
 10
325.4017819698924
 20
217.8050229407604
 30
0
 10
325.3491354313679
 20
217.7524436755933
 30
0
 10
325.3071404781755
 20
217.7105413336818
 30
0
 10
325.1879980292459
 20
217.5920403581963
 30
0
 10
325.1043836420294
 20
217.5091285577061
 30
0
 10
324.9241802857733
 20
217.3313721890543
 30
0
 10
324.8264095743332
 20
217.2353581539221
 30
0
 10
324.6208045808704
 20
217.0345513513244
 30
0
 10
324.5111929881308
 20
216.9280808980932
 30
0
 10
324.4004255249708
 20
216.8211167795928
 30
0
 10
324.3988827002726
 20
216.8196270508058
 30
0
 10
324.3973398171403
 20
216.8181373866428
 30
0
  0
LINE
  5
1EF
100
AcDbEntity
  8
Sichtbar (ISO)
  6
ByLayer
 62
  256
370
   -1
100
AcDbLine
 10
325.4148890798882
 20
217.8181373866428
 11
320.9148890798881
 21
217.8181373866428
  0
LINE
  5
1F0
100
AcDbEntity
  8
Sichtbar (ISO)
  6
ByLayer
 62
  256
370
   -1
100
AcDbLine
 10
295.9148890798882
 20
190.5681373866427
 11
298.2464938029299
 21
190.9712866736356
  0
LINE
  5
1F1
100
AcDbEntity
  8
Sichtbar (ISO)
  6
ByLayer
 62
  256
370
   -1
100
AcDbLine
 10
295.9148890798882
 20
190.5681373866428
 11
307.4956256524639
 21
187.4238504346286
  0
LINE
  5
1F2
100
AcDbEntity
  8
Sichtbar (ISO)
  6
ByLayer
 62
  256
370
   -1
100
AcDbLine
 10
305.7675066069456
 20
197.4183875912353
 11
295.9148890798882
 21
190.5681373866427
  0
LINE
  5
1F3
100
AcDbEntity
  8
Sichtbar (ISO)
  6
ByLayer
 62
  256
370
   -1
100
AcDbLine
 10
76.38632440643661
 20
126.2313110215461
 11
75.71061417443561
 21
126.6214325058861
  0
LINE
  5
1F4
100
AcDbEntity
  8
Sichtbar (ISO)
  6
ByLayer
 62
  256
370
   -1
100
AcDbLine
 10
76.3863244064366
 20
110.7587008129657
 11
76.3863244064366
 21
126.2313110215461
  0
LINE
  5
1F5
100
AcDbEntity
  8
Sichtbar (ISO)
  6
ByLayer
 62
  256
370
   -1
100
AcDbLine
 10
84.8008951025565
 20
115.6168554694856
 11
76.38632440643659
 21
110.7587008129657
  0
LINE
  5
1F6
100
AcDbEntity
  8
Sichtbar (ISO)
  6
ByLayer
 62
  256
370
   -1
100
AcDbLine
 10
84.8008951025565
 20
94.30629470727199
 11
76.38632440643657
 21
89.44814005075204
  0
LINE
  5
1F7
100
AcDbEntity
  8
Sichtbar (ISO)
  6
ByLayer
 62
  256
370
   -1
100
AcDbLine
 10
81.84793049050984
 20
99.41914624434595
 11
84.8008951025565
 21
101.1240411580185
  0
LINE
  5
1F8
100
AcDbEntity
  8
Sichtbar (ISO)
  6
ByLayer
 62
  256
370
   -1
100
AcDbLine
 10
84.8008951025565
 20
108.7991090187391
 11
81.84793049050985
 21
107.0942141050665
  0
ELLIPSE
  5
1F9
100
AcDbEntity
  8
Sichtbar (ISO)
  6
ByLayer
 62
  256
370
   -1
100
AcDbEllipse
 10
77.02272050950442
 20
120.1075866645882
 30
0
 11
11.00000000000007
 21
-1.11e-014
 31
0
 40
0.5773502691896253
 41
5.497787143782137
 42
5.856459662517574
  0
ELLIPSE
  5
1FA
100
AcDbEntity
  8
Sichtbar (ISO)
  6
ByLayer
 62
  256
370
   -1
100
AcDbEllipse
 10
77.02272050950445
 20
113.2898402138416
 30
0
 11
11.00000000000003
 21
-2.58e-014
 31
0
 40
0.5773502691896252
 41
5.497787143782145
 42
6.283185307179596
  0
ELLIPSE
  5
1FB
100
AcDbEntity
  8
Sichtbar (ISO)
  6
ByLayer
 62
  256
370
   -1
100
AcDbEllipse
 10
77.02272050950442
 20
98.79702590237456
 30
0
 11
11.00000000000004
 21
-3.72e-014
 31
0
 40
0.5773502691896253
 41
5.497787143782153
 42
6.283185307179603
  0
ELLIPSE
  5
1FC
100
AcDbEntity
  8
Sichtbar (ISO)
  6
ByLayer
 62
  256
370
   -1
100
AcDbEllipse
 10
77.02272050950444
 20
105.614772353121
 30
0
 11
11.00000000000002
 21
-8.3e-015
 31
0
 40
0.5773502691896254
 41
5.497787143782137
 42
6.29604214830981
  0
LINE
  5
1FD
100
AcDbEntity
  8
Sichtbar (ISO)
  6
ByLayer
 62
  256
370
   -1
100
AcDbLine
 10
76.38632440643661
 20
126.2313110215461
 11
71.36586626001211
 21
123.3327481592527
  0
LINE
  5
1FE
100
AcDbEntity
  8
Sichtbar (ISO)
  6
ByLayer
 62
  256
370
   -1
100
AcDbLine
 10
71.3658662600121
 20
71.07696697987822
 11
76.38632440643656
 21
73.97552984217165
  0
LINE
  5
1FF
100
AcDbEntity
  8
Sichtbar (ISO)
  6
ByLayer
 62
  256
370
   -1
100
AcDbLine
 10
60.4057111516206
 20
135.7843210184005
 11
61.46637132340041
 21
135.1719485827047
  0
LINE
  5
200
100
AcDbEntity
  8
Sichtbar (ISO)
  6
ByLayer
 62
  256
370
   -1
100
AcDbLine
 10
88.0227205095045
 20
118.0485248421184
 11
88.0227205095045
 21
113.2898402138416
  0
LINE
  5
201
100
AcDbEntity
  8
Sichtbar (ISO)
  6
ByLayer
 62
  256
370
   -1
100
AcDbLine
 10
88.0227205095045
 20
105.614772353121
 11
88.02272050950447
 21
98.7970259023745
  0
LINE
  5
202
100
AcDbEntity
  8
Sichtbar (ISO)
  6
ByLayer
 62
  256
370
   -1
100
AcDbLine
 10
71.36586626001211
 20
123.3327481592527
 11
71.36586626001208
 21
71.07696697987822
  0
LINE
  5
203
100
AcDbEntity
  8
Sichtbar (ISO)
  6
ByLayer
 62
  256
370
   -1
100
AcDbLine
 10
71.36586626001211
 20
123.3327481592527
 11
55.10241029272151
 21
132.7224588399216
  0
LINE
  5
204
100
AcDbEntity
  8
Sichtbar (ISO)
  6
ByLayer
 62
  256
370
   -1
100
AcDbLine
 10
55.10241029272146
 20
80.46667766054708
 11
71.36586626001208
 21
71.07696697987821
  0
LINE
  5
205
100
AcDbEntity
  8
Sichtbar (ISO)
  6
ByLayer
 62
  256
370
   -1
100
AcDbLine
 10
76.38632440643656
 20
73.97552984217162
 11
76.38632440643657
 21
89.44814005075204
  0
LINE
  5
206
100
AcDbEntity
  8
Sichtbar (ISO)
  6
ByLayer
 62
  256
370
   -1
100
AcDbLine
 10
81.84793049050985
 20
107.0942141050665
 11
81.84793049050984
 21
99.41914624434595
  0
ELLIPSE
  5
207
100
AcDbEntity
  8
Sichtbar (ISO)
  6
ByLayer
 62
  256
370
   -1
100
AcDbEllipse
 10
77.0227205095045
 20
135.5801968731686
 30
0
 11
-15.57241150239747
 21
1.71e-014
 31
0
 40
0.5773502691896253
 41
0.0454232794215805
 42
1.48643791765511
  0
LINE
  5
208
100
AcDbEntity
  8
Sichtbar (ISO)
  6
ByLayer
 62
  256
370
   -1
100
AcDbLine
 10
60.4057111516206
 20
135.7843210184005
 11
55.10241029272151
 21
132.7224588399216
  0
ELLIPSE
  5
209
100
AcDbEntity
  8
Sichtbar (ISO)
  6
ByLayer
 62
  256
370
   -1
100
AcDbEllipse
 10
39.19250771602415
 20
137.0090658897922
 30
0
 11
-2.249999999999992
 21
3.897114317029974
 31
0
 40
0.5773502691896253
 41
5.497787143782137
 42
7.068583470577035
  0
LINE
  5
20A
100
AcDbEntity
  8
Sichtbar (ISO)
  6
ByLayer
 62
  256
370
   -1
100
AcDbLine
 10
36.01052720068471
 20
138.8461831968795
 11
36.01052720068469
 21
96.38836098863777
  0
ELLIPSE
  5
20B
100
AcDbEntity
  8
Sichtbar (ISO)
  6
ByLayer
 62
  256
370
   -1
100
AcDbEllipse
 10
39.19250771602412
 20
94.55124368155037
 30
0
 11
2.250000000000227
 21
-3.897114317029837
 31
0
 40
0.5773502691896275
 41
3.926990816987004
 42
5.497787143781898
  0
LINE
  5
20C
100
AcDbEntity
  8
Sichtbar (ISO)
  6
ByLayer
 62
  256
370
   -1
100
AcDbLine
 10
39.19250771602415
 20
90.8770090673756
 11
55.10241029272147
 21
81.69142253193868
  0
LINE
  5
20D
100
AcDbEntity
  8
Sichtbar (ISO)
  6
ByLayer
 62
  256
370
   -1
100
AcDbLine
 10
55.10241029272151
 20
132.7224588399215
 11
55.10241029272151
 21
131.49771396853
  0
LINE
  5
20E
100
AcDbEntity
  8
Sichtbar (ISO)
  6
ByLayer
 62
  256
370
   -1
100
AcDbLine
 10
55.10241029272147
 20
81.69142253193866
 11
55.10241029272146
 21
80.46667766054708
  0
LINE
  5
20F
100
AcDbEntity
  8
Sichtbar (ISO)
  6
ByLayer
 62
  256
370
   -1
100
AcDbLine
 10
55.10241029272151
 20
131.49771396853
 11
39.1925077160242
 21
140.6833005039669
  0
LINE
  5
210
100
AcDbEntity
  8
Sichtbar (ISO)
  6
ByLayer
 62
  256
370
   -1
100
AcDbLine
 10
38.10294313002792
 20
141.5761579054743
 11
36.94250771602419
 21
140.9061802068221
  0
ELLIPSE
  5
211
100
AcDbEntity
  8
Sichtbar (ISO)
  6
ByLayer
 62
  256
370
   -1
100
AcDbEllipse
 10
53.12251130539912
 20
112.799942265285
 30
0
 11
3.100000000000308
 21
-5.369357503463348
 31
0
 40
0.5773502691896253
 41
4.257740808438028
 42
5.167037152331216
  0
ELLIPSE
  5
212
100
AcDbEntity
  8
Sichtbar (ISO)
  6
ByLayer
 62
  256
370
   -1
100
AcDbEllipse
 10
47.81921044650001
 20
98.71537624428179
 30
0
 11
3.099999999999988
 21
-5.369357503463527
 31
0
 40
0.5773502691896241
 41
4.432063406733114
 42
5.497787143782138
  0
LINE
  5
213
100
AcDbEntity
  8
Sichtbar (ISO)
  6
ByLayer
 62
  256
370
   -1
100
AcDbLine
 10
47.81921044650005
 20
93.65309744252983
 11
51.00119096183945
 21
91.81598013544247
  0
ELLIPSE
  5
214
100
AcDbEntity
  8
Sichtbar (ISO)
  6
ByLayer
 62
  256
370
   -1
100
AcDbEllipse
 10
47.81921044650005
 20
133.0082326432462
 30
0
 11
3.099999999999986
 21
-5.369357503463522
 31
0
 40
0.5773502691896241
 41
4.432063406733117
 42
5.497787143782138
  0
LINE
  5
215
100
AcDbEntity
  8
Sichtbar (ISO)
  6
ByLayer
 62
  256
370
   -1
100
AcDbLine
 10
47.81921044650006
 20
127.9459538414943
 11
51.00119096183949
 21
126.108836534407
  0
ELLIPSE
  5
216
100
AcDbEntity
  8
Sichtbar (ISO)
  6
ByLayer
 62
  256
370
   -1
100
AcDbEllipse
 10
51.28403367431411
 20
111.738496710079
 30
0
 11
2.100000000000207
 21
-3.637306695894527
 31
0
 40
0.5773502691896253
 41
3.792730112599677
 42
5.632047848169071
  0
ELLIPSE
  5
217
100
AcDbEntity
  8
Sichtbar (ISO)
  6
ByLayer
 62
  256
370
   -1
100
AcDbEllipse
 10
52.69824723668719
 20
112.5549932910067
 30
0
 11
-3.099999999999659
 21
5.369357503463704
 31
0
 40
0.5773502691896255
 41
1.016903375752628
 42
2.124689277837406
  0
ELLIPSE
  5
218
100
AcDbEntity
  8
Sichtbar (ISO)
  6
ByLayer
 62
  256
370
   -1
100
AcDbEllipse
 10
48.7384492620425
 20
110.268802864409
 30
0
 11
-2.099999999999779
 21
3.637306695894768
 31
0
 40
0.5773502691896264
 41
0
 42
6.283185307179586
  0
LINE
  5
219
100
AcDbEntity
  8
Sichtbar (ISO)
  6
ByLayer
 62
  256
370
   -1
100
AcDbLine
 10
48.73844926204256
 20
124.8024420049226
 11
43.43514840314345
 21
127.8643041834016
  0
ELLIPSE
  5
21A
100
AcDbEntity
  8
Sichtbar (ISO)
  6
ByLayer
 62
  256
370
   -1
100
AcDbEllipse
 10
43.43514840314343
 20
130.4770932423703
 30
0
 11
-1.599999999999833
 21
2.7712812921103
 31
0
 40
0.5773502691896267
 41
5.497787143782377
 42
8.639379797372172
  0
ELLIPSE
  5
21B
100
AcDbEntity
  8
Sichtbar (ISO)
  6
ByLayer
 62
  256
370
   -1
100
AcDbEllipse
 10
48.73844926204249
 20
93.12237466492684
 30
0
 11
1.599999999999833
 21
-2.7712812921103
 31
0
 40
0.5773502691896267
 41
5.497787143782377
 42
8.639379797372172
  0
LINE
  5
21C
100
AcDbEntity
  8
Sichtbar (ISO)
  6
ByLayer
 62
  256
370
   -1
100
AcDbLine
 10
48.73844926204252
 20
90.50958560595811
 11
43.43514840314342
 21
93.57144778443711
  0
ELLIPSE
  5
21D
100
AcDbEntity
  8
Sichtbar (ISO)
  6
ByLayer
 62
  256
370
   -1
100
AcDbEllipse
 10
48.73844926204252
 20
127.4152310638913
 30
0
 11
1.599999999999835
 21
-2.771281292110301
 31
0
 40
0.5773502691896266
 41
5.497787143782377
 42
8.639379797372172
  0
LINE
  5
21E
100
AcDbEntity
  8
Sichtbar (ISO)
  6
ByLayer
 62
  256
370
   -1
100
AcDbLine
 10
43.43514840314347
 20
133.089882301339
 11
48.73844926204257
 21
130.02802012286
  0
LINE
  5
21F
100
AcDbEntity
  8
Sichtbar (ISO)
  6
ByLayer
 62
  256
370
   -1
100
AcDbLine
 10
43.43514840314345
 20
98.79702590237451
 11
48.73844926204255
 21
95.73516372389557
  0
ELLIPSE
  5
220
100
AcDbEntity
  8
Sichtbar (ISO)
  6
ByLayer
 62
  256
370
   -1
100
AcDbEllipse
 10
43.4351484031434
 20
96.18423684340584
 30
0
 11
-1.599999999999835
 21
2.771281292110301
 31
0
 40
0.5773502691896266
 41
5.497787143782377
 42
8.639379797372172
  0
ELLIPSE
  5
221
100
AcDbEntity
  8
Sichtbar (ISO)
  6
ByLayer
 62
  256
370
   -1
100
AcDbEllipse
 10
45.27362603422847
 20
131.5385387975763
 30
0
 11
1.600000000000156
 21
-2.77128129211011
 31
0
 40
0.5773502691896252
 41
3.753615439832305
 42
5.497787143781851
  0
ELLIPSE
  5
222
100
AcDbEntity
  8
Sichtbar (ISO)
  6
ByLayer
 62
  256
370
   -1
100
AcDbEllipse
 10
47.39494637778812
 20
132.7632836689679
 30
0
 11
-3.09999999999967
 21
5.369357503463715
 31
0
 40
0.5773502691896245
 41
1.183245395351971
 42
2.356194490192587
  0
LINE
  5
223
100
AcDbEntity
  8
Sichtbar (ISO)
  6
ByLayer
 62
  256
370
   -1
100
AcDbLine
 10
45.27362603422848
 20
128.9257497386076
 11
50.57692689312758
 21
125.8638875601286
  0
ELLIPSE
  5
224
100
AcDbEntity
  8
Sichtbar (ISO)
  6
ByLayer
 62
  256
370
   -1
100
AcDbEllipse
 10
50.57692689312736
 20
128.4766766190972
 30
0
 11
1.600000000000202
 21
-2.771281292110019
 31
0
 40
0.5773502691895751
 41
5.497787143782087
 42
5.671162520936692
  0
LINE
  5
225
100
AcDbEntity
  8
Sichtbar (ISO)
  6
ByLayer
 62
  256
370
   -1
100
AcDbLine
 10
45.27362603422847
 20
94.6328933396431
 11
50.57692689312755
 21
91.57103116116414
  0
ELLIPSE
  5
226
100
AcDbEntity
  8
Sichtbar (ISO)
  6
ByLayer
 62
  256
370
   -1
100
AcDbEllipse
 10
50.57692689312727
 20
94.18382022013334
 30
0
 11
1.600000000000565
 21
-2.771281292110649
 31
0
 40
0.5773502691895751
 41
5.497787143782111
 42
5.671162520936697
  0
ELLIPSE
  5
227
100
AcDbEntity
  8
Sichtbar (ISO)
  6
ByLayer
 62
  256
370
   -1
100
AcDbEllipse
 10
45.27362603422844
 20
97.24568239861188
 30
0
 11
1.60000000000016
 21
-2.771281292110118
 31
0
 40
0.5773502691896252
 41
3.753615439832278
 42
5.497787143781846
  0
ELLIPSE
  5
228
100
AcDbEntity
  8
Sichtbar (ISO)
  6
ByLayer
 62
  256
370
   -1
100
AcDbEllipse
 10
47.3949463777881
 20
98.47042727000346
 30
0
 11
-3.099999999999671
 21
5.369357503463719
 31
0
 40
0.5773502691896244
 41
1.183245395351967
 42
2.356194490192585
  0
LINE
  5
229
100
AcDbEntity
  8
Sichtbar (ISO)
  6
ByLayer
 62
  256
370
   -1
100
AcDbLine
 10
72.75459496167683
 20
127.8381930455462
 11
72.75459496167683
 21
126.9337505066365
  0
LINE
  5
22A
100
AcDbEntity
  8
Sichtbar (ISO)
  6
ByLayer
 62
  256
370
   -1
100
AcDbLine
 10
72.75459496167683
 20
127.8381930455462
 11
72.42652643179224
 21
128.0276034995877
  0
LINE
  5
22B
100
AcDbEntity
  8
Sichtbar (ISO)
  6
ByLayer
 62
  256
370
   -1
100
AcDbLine
 10
78.59473826064496
 20
75.25055817538158
 11
126.5201951925589
 21
102.9203336360579
  0
ELLIPSE
  5
22C
100
AcDbEntity
  8
Sichtbar (ISO)
  6
ByLayer
 62
  256
370
   -1
100
AcDbEllipse
 10
77.02272050950444
 20
83.32441569379397
 30
0
 11
14.07241150239618
 21
-4.98e-014
 31
0
 40
0.577350269189626
 41
4.667150591772104
 42
4.824331824634498
  0
LINE
  5
22D
100
AcDbEntity
  8
Sichtbar (ISO)
  6
ByLayer
 62
  256
370
   -1
100
AcDbLine
 10
122.6311078960333
 20
157.4214804129835
 11
126.5201951925589
 21
155.1761148154325
  0
LINE
  5
22E
100
AcDbEntity
  8
Sichtbar (ISO)
  6
ByLayer
 62
  256
370
   -1
100
AcDbLine
 10
126.5201951925589
 20
155.1761148154325
 11
126.5201951925589
 21
102.9203336360579
  0
ELLIPSE
  5
22F
100
AcDbEntity
  8
Sichtbar (ISO)
  6
ByLayer
 62
  256
370
   -1
100
AcDbEllipse
 10
77.02272050950445
 20
135.5801968731686
 30
0
 11
-14.0724115023964
 21
5.2e-014
 31
0
 40
0.577350269189626
 41
1.262645190975868
 42
1.682739171044705
  0
LINE
  5
230
100
AcDbEntity
  8
Sichtbar (ISO)
  6
ByLayer
 62
  256
370
   -1
100
AcDbLine
 10
126.5201951925589
 20
155.1761148154325
 11
78.59473826064497
 21
127.5063393547561
  0
LINE
  5
231
100
AcDbEntity
  8
Sichtbar (ISO)
  6
ByLayer
 62
  256
370
   -1
100
AcDbLine
 10
78.59473826064497
 20
127.5063393547561
 11
78.59473826064497
 21
112.6052767528251
  0
LINE
  5
232
100
AcDbEntity
  8
Sichtbar (ISO)
  6
ByLayer
 62
  256
370
   -1
100
AcDbLine
 10
78.59473826064496
 20
90.15162077731262
 11
78.59473826064496
 21
75.25055817538158
  0
LINE
  5
233
100
AcDbEntity
  8
Sichtbar (ISO)
  6
ByLayer
 62
  256
370
   -1
100
AcDbLine
 10
72.42652643179224
 20
128.0276034995877
 11
72.42652643179224
 21
126.9899892699347
  0
LINE
  5
234
100
AcDbEntity
  8
Sichtbar (ISO)
  6
ByLayer
 62
  256
370
   -1
100
AcDbLine
 10
82.67957475899642
 20
133.9472037113133
 11
72.42652643179224
 21
128.0276034995877
  0
LINE
  5
235
100
AcDbEntity
  8
Sichtbar (ISO)
  6
ByLayer
 62
  256
370
   -1
100
AcDbLine
 10
92.83090951015569
 20
98.8965750919306
 11
93.28617647679381
 21
98.63372658618894
  0
LINE
  5
236
100
AcDbEntity
  8
Sichtbar (ISO)
  6
ByLayer
 62
  256
370
   -1
100
AcDbLine
 10
93.28617647679381
 20
121.0873825617014
 11
93.28617647679378
 21
98.63372658618894
  0
ELLIPSE
  5
237
100
AcDbEntity
  8
Sichtbar (ISO)
  6
ByLayer
 62
  256
370
   -1
100
AcDbEllipse
 10
77.02272050950442
 20
98.22547829572528
 30
0
 11
-14.07241150239669
 21
4.75e-014
 31
0
 40
0.577350269189626
 41
1.606546207927514
 42
1.682739171044703
  0
LINE
  5
238
100
AcDbEntity
  8
Sichtbar (ISO)
  6
ByLayer
 62
  256
370
   -1
100
AcDbLine
 10
93.28617647679381
 20
98.63372658618894
 11
78.59473826064496
 21
90.15162077731262
  0
ELLIPSE
  5
239
100
AcDbEntity
  8
Sichtbar (ISO)
  6
ByLayer
 62
  256
370
   -1
100
AcDbEllipse
 10
85.87840082376322
 20
109.238456355752
 30
0
 11
2.595995545698151
 21
-4.496396181371746
 31
0
 40
0.5773502691896212
 41
6.121530420622602
 42
6.307631452215872
  0
ELLIPSE
  5
23A
100
AcDbEntity
  8
Sichtbar (ISO)
  6
ByLayer
 62
  256
370
   -1
100
AcDbEllipse
 10
86.14292420774383
 20
133.9055279955262
 30
0
 11
-2.999999999999758
 21
1.08e-014
 31
0
 40
0.577350269189626
 41
5.497787143782144
 42
5.90892500610449
  0
ELLIPSE
  5
23B
100
AcDbEntity
  8
Sichtbar (ISO)
  6
ByLayer
 62
  256
370
   -1
100
AcDbEllipse
 10
80.55825441543692
 20
135.1719485827048
 30
0
 11
2.999999999999771
 21
-1.08e-014
 31
0
 40
0.5773502691896258
 41
5.497787143782147
 42
5.90892500610449
  0
LINE
  5
23C
100
AcDbEntity
  8
Sichtbar (ISO)
  6
ByLayer
 62
  256
370
   -1
100
AcDbLine
 10
122.6311078960333
 20
157.4214804129835
 11
84.02160386418437
 21
135.1302728669177
  0
LINE
  5
23D
100
AcDbEntity
  8
Sichtbar (ISO)
  6
ByLayer
 62
  256
370
   -1
100
AcDbLine
 10
78.59473826064496
 20
112.6052767528251
 11
93.28617647679378
 21
121.0873825617014
  0
ELLIPSE
  5
23E
100
AcDbEntity
  8
Sichtbar (ISO)
  6
ByLayer
 62
  256
370
   -1
100
AcDbEllipse
 10
77.02272050950444
 20
120.6791342712377
 30
0
 11
14.07241150239659
 21
-5.25e-014
 31
0
 40
0.5773502691896258
 41
4.667150591772102
 42
4.824331824634496
  0
ELLIPSE
  5
23F
100
AcDbEntity
  8
Sichtbar (ISO)
  6
ByLayer
 62
  256
370
   -1
100
AcDbEllipse
 10
77.02272050950444
 20
113.1265408976561
 30
0
 11
10.92499999999986
 21
-1.03e-014
 31
0
 40
0.5773502691896253
 41
5.346370282344974
 42
6.027270556253006
  0
ELLIPSE
  5
240
100
AcDbEntity
  8
Sichtbar (ISO)
  6
ByLayer
 62
  256
370
   -1
100
AcDbEllipse
 10
77.02272050950442
 20
105.7780716693065
 30
0
 11
10.99999999999989
 21
-7.800000000000001e-015
 31
0
 40
0.5773502691896254
 41
5.166490929753247
 42
6.289077897790453
  0
LINE
  5
241
100
AcDbEntity
  8
Sichtbar (ISO)
  6
ByLayer
 62
  256
370
   -1
100
AcDbLine
 10
87.95350361916124
 20
112.5785079872789
 11
88.02252953562434
 21
105.8154944292658
  0
ELLIPSE
  5
242
100
AcDbEntity
  8
Sichtbar (ISO)
  6
ByLayer
 62
  256
370
   -1
100
AcDbEllipse
 10
95.61970035146869
 20
116.637517474315
 30
0
 11
-14.99999999998724
 21
2.714e-013
 31
0
 40
0.5773502691896237
 41
1.079389755214899
 42
1.112841654799358
  0
ELLIPSE
  5
243
100
AcDbEntity
  8
Sichtbar (ISO)
  6
ByLayer
 62
  256
370
   -1
100
AcDbEllipse
 10
95.61970035147436
 20
123.7410377283927
 30
0
 11
14.99999999999956
 21
8.715e-013
 31
0
 40
0.5773502691896434
 41
4.181308464339544
 42
4.254434308389035
  0
LINE
  5
244
100
AcDbEntity
  8
Sichtbar (ISO)
  6
ByLayer
 62
  256
370
   -1
100
AcDbLine
 10
88.73197377811479
 20
105.182619178358
 11
88.36598897647295
 21
104.9660696510916
  0
ELLIPSE
  5
245
100
AcDbEntity
  8
Sichtbar (ISO)
  6
ByLayer
 62
  256
370
   -1
100
AcDbEllipse
 10
87.06363680235341
 20
118.6787176479645
 30
0
 11
-5.099999999999908
 21
1.041e-013
 31
0
 40
0.5773502691896086
 41
1.759978404619737
 42
1.957700108661915
  0
ELLIPSE
  5
246
100
AcDbEntity
  8
Sichtbar (ISO)
  6
ByLayer
 62
  256
370
   -1
100
AcDbEllipse
 10
87.06363680235339
 20
118.3521190155934
 30
0
 11
5.499999999999962
 21
-1.112e-013
 31
0
 40
0.5773502691896087
 41
4.887663904258995
 42
5.069833279791993
  0
ELLIPSE
  5
247
100
AcDbEntity
  8
Sichtbar (ISO)
  6
ByLayer
 62
  256
370
   -1
100
AcDbEllipse
 10
87.06363680235334
 20
112.1467450005426
 30
0
 11
-5.499999999999715
 21
1.113e-013
 31
0
 40
0.5773502691896089
 41
1.740006335016072
 42
1.928240626202226
  0
ELLIPSE
  5
248
100
AcDbEntity
  8
Sichtbar (ISO)
  6
ByLayer
 62
  256
370
   -1
100
AcDbEllipse
 10
87.0636368023533
 20
111.8201463681716
 30
0
 11
5.099999999999887
 21
-1.035e-013
 31
0
 40
0.5773502691896089
 41
4.895201384169575
 42
5.099292762251741
  0
ELLIPSE
  5
249
100
AcDbEntity
  8
Sichtbar (ISO)
  6
ByLayer
 62
  256
370
   -1
100
AcDbEllipse
 10
85.09677559921199
 20
108.7871848219527
 30
0
 11
-2.780850182101384
 21
4.620252343599826
 31
0
 40
0.589109010828833
 41
3.596621205781021
 42
3.916265932954589
  0
LINE
  5
24A
100
AcDbEntity
  8
Sichtbar (ISO)
  6
ByLayer
 62
  256
370
   -1
100
AcDbLine
 10
88.79088257120736
 20
105.3570298575769
 11
88.79088257120736
 21
100.4942388098308
  0
LINE
  5
24B
100
AcDbEntity
  8
Sichtbar (ISO)
  6
ByLayer
 62
  256
370
   -1
100
AcDbLine
 10
92.2962269831328
 20
98.55207692809607
 11
88.79088257120736
 21
100.4942388098308
  0
LINE
  5
24C
100
AcDbEntity
  8
Sichtbar (ISO)
  6
ByLayer
 62
  256
370
   -1
100
AcDbLine
 10
92.29622698313275
 20
120.5158349550514
 11
92.2962269831328
 21
98.55207692809608
  0
LINE
  5
24D
100
AcDbEntity
  8
Sichtbar (ISO)
  6
ByLayer
 62
  256
370
   -1
100
AcDbLine
 10
88.79088257120733
 20
118.4920234152238
 11
88.79088257120733
 21
117.9218044214116
  0
ELLIPSE
  5
24E
100
AcDbEntity
  8
Sichtbar (ISO)
  6
ByLayer
 62
  256
370
   -1
100
AcDbEllipse
 10
85.09677559921195
 20
118.5851437930854
 30
0
 11
-2.780850182101384
 21
4.620252343599826
 31
0
 40
0.589109010828833
 41
3.916265932954587
 42
4.23591066012816
  0
LINE
  5
24F
100
AcDbEntity
  8
Sichtbar (ISO)
  6
ByLayer
 62
  256
370
   -1
100
AcDbLine
 10
88.98798347580291
 20
106.6312324464571
 11
88.98798347580289
 21
116.4291914175898
  0
ELLIPSE
  5
250
100
AcDbEntity
  8
Sichtbar (ISO)
  6
ByLayer
 62
  256
370
   -1
100
AcDbEllipse
 10
56.79946656754222
 20
86.63122684653972
 30
0
 11
-40.00000000003278
 21
-2.2804e-012
 31
0
 40
0.5773502691896252
 41
3.785451343662511
 42
3.816793625517583
  0
SPLINE
  5
251
100
AcDbEntity
  8
Sichtbar (ISO)
  6
ByLayer
 62
  256
370
   -1
100
AcDbSpline
210
0
220
0
230
0
 70
    8
 71
    3
 72
   10
 73
    6
 74
    0
 42
1e-007
 43
1e-007
 40
-0.3979798744361316
 40
-0.3979798744361316
 40
-0.3979798744361316
 40
-0.3979798744361316
 40
-0.2033907006894982
 40
-0.2033907006894982
 40
-0.1661206696013792
 40
-0.1661206696013792
 40
-0.1661206696013792
 40
-0.1661206696013792
 10
88.0227008477822
 20
104.2512282937014
 30
0
 10
88.30682051170248
 20
104.4283119446185
 30
0
 10
88.54690134371489
 20
104.7227354195028
 30
0
 10
88.73789722154974
 20
105.1948830591607
 30
0
 10
88.76581996623881
 20
105.2743472699736
 30
0
 10
88.79088257120736
 20
105.3570298575769
 30
0
  0
LINE
  5
252
100
AcDbEntity
  8
Sichtbar (ISO)
  6
ByLayer
 62
  256
370
   -1
100
AcDbLine
 10
92.72049105184473
 20
98.79702590237441
 11
92.2962269831328
 21
98.55207692809607
  0
LINE
  5
253
100
AcDbEntity
  8
Sichtbar (ISO)
  6
ByLayer
 62
  256
370
   -1
100
AcDbLine
 10
92.93262308620071
 20
99.16444936379192
 11
92.93262308620066
 21
120.8832584164688
  0
ELLIPSE
  5
254
100
AcDbEntity
  8
Sichtbar (ISO)
  6
ByLayer
 62
  256
370
   -1
100
AcDbEllipse
 10
85.87840082376302
 20
109.2384563557523
 30
0
 11
2.695995545698262
 21
-4.669601262128697
 31
0
 40
0.5773502691896261
 41
6.09508836040618
 42
6.167083784607651
  0
ELLIPSE
  5
255
100
AcDbEntity
  8
Sichtbar (ISO)
  6
ByLayer
 62
  256
370
   -1
100
AcDbEllipse
 10
92.72049105184477
 20
99.04197487665272
 30
0
 11
-0.1500000000000145
 21
-0.2598076211353192
 31
0
 40
0.5773502691896261
 41
0.7853981633976233
 42
2.356194490192596
  0
ELLIPSE
  5
256
100
AcDbEntity
  8
Sichtbar (ISO)
  6
ByLayer
 62
  256
370
   -1
100
AcDbEllipse
 10
66.62825082606113
 20
131.783487771854
 30
0
 11
0.7500000000000449
 21
1.299038105676548
 31
0
 40
0.5773502691896257
 41
2.061679005083592
 42
2.356194490192585
  0
LINE
  5
257
100
AcDbEntity
  8
Sichtbar (ISO)
  6
ByLayer
 62
  256
370
   -1
100
AcDbLine
 10
65.56759065428136
 20
131.1711153361582
 11
65.56759065428136
 21
129.4897672222058
  0
LINE
  5
258
100
AcDbEntity
  8
Sichtbar (ISO)
  6
ByLayer
 62
  256
370
   -1
100
AcDbLine
 10
39.2632183941428
 20
90.50958560595814
 11
55.10241029272146
 21
81.36482389956757
  0
ELLIPSE
  5
259
100
AcDbEntity
  8
Sichtbar (ISO)
  6
ByLayer
 62
  256
370
   -1
100
AcDbEllipse
 10
39.2632183941428
 20
94.59206851059677
 30
0
 11
2.500000000000256
 21
-4.330127018922044
 31
0
 40
0.5773502691896254
 41
3.926990816986998
 42
5.497787143781892
  0
LINE
  5
25A
100
AcDbEntity
  8
Sichtbar (ISO)
  6
ByLayer
 62
  256
370
   -1
100
AcDbLine
 10
35.72768448821014
 20
139.0911321711577
 11
35.7276844882101
 21
96.63330996291609
  0
ELLIPSE
  5
25B
100
AcDbEntity
  8
Sichtbar (ISO)
  6
ByLayer
 62
  256
370
   -1
100
AcDbEllipse
 10
39.26321839414285
 20
137.0498907188384
 30
0
 11
-2.499999999999999
 21
4.330127018922192
 31
0
 40
0.577350269189625
 41
5.497787143782138
 42
7.06858347057703
  0
LINE
  5
25C
100
AcDbEntity
  8
Sichtbar (ISO)
  6
ByLayer
 62
  256
370
   -1
100
AcDbLine
 10
55.10241029272151
 20
131.9876119170865
 11
39.26321839414288
 21
141.132373623477
  0
LINE
  5
25D
100
AcDbEntity
  8
Sichtbar (ISO)
  6
ByLayer
 62
  256
370
   -1
100
AcDbLine
 10
35.02057770702357
 20
144.3983599471879
 11
55.17312097084012
 21
132.7632836689678
  0
LINE
  5
25E
100
AcDbEntity
  8
Sichtbar (ISO)
  6
ByLayer
 62
  256
370
   -1
100
AcDbLine
 10
55.17312097084012
 20
132.7632836689678
 11
60.40571115162056
 21
135.7843210184004
  0
LINE
  5
25F
100
AcDbEntity
  8
Sichtbar (ISO)
  6
ByLayer
 62
  256
370
   -1
100
AcDbLine
 10
35.02057770702357
 20
144.3983599471879
 11
40.25316788780401
 21
147.4193972966205
  0
LINE
  5
260
100
AcDbEntity
  8
Sichtbar (ISO)
  6
ByLayer
 62
  256
370
   -1
100
AcDbLine
 10
55.10241029272144
 20
80.54832731863991
 11
35.02057770702351
 21
92.14257876781363
  0
LINE
  5
261
100
AcDbEntity
  8
Sichtbar (ISO)
  6
ByLayer
 62
  256
370
   -1
100
AcDbLine
 10
35.02057770702351
 20
92.14257876781362
 11
35.02057770702357
 21
144.3983599471879
  0
LINE
  5
262
100
AcDbEntity
  8
Sichtbar (ISO)
  6
ByLayer
 62
  256
370
   -1
100
AcDbLine
 10
60.40571115162056
 20
135.7843210184004
 11
40.25316788780401
 21
147.4193972966205
  0
ELLIPSE
  5
263
100
AcDbEntity
  8
Sichtbar (ISO)
  6
ByLayer
 62
  256
370
   -1
100
AcDbEllipse
 10
66.84038286041498
 20
131.905962258992
 30
0
 11
-1.050000000000022
 21
-1.818653347947333
 31
0
 40
0.577350269189627
 41
5.165464448795937
 42
5.497787143782149
  0
LINE
  5
264
100
AcDbEntity
  8
Sichtbar (ISO)
  6
ByLayer
 62
  256
370
   -1
100
AcDbLine
 10
65.3554586199232
 20
131.0486408490179
 11
65.3554586199232
 21
129.6255068448539
  0
LINE
  5
265
100
AcDbEntity
  8
Sichtbar (ISO)
  6
ByLayer
 62
  256
370
   -1
100
AcDbLine
 10
63.6131765276655
 20
132.7077451487329
 11
63.6131765276655
 21
131.0091236877583
  0
LINE
  5
266
100
AcDbEntity
  8
Sichtbar (ISO)
  6
ByLayer
 62
  256
370
   -1
100
AcDbLine
 10
64.29479844814338
 20
132.3142105494594
 11
64.29479844814338
 21
130.4001067838644
  0
LINE
  5
267
100
AcDbEntity
  8
Sichtbar (ISO)
  6
ByLayer
 62
  256
370
   -1
100
AcDbLine
 10
62.95030900710378
 20
133.0904518901663
 11
62.95030900710378
 21
131.7302083663847
  0
ELLIPSE
  5
268
100
AcDbEntity
  8
Sichtbar (ISO)
  6
ByLayer
 62
  256
370
   -1
100
AcDbEllipse
 10
53.12251130539909
 20
95.65351406580278
 30
0
 11
-2.999999999999979
 21
5.196152422706624
 31
0
 40
0.5773502691896253
 41
1.348997103304251
 42
1.792595550285536
  0
ELLIPSE
  5
269
100
AcDbEntity
  8
Sichtbar (ISO)
  6
ByLayer
 62
  256
370
   -1
100
AcDbEllipse
 10
53.12251130539909
 20
129.9463704647673
 30
0
 11
-2.999999999999977
 21
5.196152422706622
 31
0
 40
0.5773502691896253
 41
1.348997103304252
 42
1.792595550285536
  0
LINE
  5
26A
100
AcDbEntity
  8
Sichtbar (ISO)
  6
ByLayer
 62
  256
370
   -1
100
AcDbLine
 10
72.07297304119822
 20
127.8234793543553
 11
72.07297304119822
 21
127.0557223048057
  0
LINE
  5
26B
100
AcDbEntity
  8
Sichtbar (ISO)
  6
ByLayer
 62
  256
370
   -1
100
AcDbLine
 10
66.41611879170586
 20
128.9973909871249
 11
66.41611879170586
 21
131.0894656780662
  0
ELLIPSE
  5
26C
100
AcDbEntity
  8
Sichtbar (ISO)
  6
ByLayer
 62
  256
370
   -1
100
AcDbEllipse
 10
68.5374391352655
 20
125.782237902036
 30
0
 11
2.500000000000017
 21
4.330127018922224
 31
0
 40
0.5773502691896262
 41
5.497787143782144
 42
7.068583470577014
  0
LINE
  5
26D
100
AcDbEntity
  8
Sichtbar (ISO)
  6
ByLayer
 62
  256
370
   -1
100
AcDbLine
 10
62.8805848857732
 20
133.1307071303856
 11
68.53743913526557
 21
129.8647208066747
  0
LINE
  5
26E
100
AcDbEntity
  8
Sichtbar (ISO)
  6
ByLayer
 62
  256
370
   -1
100
AcDbLine
 10
62.8805848857732
 20
133.1307071303856
 11
62.88058488577316
 21
145.3781558443014
  0
LINE
  5
26F
100
AcDbEntity
  8
Sichtbar (ISO)
  6
ByLayer
 62
  256
370
   -1
100
AcDbLine
 10
62.88058488577316
 20
145.3781558443014
 11
126.5201951925624
 21
182.1205019860491
  0
LINE
  5
270
100
AcDbEntity
  8
Sichtbar (ISO)
  6
ByLayer
 62
  256
370
   -1
100
AcDbLine
 10
62.8805848857732
 20
63.72849775152893
 11
62.88058488577323
 21
75.97594646544482
  0
LINE
  5
271
100
AcDbEntity
  8
Sichtbar (ISO)
  6
ByLayer
 62
  256
370
   -1
100
AcDbLine
 10
68.53743913526554
 20
142.1121695205906
 11
68.53743913526557
 21
129.8647208066747
  0
LINE
  5
272
100
AcDbEntity
  8
Sichtbar (ISO)
  6
ByLayer
 62
  256
370
   -1
100
AcDbLine
 10
62.88058488577316
 20
145.3781558443014
 11
68.53743913526554
 21
142.1121695205906
  0
LINE
  5
273
100
AcDbEntity
  8
Sichtbar (ISO)
  6
ByLayer
 62
  256
370
   -1
100
AcDbLine
 10
68.5374391352656
 20
72.70996014173393
 11
68.53743913526557
 21
60.46251142781805
  0
LINE
  5
274
100
AcDbEntity
  8
Sichtbar (ISO)
  6
ByLayer
 62
  256
370
   -1
100
AcDbLine
 10
68.53743913526557
 20
60.46251142781805
 11
132.1770494420548
 21
97.2048575695657
  0
LINE
  5
275
100
AcDbEntity
  8
Sichtbar (ISO)
  6
ByLayer
 62
  256
370
   -1
100
AcDbLine
 10
132.1770494420548
 20
97.2048575695657
 11
132.1770494420548
 21
178.8545156623382
  0
LINE
  5
276
100
AcDbEntity
  8
Sichtbar (ISO)
  6
ByLayer
 62
  256
370
   -1
100
AcDbLine
 10
132.1770494420548
 20
178.8545156623382
 11
68.53743913526554
 21
142.1121695205906
  0
LINE
  5
277
100
AcDbEntity
  8
Sichtbar (ISO)
  6
ByLayer
 62
  256
370
   -1
100
AcDbLine
 10
68.53743913526557
 20
60.46251142781805
 11
62.8805848857732
 21
63.72849775152893
  0
LINE
  5
278
100
AcDbEntity
  8
Sichtbar (ISO)
  6
ByLayer
 62
  256
370
   -1
100
AcDbLine
 10
132.1770494420548
 20
178.8545156623382
 11
126.5201951925624
 21
182.1205019860491
  0
ARC
  5
279
100
AcDbEntity
  8
Sichtbar (ISO)
  6
ByLayer
 62
  256
370
   -1
100
AcDbCircle
 10
242.9642215915513
 20
59.0977541790879
 40
5.000000000000031
100
AcDbArc
 50
270.0000000000012
 51
0
  0
LINE
  5
27A
100
AcDbEntity
  8
Sichtbar (ISO)
  6
ByLayer
 62
  256
370
   -1
100
AcDbLine
 10
247.9642215915514
 20
66.0977541790879
 11
247.9642215915513
 21
59.09775417908786
  0
LINE
  5
27B
100
AcDbEntity
  8
Sichtbar (ISO)
  6
ByLayer
 62
  256
370
   -1
100
AcDbLine
 10
292.719223593153
 20
66.0977541790879
 11
247.9642215915514
 21
66.0977541790879
  0
ARC
  5
27C
100
AcDbEntity
  8
Sichtbar (ISO)
  6
ByLayer
 62
  256
370
   -1
100
AcDbCircle
 10
298.9642215915513
 20
71.0977541790879
 40
7.99999999999998
100
AcDbArc
 50
218.6821874534894
 51
0
  0
LINE
  5
27D
100
AcDbEntity
  8
Sichtbar (ISO)
  6
ByLayer
 62
  256
370
   -1
100
AcDbLine
 10
306.9642215915514
 20
107.0977541790878
 11
306.9642215915514
 21
71.09775417908784
  0
ARC
  5
27E
100
AcDbEntity
  8
Sichtbar (ISO)
  6
ByLayer
 62
  256
370
   -1
100
AcDbCircle
 10
298.9642215915513
 20
107.0977541790878
 40
7.999999999999979
100
AcDbArc
 50
0
 51
141.3178125465108
  0
LINE
  5
27F
100
AcDbEntity
  8
Sichtbar (ISO)
  6
ByLayer
 62
  256
370
   -1
100
AcDbLine
 10
247.9642215915514
 20
112.0977541790878
 11
292.719223593153
 21
112.0977541790878
  0
LINE
  5
280
100
AcDbEntity
  8
Sichtbar (ISO)
  6
ByLayer
 62
  256
370
   -1
100
AcDbLine
 10
247.9642215915513
 20
119.0977541790879
 11
247.9642215915514
 21
112.0977541790878
  0
ARC
  5
281
100
AcDbEntity
  8
Sichtbar (ISO)
  6
ByLayer
 62
  256
370
   -1
100
AcDbCircle
 10
242.9642215915513
 20
119.0977541790878
 40
5.000000000000035
100
AcDbArc
 50
0
 51
89.99999999999876
  0
LINE
  5
282
100
AcDbEntity
  8
Sichtbar (ISO)
  6
ByLayer
 62
  256
370
   -1
100
AcDbLine
 10
242.9642215915513
 20
139.0977541790878
 11
242.9642215915514
 21
124.0977541790879
  0
LINE
  5
283
100
AcDbEntity
  8
Sichtbar (ISO)
  6
ByLayer
 62
  256
370
   -1
100
AcDbLine
 10
242.9642215915514
 20
54.09775417908786
 11
242.9642215915513
 21
39.0977541790879
  0
LINE
  5
284
100
AcDbEntity
  8
Sichtbar (ISO)
  6
ByLayer
 62
  256
370
   -1
100
AcDbLine
 10
242.9642215915513
 20
39.0977541790879
 11
332.9642215915513
 21
39.09775417908786
  0
LINE
  5
285
100
AcDbEntity
  8
Sichtbar (ISO)
  6
ByLayer
 62
  256
370
   -1
100
AcDbLine
 10
332.9642215915513
 20
39.09775417908786
 11
332.9642215915515
 21
139.0977541790878
  0
LINE
  5
286
100
AcDbEntity
  8
Sichtbar (ISO)
  6
ByLayer
 62
  256
370
   -1
100
AcDbLine
 10
332.9642215915515
 20
139.0977541790878
 11
242.9642215915513
 21
139.0977541790878
  0
LINE
  5
287
100
AcDbEntity
  8
Mittelpunktmarkierung (ISO)
  6
CONTINUOUS
 62
  256
370
   -1
100
AcDbLine
 10
249.4642215915513
 20
119.0977541790879
 11
242.4642215915513
 21
119.0977541790879
  0
LINE
  5
288
100
AcDbEntity
  8
Mittelpunktmarkierung (ISO)
  6
CONTINUOUS
 62
  256
370
   -1
100
AcDbLine
 10
242.9642215915513
 20
125.5977541790878
 11
242.9642215915513
 21
118.5977541790878
  0
LINE
  5
289
100
AcDbEntity
  8
Mittelpunktmarkierung (ISO)
  6
CONTINUOUS
 62
  256
370
   -1
100
AcDbLine
 10
249.4642215915513
 20
59.09775417908786
 11
242.4642215915513
 21
59.09775417908786
  0
LINE
  5
28A
100
AcDbEntity
  8
Mittelpunktmarkierung (ISO)
  6
CONTINUOUS
 62
  256
370
   -1
100
AcDbLine
 10
242.9642215915513
 20
59.59775417908787
 11
242.9642215915513
 21
52.59775417908786
  0
LINE
  5
28B
100
AcDbEntity
  8
Mittelpunktmarkierung (ISO)
  6
CONTINUOUS
 62
  256
370
   -1
100
AcDbLine
 10
308.4642215915514
 20
107.0977541790878
 11
298.4642215915513
 21
107.0977541790878
  0
LINE
  5
28C
100
AcDbEntity
  8
Mittelpunktmarkierung (ISO)
  6
CONTINUOUS
 62
  256
370
   -1
100
AcDbLine
 10
298.9642215915513
 20
116.5977541790878
 11
298.9642215915513
 21
106.5977541790878
  0
LINE
  5
28D
100
AcDbEntity
  8
Mittelpunktmarkierung (ISO)
  6
CONTINUOUS
 62
  256
370
   -1
100
AcDbLine
 10
308.4642215915514
 20
71.0977541790879
 11
298.4642215915513
 21
71.0977541790879
  0
LINE
  5
28E
100
AcDbEntity
  8
Mittelpunktmarkierung (ISO)
  6
CONTINUOUS
 62
  256
370
   -1
100
AcDbLine
 10
298.9642215915513
 20
71.59775417908789
 11
298.9642215915513
 21
61.5977541790879
  0
DIMENSION
  5
28F
100
AcDbEntity
  8
Bemaßung (ISO)
  6
CONTINUOUS
 62
    7
370
   18
100
AcDbDimension
  2
*D1
 10
229.9642215915514
 20
66.09775417908791
 30
0
 11
229.9642215915513
 21
89.09775417908781
 31
0
 70
   32
  1
<>
 71
    5
 72
    0
  3
Pauli_DINGroßer Text
 53
0
210
0
220
0
230
1
100
AcDbAlignedDimension
 13
247.9642215915514
 23
112.0977541790878
 33
0
 14
247.9642215915514
 24
66.0977541790879
 34
0
 50
270
100
AcDbRotatedDimension
  0
DIMENSION
  5
290
100
AcDbEntity
  8
Bemaßung (ISO)
  6
CONTINUOUS
 62
    7
370
   18
100
AcDbDimension
  2
*D2
 10
288.4642215915514
 20
71.09775417908791
 30
0
 11
288.4642215915513
 21
89.09775417908789
 31
0
 70
   32
  1
<>
 71
    5
 72
    0
  3
Pauli_DINGroßer Text
 53
0
210
0
220
0
230
1
100
AcDbAlignedDimension
 13
298.4642215915513
 23
107.0977541790878
 33
0
 14
298.4642215915513
 24
71.0977541790879
 34
0
 50
90
100
AcDbRotatedDimension
  0
DIMENSION
  5
291
100
AcDbEntity
  8
Bemaßung (ISO)
  6
CONTINUOUS
 62
    7
370
   18
100
AcDbDimension
  2
*D3
 10
298.9642215915516
 20
107.0977541790879
 30
0
 11
312.4789567112506
 21
124.4515823287574
 31
0
 70
   36
  1
<>
 71
    5
 72
    0
  3
Pauli_DINGroßer Text
 53
0
210
0
220
0
230
1
100
AcDbRadialDimension
 15
304.6210758410448
 25
112.7546084285796
 35
0
 40
0
  0
DIMENSION
  5
292
100
AcDbEntity
  8
Bemaßung (ISO)
  6
CONTINUOUS
 62
    7
370
   18
100
AcDbDimension
  2
*D4
 10
242.9642215915515
 20
119.0977541790879
 30
0
 11
254.3702977272502
 21
134.332070750849
 31
0
 70
   36
  1
<>
 71
    5
 72
    0
  3
Pauli_DINGroßer Text
 53
0
210
0
220
0
230
1
100
AcDbRadialDimension
 15
246.4997554974847
 25
122.63328808502
 35
0
 40
0
  0
DIMENSION
  5
293
100
AcDbEntity
  8
Bemaßung (ISO)
  6
CONTINUOUS
 62
    7
370
   18
100
AcDbDimension
  2
*D5
 10
222.1217727150157
 20
59.09775417908789
 30
0
 11
222.1217727150157
 21
89.09775417908789
 31
0
 70
   32
  1
<>
 71
    5
 72
    0
  3
Pauli_DINGroßer Text
 53
0
210
0
220
0
230
1
100
AcDbAlignedDimension
 13
242.4642215915513
 23
119.0977541790879
 33
0
 14
242.4642215915513
 24
59.09775417908786
 34
0
 50
90
100
AcDbRotatedDimension
  0
DIMENSION
  5
294
100
AcDbEntity
  8
Bemaßung (ISO)
  6
CONTINUOUS
 62
    7
370
   18
100
AcDbDimension
  2
*D6
 10
212.5633580607981
 20
124.0977541790879
 30
0
 11
212.5633580607981
 21
89.09775417908784
 31
0
 70
   32
  1
(<>)
 71
    5
 72
    0
  3
Pauli_DINGroßer Text
 53
0
210
0
220
0
230
1
100
AcDbAlignedDimension
 13
242.9642215915514
 23
54.09775417908786
 33
0
 14
242.9642215915514
 24
124.0977541790879
 34
0
 50
90
100
AcDbRotatedDimension
  0
DIMENSION
  5
295
100
AcDbEntity
  8
Bemaßung (ISO)
  6
CONTINUOUS
 62
    7
370
   18
100
AcDbDimension
  2
*D7
 10
298.9642215915513
 20
27.59775417908791
 30
0
 11
270.9642215915512
 21
27.59775417908791
 31
0
 70
   32
  1
<>
 71
    5
 72
    0
  3
Pauli_DINGroßer Text
 53
0
210
0
220
0
230
1
100
AcDbAlignedDimension
 13
242.9642215915513
 23
39.09775417908792
 33
0
 14
298.9642215915513
 24
61.5977541790879
 34
0
 50
180
100
AcDbRotatedDimension
  0
DIMENSION
  5
296
100
AcDbEntity
  8
Bemaßung (ISO)
  6
CONTINUOUS
 62
    7
370
   18
100
AcDbDimension
  2
*D8
 10
235.4148890798881
 20
204.8181373866428
 30
0
 11
247.4427199192315
 21
204.8181373866428
 31
0
 70
   32
  1
<>
 71
    5
 72
    0
  3
Pauli_DINGroßer Text
 53
0
210
0
220
0
230
1
100
AcDbAlignedDimension
 13
232.414889079888
 23
215.8181373866423
 33
0
 14
235.4148890798881
 24
222.8181373866428
 34
0
 50
180
100
AcDbRotatedDimension
  0
DIMENSION
  5
297
100
AcDbEntity
  8
Bemaßung (ISO)
  6
CONTINUOUS
 62
    7
370
   18
100
AcDbDimension
  2
*D9
 10
214.514889079888
 20
215.8181373866425
 30
0
 11
214.5148890798881
 21
241.5681373866423
 31
0
 70
   32
  1
<>
 71
    5
 72
    0
  3
Pauli_DINGroßer Text
 53
0
210
0
220
0
230
1
100
AcDbAlignedDimension
 13
232.5148890798881
 23
267.3181373866424
 33
0
 14
232.414889079888
 24
215.8181373866423
 34
0
 50
270
100
AcDbRotatedDimension
  0
DIMENSION
  5
298
100
AcDbEntity
  8
Bemaßung (ISO)
  6
CONTINUOUS
 62
    7
370
   18
100
AcDbDimension
  2
*D10
 10
225.293015519925
 20
237.8181373866425
 30
0
 11
225.293015519925
 21
226.8181373866423
 31
0
 70
   32
  1
<>
 71
    5
 72
    0
  3
Pauli_DINGroßer Text
 53
0
210
0
220
0
230
1
100
AcDbAlignedDimension
 13
232.414889079888
 23
215.8181373866423
 33
0
 14
241.329102642261
 24
237.8181373866424
 34
0
 50
90
100
AcDbRotatedDimension
  0
DIMENSION
  5
299
100
AcDbEntity
  8
Bemaßung (ISO)
  6
CONTINUOUS
 62
    7
370
   18
100
AcDbDimension
  2
*D11
 10
335.4148890798881
 20
267.3181373866425
 30
0
 11
335.4148890798881
 21
249.0681373866426
 31
0
 70
   32
  1
ca. <>
 71
    5
 72
    0
  3
Pauli_DINGroßer Text
 53
0
210
0
220
0
230
1
100
AcDbAlignedDimension
 13
325.4148890798881
 23
230.8181373866428
 33
0
 14
239.914889079888
 24
267.3181373866424
 34
0
 50
270
100
AcDbRotatedDimension
  0
DIMENSION
  5
29A
100
AcDbEntity
  8
Bemaßung (ISO)
  6
CONTINUOUS
 62
    7
370
   18
100
AcDbDimension
  2
*D12
 10
335.4148890798881
 20
222.818137386643
 30
0
 11
335.4148890798881
 21
196.1727246068251
 31
0
 70
   32
  1
 6, 8 o. 10mm
 71
    5
 72
    0
  3
Pauli_DINGroßer Text
 53
0
210
0
220
0
230
1
100
AcDbAlignedDimension
 13
325.4148890798881
 23
230.8181373866428
 33
0
 14
325.4148890798881
 24
222.8181373866429
 34
0
 50
270
100
AcDbRotatedDimension
  0
ENDSEC
  0
SECTION
  2
OBJECTS
  0
DICTIONARY
  5
C
330
0
100
AcDbDictionary
281
    1
  3
ACAD_GROUP
350
D
  0
DICTIONARY
  5
D
330
C
100
AcDbDictionary
281
    1
  0
ENDSEC
  0
EOF
