999
dxfrw 0.6.3
  0
SECTION
  2
HEADER
  9
$ACADVER
  1
AC1021
  9
$DWGCODEPAGE
  3
ANSI_1252
  9
$INSBASE
 10
0
 20
0
 30
0
  9
$EXTMIN
 10
0
 20
0
 30
0
  9
$EXTMAX
 10
594.4692619556159
 20
323.565297314859
 30
0
  9
$LIMMIN
 10
0
 20
0
  9
$LIMMAX
 10
504
 20
356.4
  9
$ORTHOMODE
 70
    0
  9
$REGENMODE
 70
    1
  9
$FILLMODE
 70
    1
  9
$QTEXTMODE
 70
    0
  9
$MIRRTEXT
 70
    0
  9
$LTSCALE
 40
1.199999999999999
  9
$ATTMODE
 70
    1
  9
$TEXTSIZE
 40
0.2
  9
$TRACEWID
 40
0.05
  9
$TEXTSTYLE
  7
Standard
  9
$CLAYER
  8
0
  9
$CELTYPE
  6
ByLayer
  9
$CECOLOR
 62
  256
  9
$CELTSCALE
 40
1
  9
$DISPSILH
 70
    0
  9
$DIMSCALE
 40
1
  9
$DIMASZ
 40
0.18
  9
$DIMEXO
 40
0.0625
  9
$DIMDLI
 40
0.38
  9
$DIMRND
 40
0
  9
$DIMDLE
 40
0
  9
$DIMEXE
 40
0.18
  9
$DIMTP
 40
0
  9
$DIMTM
 40
0
  9
$DIMTXT
 40
0.18
  9
$DIMCEN
 40
0.09
  9
$DIMTSZ
 40
0
  9
$DIMTOL
 70
    0
  9
$DIMLIM
 70
    0
  9
$DIMTIH
 70
    1
  9
$DIMTOH
 70
    1
  9
$DIMSE1
 70
    0
  9
$DIMSE2
 70
    0
  9
$DIMTAD
 70
    0
  9
$DIMZIN
 70
    0
  9
$DIMBLK
  1

  9
$DIMASO
 70
    1
  9
$DIMSHO
 70
    1
  9
$DIMPOST
  1

  9
$DIMAPOST
  1

  9
$DIMALT
 70
    0
  9
$DIMALTD
 70
    2
  9
$DIMALTF
 40
25.4
  9
$DIMLFAC
 40
1
  9
$DIMTOFL
 70
    0
  9
$DIMTVP
 40
0
  9
$DIMTIX
 70
    0
  9
$DIMSOXD
 70
    0
  9
$DIMSAH
 70
    0
  9
$DIMBLK1
  1

  9
$DIMBLK2
  1

  9
$DIMSTYLE
  2
Standard
  9
$DIMCLRD
 70
    0
  9
$DIMCLRE
 70
    0
  9
$DIMCLRT
 70
    0
  9
$DIMTFAC
 40
1
  9
$DIMGAP
 40
0.09
  9
$DIMJUST
 70
    0
  9
$DIMSD1
 70
    0
  9
$DIMSD2
 70
    0
  9
$DIMTOLJ
 70
    1
  9
$DIMTZIN
 70
    0
  9
$DIMALTZ
 70
    0
  9
$DIMALTTZ
 70
    0
  9
$DIMUPT
 70
    0
  9
$DIMDEC
 70
    4
  9
$DIMTDEC
 70
    4
  9
$DIMALTU
 70
    2
  9
$DIMALTTD
 70
    2
  9
$DIMTXSTY
  7
Standard
  9
$DIMAUNIT
 70
    0
  9
$DIMADEC
 70
    0
  9
$DIMALTRND
 40
0
  9
$DIMAZIN
 70
    0
  9
$DIMDSEP
 70
   46
  9
$DIMATFIT
 70
    3
  9
$DIMFRAC
 70
    0
  9
$DIMLDRBLK
  1

  9
$DIMLUNIT
 70
    2
  9
$DIMLWD
 70
   -2
  9
$DIMLWE
 70
   -2
  9
$DIMTMOVE
 70
    0
  9
$DIMFXL
 40
1
  9
$DIMFXLON
 70
    0
  9
$DIMJOGANG
 40
0.7853981633974483
  9
$DIMTFILL
 70
    0
  9
$DIMTFILLCLR
 70
    0
  9
$DIMARCSYM
 70
    0
  9
$DIMLTYPE
  6

  9
$DIMLTEX1
  6

  9
$DIMLTEX2
  6

  9
$LUNITS
 70
    2
  9
$LUPREC
 70
    4
  9
$SKETCHINC
 40
0.1
  9
$FILLETRAD
 40
0
  9
$AUNITS
 70
    0
  9
$AUPREC
 70
    0
  9
$MENU
  1
.
  9
$ELEVATION
 40
0
  9
$PELEVATION
 40
0
  9
$THICKNESS
 40
0
  9
$LIMCHECK
 70
    0
  9
$CHAMFERA
 40
0
  9
$CHAMFERB
 40
0
  9
$CHAMFERC
 40
0
  9
$CHAMFERD
 40
0
  9
$SKPOLY
 70
    0
  9
$USRTIMER
 70
    1
  9
$ANGBASE
 50
0
  9
$ANGDIR
 70
    0
  9
$PDMODE
 70
    0
  9
$PDSIZE
 40
0
  9
$PLINEWID
 40
0
  9
$SPLFRAME
 70
    0
  9
$SPLINETYPE
 70
    6
  9
$SPLINESEGS
 70
    8
  9
$HANDSEED
  5
20000
  9
$SURFTAB1
 70
    6
  9
$SURFTAB2
 70
    6
  9
$SURFTYPE
 70
    6
  9
$SURFU
 70
    6
  9
$SURFV
 70
    6
  9
$UCSBASE
  2

  9
$UCSNAME
  2

  9
$UCSORG
 10
0
 20
0
 30
0
  9
$UCSXDIR
 10
1
 20
0
 30
0
  9
$UCSYDIR
 10
0
 20
1
 30
0
  9
$UCSORTHOREF
  2

  9
$UCSORTHOVIEW
 70
    0
  9
$UCSORGTOP
 10
0
 20
0
 30
0
  9
$UCSORGBOTTOM
 10
0
 20
0
 30
0
  9
$UCSORGLEFT
 10
0
 20
0
 30
0
  9
$UCSORGRIGHT
 10
0
 20
0
 30
0
  9
$UCSORGFRONT
 10
0
 20
0
 30
0
  9
$UCSORGBACK
 10
0
 20
0
 30
0
  9
$PUCSBASE
  2

  9
$PUCSNAME
  2

  9
$PUCSORG
 10
0
 20
0
 30
0
  9
$PUCSXDIR
 10
1
 20
0
 30
0
  9
$PUCSYDIR
 10
0
 20
1
 30
0
  9
$PUCSORTHOREF
  2

  9
$PUCSORTHOVIEW
 70
    0
  9
$PUCSORGTOP
 10
0
 20
0
 30
0
  9
$PUCSORGBOTTOM
 10
0
 20
0
 30
0
  9
$PUCSORGLEFT
 10
0
 20
0
 30
0
  9
$PUCSORGRIGHT
 10
0
 20
0
 30
0
  9
$PUCSORGFRONT
 10
0
 20
0
 30
0
  9
$PUCSORGBACK
 10
0
 20
0
 30
0
  9
$USERI1
 70
    0
  9
$USERI2
 70
    0
  9
$USERI3
 70
    0
  9
$USERI4
 70
    0
  9
$USERI5
 70
    0
  9
$USERR1
 40
0
  9
$USERR2
 40
0
  9
$USERR3
 40
0
  9
$USERR4
 40
0
  9
$USERR5
 40
0
  9
$WORLDVIEW
 70
    1
  9
$SHADEDGE
 70
    3
  9
$SHADEDIF
 70
   70
  9
$TILEMODE
 70
    1
  9
$MAXACTVP
 70
   64
  9
$PINSBASE
 10
12.5
 20
47.84189123592643
 30
0
  9
$PLIMCHECK
 70
    0
  9
$PEXTMIN
 10
0
 20
0
 30
0
  9
$PEXTMAX
 10
504
 20
356.4
 30
0
  9
$GRIDMODE
 70
    0
  9
$SNAPSTYLE
 70
    0
  9
$PLIMMIN
 10
0
 20
0
  9
$PLIMMAX
 10
504
 20
356.4
  9
$UNITMODE
 70
    0
  9
$VISRETAIN
 70
    1
  9
$PLINEGEN
 70
    0
  9
$PSLTSCALE
 70
    1
  9
$TREEDEPTH
 70
 3020
  9
$CMLSTYLE
  2
Standard
  9
$CMLJUST
 70
    0
  9
$CMLSCALE
 40
1
  9
$PROXYGRAPHICS
 70
    1
  9
$MEASUREMENT
 70
    1
  9
$CELWEIGHT
370
   -1
  9
$ENDCAPS
280
    0
  9
$JOINSTYLE
280
    0
  9
$LWDISPLAY
290
    0
  9
$INSUNITS
 70
    4
  9
$HYPERLINKBASE
  1

  9
$STYLESHEET
  1

  9
$XEDIT
290
    1
  9
$CEPSNTYPE
380
    0
  9
$PSTYLEMODE
290
    1
  9
$EXTNAMES
290
    1
  9
$PSVPSCALE
 40
0.805762815657583
  9
$OLESTARTUP
290
    0
  9
$SORTENTS
280
  127
  9
$INDEXCTL
280
    0
  9
$HIDETEXT
280
    1
  9
$XCLIPFRAME
290
    2
  9
$HALOGAP
280
    0
  9
$OBSCOLOR
 70
  257
  9
$OBSLTYPE
280
    0
  9
$INTERSECTIONDISPLAY
280
    0
  9
$INTERSECTIONCOLOR
 70
  257
  9
$DIMASSOC
280
    1
  9
$PROJECTNAME
  1

  9
$CAMERADISPLAY
290
    0
  9
$LENSLENGTH
 40
50
  9
$CAMERAHEIGHT
 40
0
  9
$STEPSPERSEC
 40
2
  9
$STEPSIZE
 40
6
  9
$3DDWFPREC
 40
2
  9
$PSOLWIDTH
 40
0.25
  9
$PSOLHEIGHT
 40
4
  9
$LOFTANG1
 40
1.570796326794896
  9
$LOFTANG2
 40
1.570796326794896
  9
$LOFTMAG1
 40
0
  9
$LOFTMAG2
 40
0
  9
$LOFTPARAM
 70
    7
  9
$LOFTNORMALS
280
    1
  9
$LATITUDE
 40
37.795
  9
$LONGITUDE
 40
-122.394
  9
$NORTHDIRECTION
 40
0
  9
$TIMEZONE
 70
-8000
  9
$LIGHTGLYPHDISPLAY
280
    1
  9
$TILEMODELIGHTSYNCH
280
    1
  9
$SOLIDHIST
280
    0
  9
$SHOWHIST
280
    1
  9
$DWFFRAME
280
    2
  9
$DGNFRAME
280
    0
  9
$REALWORLDSCALE
290
    1
  9
$INTERFERECOLOR
 62
    1
  9
$CSHADOW
280
    0
  9
$SHADOWPLANELOCATION
 40
0
  0
ENDSEC
  0
SECTION
  2
CLASSES
  0
ENDSEC
  0
SECTION
  2
TABLES
  0
TABLE
  2
VPORT
  5
8
330
0
100
AcDbSymbolTable
 70
    1
  0
VPORT
  5
31
330
2
100
AcDbSymbolTableRecord
100
AcDbViewportTableRecord
  2
*ACTIVE
 70
    0
 10
0
 20
0
 11
1
 21
1
 12
342.2971805523137
 22
199.9450197511928
 13
0
 23
0
 14
10
 24
10
 15
10
 25
10
 16
0
 26
0
 36
1
 17
0
 27
0
 37
0
 40
460.7428716005746
 41
2.200471698113208
 42
50
 43
0
 44
0
 50
0
 51
0
 71
    0
 72
  100
 73
    1
 74
    3
 75
    0
 76
    0
 77
    0
 78
    0
281
    0
 65
    1
110
0
120
0
130
0
111
1
121
0
131
0
112
0
122
1
132
0
 79
    0
146
0
348
10020
 60
    7
 61
    5
292
1
282
    1
141
0
142
0
 63
  250
421
3358443
  0
ENDTAB
  0
TABLE
  2
LTYPE
  5
5
330
0
100
AcDbSymbolTable
 70
    4
  0
LTYPE
  5
14
330
5
100
AcDbSymbolTableRecord
100
AcDbLinetypeTableRecord
  2
ByBlock
 70
    0
  3

 72
   65
 73
    0
 40
0
  0
LTYPE
  5
15
330
5
100
AcDbSymbolTableRecord
100
AcDbLinetypeTableRecord
  2
ByLayer
 70
    0
  3

 72
   65
 73
    0
 40
0
  0
LTYPE
  5
16
330
5
100
AcDbSymbolTableRecord
100
AcDbLinetypeTableRecord
  2
Continuous
 70
    0
  3
Solid line
 72
   65
 73
    0
 40
0
  0
LTYPE
  5
32
330
5
100
AcDbSymbolTableRecord
100
AcDbLinetypeTableRecord
  2
DOT
 70
    0
  3
Dot . . . . . . . . . . . . . . . . . . . . . .
 72
   65
 73
    2
 40
6.35
 49
0
 74
    0
 49
-6.35
 74
    0
  0
LTYPE
  5
33
330
5
100
AcDbSymbolTableRecord
100
AcDbLinetypeTableRecord
  2
DOTTINY
 70
    0
  3
Dot (.15x) .....................................
 72
   65
 73
    2
 40
0.9525
 49
0
 74
    0
 49
-0.9525
 74
    0
  0
LTYPE
  5
34
330
5
100
AcDbSymbolTableRecord
100
AcDbLinetypeTableRecord
  2
DOT2
 70
    0
  3
Dot (.5x) .....................................
 72
   65
 73
    2
 40
3.175
 49
0
 74
    0
 49
-3.175
 74
    0
  0
LTYPE
  5
35
330
5
100
AcDbSymbolTableRecord
100
AcDbLinetypeTableRecord
  2
DOTX2
 70
    0
  3
Dot (2x) .  .  .  .  .  .  .  .  .  .  .  .  .
 72
   65
 73
    2
 40
12.7
 49
0
 74
    0
 49
-12.7
 74
    0
  0
LTYPE
  5
36
330
5
100
AcDbSymbolTableRecord
100
AcDbLinetypeTableRecord
  2
DASHED
 70
    0
  3
Dashed _ _ _ _ _ _ _ _ _ _ _ _ _ _ _ _ _
 72
   65
 73
    2
 40
19.05
 49
12.7
 74
    0
 49
-6.35
 74
    0
  0
LTYPE
  5
37
330
5
100
AcDbSymbolTableRecord
100
AcDbLinetypeTableRecord
  2
DASHEDTINY
 70
    0
  3
Dashed (.15x) _ _ _ _ _ _ _ _ _ _ _ _ _ _ _ _ _
 72
   65
 73
    2
 40
2.8575
 49
1.905
 74
    0
 49
-0.9525
 74
    0
  0
LTYPE
  5
38
330
5
100
AcDbSymbolTableRecord
100
AcDbLinetypeTableRecord
  2
DASHED2
 70
    0
  3
Dashed (.5x) _ _ _ _ _ _ _ _ _ _ _ _ _ _ _ _ _
 72
   65
 73
    2
 40
9.524999999999999
 49
6.35
 74
    0
 49
-3.175
 74
    0
  0
LTYPE
  5
39
330
5
100
AcDbSymbolTableRecord
100
AcDbLinetypeTableRecord
  2
DASHEDX2
 70
    0
  3
Dashed (2x) ____  ____  ____  ____  ____  ___
 72
   65
 73
    2
 40
38.09999999999999
 49
25.4
 74
    0
 49
-12.7
 74
    0
  0
LTYPE
  5
3A
330
5
100
AcDbSymbolTableRecord
100
AcDbLinetypeTableRecord
  2
DASHDOT
 70
    0
  3
Dash dot __ . __ . __ . __ . __ . __ . __ . __
 72
   65
 73
    4
 40
25.4
 49
12.7
 74
    0
 49
-6.35
 74
    0
 49
0
 74
    0
 49
-6.35
 74
    0
  0
LTYPE
  5
3B
330
5
100
AcDbSymbolTableRecord
100
AcDbLinetypeTableRecord
  2
DASHDOTTINY
 70
    0
  3
Dash dot (.15x) _._._._._._._._._._._._._._._.
 72
   65
 73
    4
 40
3.81
 49
1.905
 74
    0
 49
-0.9525
 74
    0
 49
0
 74
    0
 49
-0.9525
 74
    0
  0
LTYPE
  5
3C
330
5
100
AcDbSymbolTableRecord
100
AcDbLinetypeTableRecord
  2
DASHDOT2
 70
    0
  3
Dash dot (.5x) _._._._._._._._._._._._._._._.
 72
   65
 73
    4
 40
12.7
 49
6.35
 74
    0
 49
-3.175
 74
    0
 49
0
 74
    0
 49
-3.175
 74
    0
  0
LTYPE
  5
3D
330
5
100
AcDbSymbolTableRecord
100
AcDbLinetypeTableRecord
  2
DASHDOTX2
 70
    0
  3
Dash dot (2x) ____  .  ____  .  ____  .  ___
 72
   65
 73
    4
 40
50.8
 49
25.4
 74
    0
 49
-12.7
 74
    0
 49
0
 74
    0
 49
-12.7
 74
    0
  0
LTYPE
  5
3E
330
5
100
AcDbSymbolTableRecord
100
AcDbLinetypeTableRecord
  2
DIVIDE
 70
    0
  3
Divide ____ . . ____ . . ____ . . ____ . . ____
 72
   65
 73
    6
 40
31.75
 49
12.7
 74
    0
 49
-6.35
 74
    0
 49
0
 74
    0
 49
-6.35
 74
    0
 49
0
 74
    0
 49
-6.35
 74
    0
  0
LTYPE
  5
3F
330
5
100
AcDbSymbolTableRecord
100
AcDbLinetypeTableRecord
  2
DIVIDETINY
 70
    0
  3
Divide (.15x) __..__..__..__..__..__..__..__.._
 72
   65
 73
    6
 40
4.7625
 49
1.905
 74
    0
 49
-0.9525
 74
    0
 49
0
 74
    0
 49
-0.9525
 74
    0
 49
0
 74
    0
 49
-0.9525
 74
    0
  0
LTYPE
  5
40
330
5
100
AcDbSymbolTableRecord
100
AcDbLinetypeTableRecord
  2
DIVIDE2
 70
    0
  3
Divide (.5x) __..__..__..__..__..__..__..__.._
 72
   65
 73
    6
 40
15.875
 49
6.35
 74
    0
 49
-3.175
 74
    0
 49
0
 74
    0
 49
-3.175
 74
    0
 49
0
 74
    0
 49
-3.175
 74
    0
  0
LTYPE
  5
41
330
5
100
AcDbSymbolTableRecord
100
AcDbLinetypeTableRecord
  2
DIVIDEX2
 70
    0
  3
Divide (2x) ________  .  .  ________  .  .  _
 72
   65
 73
    6
 40
63.5
 49
25.4
 74
    0
 49
-12.7
 74
    0
 49
0
 74
    0
 49
-12.7
 74
    0
 49
0
 74
    0
 49
-12.7
 74
    0
  0
LTYPE
  5
42
330
5
100
AcDbSymbolTableRecord
100
AcDbLinetypeTableRecord
  2
BORDER
 70
    0
  3
Border __ __ . __ __ . __ __ . __ __ . __ __ .
 72
   65
 73
    6
 40
44.45
 49
12.7
 74
    0
 49
-6.35
 74
    0
 49
12.7
 74
    0
 49
-6.35
 74
    0
 49
0
 74
    0
 49
-6.35
 74
    0
  0
LTYPE
  5
43
330
5
100
AcDbSymbolTableRecord
100
AcDbLinetypeTableRecord
  2
BORDERTINY
 70
    0
  3
Border (.15x) __.__.__.__.__.__.__.__.__.__.__.
 72
   65
 73
    6
 40
6.6675
 49
1.905
 74
    0
 49
-0.9525
 74
    0
 49
1.905
 74
    0
 49
-0.9525
 74
    0
 49
0
 74
    0
 49
-0.9525
 74
    0
  0
LTYPE
  5
44
330
5
100
AcDbSymbolTableRecord
100
AcDbLinetypeTableRecord
  2
BORDER2
 70
    0
  3
Border (.5x) __.__.__.__.__.__.__.__.__.__.__.
 72
   65
 73
    6
 40
22.225
 49
6.35
 74
    0
 49
-3.175
 74
    0
 49
6.35
 74
    0
 49
-3.175
 74
    0
 49
0
 74
    0
 49
-3.175
 74
    0
  0
LTYPE
  5
45
330
5
100
AcDbSymbolTableRecord
100
AcDbLinetypeTableRecord
  2
BORDERX2
 70
    0
  3
Border (2x) ____  ____  .  ____  ____  .  ___
 72
   65
 73
    6
 40
88.89999999999999
 49
25.4
 74
    0
 49
-12.7
 74
    0
 49
25.4
 74
    0
 49
-12.7
 74
    0
 49
0
 74
    0
 49
-12.7
 74
    0
  0
LTYPE
  5
46
330
5
100
AcDbSymbolTableRecord
100
AcDbLinetypeTableRecord
  2
CENTER
 70
    0
  3
Center ____ _ ____ _ ____ _ ____ _ ____ _ ____
 72
   65
 73
    4
 40
50.8
 49
31.75
 74
    0
 49
-6.35
 74
    0
 49
6.35
 74
    0
 49
-6.35
 74
    0
  0
LTYPE
  5
47
330
5
100
AcDbSymbolTableRecord
100
AcDbLinetypeTableRecord
  2
CENTERTINY
 70
    0
  3
Center (.15x) ___ _ ___ _ ___ _ ___ _ ___ _ ___
 72
   65
 73
    4
 40
7.62
 49
4.7625
 74
    0
 49
-0.9525
 74
    0
 49
0.9525
 74
    0
 49
-0.9525
 74
    0
  0
LTYPE
  5
48
330
5
100
AcDbSymbolTableRecord
100
AcDbLinetypeTableRecord
  2
CENTER2
 70
    0
  3
Center (.5x) ___ _ ___ _ ___ _ ___ _ ___ _ ___
 72
   65
 73
    4
 40
28.575
 49
19.05
 74
    0
 49
-3.175
 74
    0
 49
3.175
 74
    0
 49
-3.175
 74
    0
  0
LTYPE
  5
49
330
5
100
AcDbSymbolTableRecord
100
AcDbLinetypeTableRecord
  2
CENTERX2
 70
    0
  3
Center (2x) ________  __  ________  __  _____
 72
   65
 73
    4
 40
101.6
 49
63.5
 74
    0
 49
-12.7
 74
    0
 49
12.7
 74
    0
 49
-12.7
 74
    0
  0
ENDTAB
  0
TABLE
  2
LAYER
  5
2
330
0
100
AcDbSymbolTable
 70
    1
  0
LAYER
  5
10
330
2
100
AcDbSymbolTableRecord
100
AcDbLayerTableRecord
  2
0
 70
    0
 62
    7
  6
CONTINUOUS
370
   -3
390
F
  0
LAYER
  5
4A
330
2
100
AcDbSymbolTableRecord
100
AcDbLayerTableRecord
  2
Bemaßung (ISO)
 70
    0
 62
    7
  6
CONTINUOUS
370
    9
390
F
  0
LAYER
  5
4B
330
2
100
AcDbSymbolTableRecord
100
AcDbLayerTableRecord
  2
Defpoints
 70
    0
 62
    7
  6
CONTINUOUS
290
0
370
   -3
390
F
  0
LAYER
  5
4C
330
2
100
AcDbSymbolTableRecord
100
AcDbLayerTableRecord
  2
Mittellinie (ISO)
 70
    0
 62
    1
  6
CONTINUOUS
370
    9
390
F
  0
LAYER
  5
4D
330
2
100
AcDbSymbolTableRecord
100
AcDbLayerTableRecord
  2
Mittelpunktmarkierung (ISO)
 70
    0
 62
    1
  6
CONTINUOUS
370
    9
390
F
  0
LAYER
  5
4E
330
2
100
AcDbSymbolTableRecord
100
AcDbLayerTableRecord
  2
Schraffur
 70
    0
 62
    1
  6
CONTINUOUS
370
    9
390
F
  0
LAYER
  5
4F
330
2
100
AcDbSymbolTableRecord
100
AcDbLayerTableRecord
  2
Schraffur (ISO)
 70
    0
 62
    6
  6
CONTINUOUS
370
    9
390
F
  0
LAYER
  5
50
330
2
100
AcDbSymbolTableRecord
100
AcDbLayerTableRecord
  2
Sichtbar (ISO)
 70
    0
 62
    7
  6
CONTINUOUS
370
   25
390
F
  0
LAYER
  5
51
330
2
100
AcDbSymbolTableRecord
100
AcDbLayerTableRecord
  2
Skizziergeometrie (ISO)
 70
    0
 62
    7
  6
CONTINUOUS
370
   18
390
F
  0
LAYER
  5
52
330
2
100
AcDbSymbolTableRecord
100
AcDbLayerTableRecord
  2
Skizziergeometrie(DIN)
 70
    0
 62
  179
420
2500185
  6
CONTINUOUS
370
   35
390
F
  0
LAYER
  5
53
330
2
100
AcDbSymbolTableRecord
100
AcDbLayerTableRecord
  2
Symbol (ISO)
 70
    0
 62
    5
  6
CONTINUOUS
370
    9
390
F
  0
LAYER
  5
54
330
2
100
AcDbSymbolTableRecord
100
AcDbLayerTableRecord
  2
Symbole(DIN)
 70
    0
 62
    7
  6
CONTINUOUS
370
   18
390
F
  0
ENDTAB
  0
TABLE
  2
STYLE
  5
3
330
0
100
AcDbSymbolTable
 70
    3
  0
STYLE
  5
55
330
2
100
AcDbSymbolTableRecord
100
AcDbTextStyleTableRecord
  2
aktuell-din
 70
    0
 40
0
 41
1
 50
0
 71
    0
 42
1
  3
aktuell-din
  4

  0
STYLE
  5
56
330
2
100
AcDbSymbolTableRecord
100
AcDbTextStyleTableRecord
  2
notiztext (din)
 70
    0
 40
0
 41
1
 50
0
 71
    0
 42
1
  3
notiztext (din)
  4

  0
STYLE
  5
57
330
2
100
AcDbSymbolTableRecord
100
AcDbTextStyleTableRecord
  2
Standard
 70
    0
 40
0
 41
1
 50
0
 71
    0
 42
1
  3
txt
  4

  0
ENDTAB
  0
TABLE
  2
VIEW
  5
6
330
0
100
AcDbSymbolTable
 70
    0
  0
ENDTAB
  0
TABLE
  2
UCS
  5
7
330
0
100
AcDbSymbolTable
 70
    0
  0
ENDTAB
  0
TABLE
  2
APPID
  5
9
330
0
100
AcDbSymbolTable
 70
    1
  0
APPID
  5
12
330
9
100
AcDbSymbolTableRecord
100
AcDbRegAppTableRecord
  2
ACAD
 70
    0
  0
APPID
  5
58
330
9
100
AcDbSymbolTableRecord
100
AcDbRegAppTableRecord
  2
LibreCad
 70
    0
  0
ENDTAB
  0
TABLE
  2
DIMSTYLE
  5
A
330
0
100
AcDbSymbolTable
 70
    1
100
AcDbDimStyleTable
 71
    1
  0
DIMSTYLE
105
59
330
A
100
AcDbSymbolTableRecord
100
AcDbDimStyleTableRecord
  2
Standard
 70
    0
 40
1
 41
0.18
 42
0.0625
 43
0.38
 44
0.18
 45
0
 46
0
 47
0
 48
0
 49
1
140
0.18
141
0.09
142
0
143
25.4
144
1
145
0
146
1
147
0.09
148
0
 71
    0
 72
    0
 73
    1
 74
    1
 75
    0
 76
    0
 77
    0
 78
    0
 79
    0
170
    0
171
    2
172
    0
173
    0
174
    0
175
    0
176
    0
177
    0
178
    0
179
    0
271
    4
272
    4
273
    2
274
    2
275
    0
276
    0
277
    2
278
   46
279
    0
280
    0
281
    0
282
    0
283
    1
284
    0
285
    0
286
    0
288
    0
289
    3
340
Standard
341

371
   -2
372
   -2
  0
ENDTAB
  0
TABLE
  2
BLOCK_RECORD
  5
1
330
0
100
AcDbSymbolTable
 70
    2
  0
BLOCK_RECORD
  5
1F
330
1
100
AcDbSymbolTableRecord
100
AcDbBlockTableRecord
  2
*Model_Space
 70
    0
280
    1
281
    0
  0
BLOCK_RECORD
  5
1E
330
1
100
AcDbSymbolTableRecord
100
AcDbBlockTableRecord
  2
*Paper_Space
 70
    0
280
    1
281
    0
  0
BLOCK_RECORD
  5
5A
330
1
100
AcDbSymbolTableRecord
100
AcDbBlockTableRecord
  2
*D3
 70
    0
280
    1
281
    0
  0
BLOCK_RECORD
  5
5D
330
1
100
AcDbSymbolTableRecord
100
AcDbBlockTableRecord
  2
*D5
 70
    0
280
    1
281
    0
  0
BLOCK_RECORD
  5
60
330
1
100
AcDbSymbolTableRecord
100
AcDbBlockTableRecord
  2
*D8
 70
    0
280
    1
281
    0
  0
BLOCK_RECORD
  5
63
330
1
100
AcDbSymbolTableRecord
100
AcDbBlockTableRecord
  2
*D6
 70
    0
280
    1
281
    0
  0
BLOCK_RECORD
  5
66
330
1
100
AcDbSymbolTableRecord
100
AcDbBlockTableRecord
  2
*D1
 70
    0
280
    1
281
    0
  0
BLOCK_RECORD
  5
69
330
1
100
AcDbSymbolTableRecord
100
AcDbBlockTableRecord
  2
*D14
 70
    0
280
    1
281
    0
  0
BLOCK_RECORD
  5
6C
330
1
100
AcDbSymbolTableRecord
100
AcDbBlockTableRecord
  2
*D4
 70
    0
280
    1
281
    0
  0
BLOCK_RECORD
  5
6F
330
1
100
AcDbSymbolTableRecord
100
AcDbBlockTableRecord
  2
*D10
 70
    0
280
    1
281
    0
  0
BLOCK_RECORD
  5
72
330
1
100
AcDbSymbolTableRecord
100
AcDbBlockTableRecord
  2
*D9
 70
    0
280
    1
281
    0
  0
BLOCK_RECORD
  5
75
330
1
100
AcDbSymbolTableRecord
100
AcDbBlockTableRecord
  2
*D15
 70
    0
280
    1
281
    0
  0
BLOCK_RECORD
  5
78
330
1
100
AcDbSymbolTableRecord
100
AcDbBlockTableRecord
  2
*D12
 70
    0
280
    1
281
    0
  0
BLOCK_RECORD
  5
7B
330
1
100
AcDbSymbolTableRecord
100
AcDbBlockTableRecord
  2
*D2
 70
    0
280
    1
281
    0
  0
BLOCK_RECORD
  5
7E
330
1
100
AcDbSymbolTableRecord
100
AcDbBlockTableRecord
  2
*D13
 70
    0
280
    1
281
    0
  0
BLOCK_RECORD
  5
81
330
1
100
AcDbSymbolTableRecord
100
AcDbBlockTableRecord
  2
*D7
 70
    0
280
    1
281
    0
  0
BLOCK_RECORD
  5
84
330
1
100
AcDbSymbolTableRecord
100
AcDbBlockTableRecord
  2
*D11
 70
    0
280
    1
281
    0
  0
BLOCK_RECORD
  5
87
330
1
100
AcDbSymbolTableRecord
100
AcDbBlockTableRecord
  2
Filled-1
 70
    0
280
    1
281
    0
  0
BLOCK_RECORD
  5
8A
330
1
100
AcDbSymbolTableRecord
100
AcDbBlockTableRecord
  2
DatumFilled45
 70
    0
280
    1
281
    0
  0
BLOCK_RECORD
  5
8D
330
1
100
AcDbSymbolTableRecord
100
AcDbBlockTableRecord
  2
Glasbearbeitung
 70
    0
280
    1
281
    0
  0
BLOCK_RECORD
  5
90
330
1
100
AcDbSymbolTableRecord
100
AcDbBlockTableRecord
  2
unbemaßte_Kanten
 70
    0
280
    1
281
    0
  0
BLOCK_RECORD
  5
93
330
1
100
AcDbSymbolTableRecord
100
AcDbBlockTableRecord
  2
Schleifrichtung
 70
    0
280
    1
281
    0
  0
BLOCK_RECORD
  5
96
330
1
100
AcDbSymbolTableRecord
100
AcDbBlockTableRecord
  2
Senkung DIN 974-1 für Zylinderkopfschrauben
 70
    0
280
    1
281
    0
  0
BLOCK_RECORD
  5
99
330
1
100
AcDbSymbolTableRecord
100
AcDbBlockTableRecord
  2
Senkung DIN 74-1 B (f) f. Senkschrauben
 70
    0
280
    1
281
    0
  0
BLOCK_RECORD
  5
9C
330
1
100
AcDbSymbolTableRecord
100
AcDbBlockTableRecord
  2
Rz4(Rz16)
 70
    0
280
    1
281
    0
  0
BLOCK_RECORD
  5
9F
330
1
100
AcDbSymbolTableRecord
100
AcDbBlockTableRecord
  2
Rz16(Rz4)
 70
    0
280
    1
281
    0
  0
BLOCK_RECORD
  5
A2
330
1
100
AcDbSymbolTableRecord
100
AcDbBlockTableRecord
  2
unbemaßte_Kanten 0_5
 70
    0
280
    1
281
    0
  0
BLOCK_RECORD
  5
A5
330
1
100
AcDbSymbolTableRecord
100
AcDbBlockTableRecord
  2
unbemaßte_Kanten 1
 70
    0
280
    1
281
    0
  0
BLOCK_RECORD
  5
A8
330
1
100
AcDbSymbolTableRecord
100
AcDbBlockTableRecord
  2
Schleifrichtung rund
 70
    0
280
    1
281
    0
  0
BLOCK_RECORD
  5
AB
330
1
100
AcDbSymbolTableRecord
100
AcDbBlockTableRecord
  2
Prototyp
 70
    0
280
    1
281
    0
  0
BLOCK_RECORD
  5
AE
330
1
100
AcDbSymbolTableRecord
100
AcDbBlockTableRecord
  2
Freigabe
 70
    0
280
    1
281
    0
  0
BLOCK_RECORD
  5
B1
330
1
100
AcDbSymbolTableRecord
100
AcDbBlockTableRecord
  2
Freigabe(Englisch)
 70
    0
280
    1
281
    0
  0
BLOCK_RECORD
  5
B4
330
1
100
AcDbSymbolTableRecord
100
AcDbBlockTableRecord
  2
Freigabe(Französisch)
 70
    0
280
    1
281
    0
  0
BLOCK_RECORD
  5
B7
330
1
100
AcDbSymbolTableRecord
100
AcDbBlockTableRecord
  2
Freigabe(Spanisch)
 70
    0
280
    1
281
    0
  0
BLOCK_RECORD
  5
BA
330
1
100
AcDbSymbolTableRecord
100
AcDbBlockTableRecord
  2
Schleifrichtung 30°
 70
    0
280
    1
281
    0
  0
BLOCK_RECORD
  5
BD
330
1
100
AcDbSymbolTableRecord
100
AcDbBlockTableRecord
  2
Schleifrichtung 60°
 70
    0
280
    1
281
    0
  0
BLOCK_RECORD
  5
C0
330
1
100
AcDbSymbolTableRecord
100
AcDbBlockTableRecord
  2
Schleifrichtung 40°
 70
    0
280
    1
281
    0
  0
BLOCK_RECORD
  5
C3
330
1
100
AcDbSymbolTableRecord
100
AcDbBlockTableRecord
  2
Schleifrichtung 90°
 70
    0
280
    1
281
    0
  0
BLOCK_RECORD
  5
C6
330
1
100
AcDbSymbolTableRecord
100
AcDbBlockTableRecord
  2
Schleifrichtung 20°
 70
    0
280
    1
281
    0
  0
BLOCK_RECORD
  5
C9
330
1
100
AcDbSymbolTableRecord
100
AcDbBlockTableRecord
  2
Schleifrichtung 15°
 70
    0
280
    1
281
    0
  0
BLOCK_RECORD
  5
CC
330
1
100
AcDbSymbolTableRecord
100
AcDbBlockTableRecord
  2
Schleifrichtung -30°
 70
    0
280
    1
281
    0
  0
BLOCK_RECORD
  5
CF
330
1
100
AcDbSymbolTableRecord
100
AcDbBlockTableRecord
  2
Schleifrichtung -15°
 70
    0
280
    1
281
    0
  0
BLOCK_RECORD
  5
D2
330
1
100
AcDbSymbolTableRecord
100
AcDbBlockTableRecord
  2
Schleifrichtung -40°
 70
    0
280
    1
281
    0
  0
BLOCK_RECORD
  5
D5
330
1
100
AcDbSymbolTableRecord
100
AcDbBlockTableRecord
  2
Schleifrichtung -60°
 70
    0
280
    1
281
    0
  0
BLOCK_RECORD
  5
D8
330
1
100
AcDbSymbolTableRecord
100
AcDbBlockTableRecord
  2
Schleifrichtung -50°
 70
    0
280
    1
281
    0
  0
BLOCK_RECORD
  5
DB
330
1
100
AcDbSymbolTableRecord
100
AcDbBlockTableRecord
  2
Flächen Galvanik
 70
    0
280
    1
281
    0
  0
BLOCK_RECORD
  5
DE
330
1
100
AcDbSymbolTableRecord
100
AcDbBlockTableRecord
  2
Duschenglas 8mm
 70
    0
280
    1
281
    0
  0
BLOCK_RECORD
  5
E1
330
1
100
AcDbSymbolTableRecord
100
AcDbBlockTableRecord
  2
Außerhalb der AbZ 85
 70
    0
280
    1
281
    0
  0
BLOCK_RECORD
  5
E4
330
1
100
AcDbSymbolTableRecord
100
AcDbBlockTableRecord
  2
Duschenglas 6mm
 70
    0
280
    1
281
    0
  0
BLOCK_RECORD
  5
E7
330
1
100
AcDbSymbolTableRecord
100
AcDbBlockTableRecord
  2
unbemaßte Kanten R_0_2 runden
 70
    0
280
    1
281
    0
  0
BLOCK_RECORD
  5
EA
330
1
100
AcDbSymbolTableRecord
100
AcDbBlockTableRecord
  2
Prüfzertifikat nach DIN EN 10204 (3.1) erforderlich
 70
    0
280
    1
281
    0
  0
BLOCK_RECORD
  5
ED
330
1
100
AcDbSymbolTableRecord
100
AcDbBlockTableRecord
  2
Reinigen
 70
    0
280
    1
281
    0
  0
BLOCK_RECORD
  5
F0
330
1
100
AcDbSymbolTableRecord
100
AcDbBlockTableRecord
  2
Schleifrichtung rund-2
 70
    0
280
    1
281
    0
  0
BLOCK_RECORD
  5
F3
330
1
100
AcDbSymbolTableRecord
100
AcDbBlockTableRecord
  2
EPDM-washer
 70
    0
280
    1
281
    0
  0
BLOCK_RECORD
  5
F6
330
1
100
AcDbSymbolTableRecord
100
AcDbBlockTableRecord
  2
isometric view
 70
    0
280
    1
281
    0
  0
BLOCK_RECORD
  5
F9
330
1
100
AcDbSymbolTableRecord
100
AcDbBlockTableRecord
  2
glazing
 70
    0
280
    1
281
    0
  0
BLOCK_RECORD
  5
FC
330
1
100
AcDbSymbolTableRecord
100
AcDbBlockTableRecord
  2
countersink screw EN ISO A2
 70
    0
280
    1
281
    0
  0
BLOCK_RECORD
  5
FF
330
1
100
AcDbSymbolTableRecord
100
AcDbBlockTableRecord
  2
cylinder head screw EN ISO A2
 70
    0
280
    1
281
    0
  0
BLOCK_RECORD
  5
102
330
1
100
AcDbSymbolTableRecord
100
AcDbBlockTableRecord
  2
P+S glass clamp
 70
    0
280
    1
281
    0
  0
BLOCK_RECORD
  5
105
330
1
100
AcDbSymbolTableRecord
100
AcDbBlockTableRecord
  2
Eloxalqualität nach DIN 17611
 70
    0
280
    1
281
    0
  0
BLOCK_RECORD
  5
108
330
1
100
AcDbSymbolTableRecord
100
AcDbBlockTableRecord
  2
Duschenglas 8mm Weissglas
 70
    0
280
    1
281
    0
  0
BLOCK_RECORD
  5
10B
330
1
100
AcDbSymbolTableRecord
100
AcDbBlockTableRecord
  2
Duschenglas 10mm Weissglas
 70
    0
280
    1
281
    0
  0
ENDTAB
  0
ENDSEC
  0
SECTION
  2
BLOCKS
  0
BLOCK
  5
20
330
1F
100
AcDbEntity
  8
0
100
AcDbBlockBegin
  2
*Model_Space
 70
    0
 10
0
 20
0
 30
0
  3
*Model_Space
  1

  0
ENDBLK
  5
21
330
1F
100
AcDbEntity
  8
0
100
AcDbBlockEnd
  0
BLOCK
  5
1C
330
1B
100
AcDbEntity
  8
0
100
AcDbBlockBegin
  2
*Paper_Space
 70
    0
 10
0
 20
0
 30
0
  3
*Paper_Space
  1

  0
ENDBLK
  5
1D
330
1F
100
AcDbEntity
  8
0
100
AcDbBlockEnd
  0
BLOCK
  5
5B
330
5A
100
AcDbEntity
  8
0
100
AcDbBlockBegin
  2
*D3
 70
    1
 10
0
 20
0
  3
*D3
  1

  0
LINE
  5
10E
100
AcDbEntity
  8
Bemaßung (ISO)
  6
ByBlock
 62
    0
370
   -2
100
AcDbLine
 10
383.8561844018569
 20
142.8655840867408
 11
383.8561844018569
 21
128.6335840867408
  0
SOLID
  5
10F
100
AcDbEntity
  8
Bemaßung (ISO)
  6
ByBlock
 62
    0
370
   -2
100
AcDbTrace
 10
383.8561844018569
 20
142.8655840867408
 30
0
 11
383.8861568972166
 21
142.6855840867408
 31
0
 12
383.8262119064973
 22
142.6855840867408
 32
0
 13
383.8262119064973
 23
142.6855840867408
 33
0
  0
SOLID
  5
110
100
AcDbEntity
  8
Bemaßung (ISO)
  6
ByBlock
 62
    0
370
   -2
100
AcDbTrace
 10
383.8561844018569
 20
114.0655840867408
 30
0
 11
383.8262119064973
 21
114.2455840867408
 31
0
 12
383.8861568972166
 22
114.2455840867408
 32
0
 13
383.8861568972166
 23
114.2455840867408
 33
0
  0
LINE
  5
111
100
AcDbEntity
  8
Bemaßung (ISO)
  6
ByBlock
 62
    0
370
   -2
100
AcDbLine
 10
383.8561844018569
 20
128.2735840867408
 11
383.8561844018569
 21
114.0655840867408
  0
MTEXT
  5
112
100
AcDbEntity
  8
Bemaßung (ISO)
  6
CONTINUOUS
 62
    0
370
   -2
100
AcDbMText
 10
383.8561844018568
 20
128.4535840867408
 30
0
 40
0.18
 41
0.8400000000000001
 71
    5
 72
    1
  1
28.8000
  7
Standard
210
0
220
0
230
1
 50
0
 73
    2
 44
1
  0
LINE
  5
113
100
AcDbEntity
  8
Bemaßung (ISO)
  6
ByBlock
 62
    0
370
   -2
100
AcDbLine
 10
435.7936844018566
 20
142.8655840867408
 11
383.6761844018569
 21
142.8655840867408
  0
LINE
  5
114
100
AcDbEntity
  8
Bemaßung (ISO)
  6
ByBlock
 62
    0
370
   -2
100
AcDbLine
 10
435.7936844018566
 20
114.0655840867408
 11
383.6761844018569
 21
114.0655840867408
  0
ENDBLK
  5
5C
330
5A
100
AcDbEntity
  8
0
100
AcDbBlockEnd
  0
BLOCK
  5
5E
330
5D
100
AcDbEntity
  8
0
100
AcDbBlockBegin
  2
*D5
 70
    1
 10
0
 20
0
  3
*D5
  1

  0
LINE
  5
115
100
AcDbEntity
  8
Bemaßung (ISO)
  6
ByBlock
 62
    0
370
   -2
100
AcDbLine
 10
218.1375467702968
 20
90.88932116713173
 11
280.7812838506859
 21
90.88932116713173
  0
SOLID
  5
116
100
AcDbEntity
  8
Bemaßung (ISO)
  6
ByBlock
 62
    0
370
   -2
100
AcDbTrace
 10
218.1375467702968
 20
90.88932116713173
 30
0
 11
218.3175467702968
 21
90.91929366249137
 31
0
 12
218.3175467702968
 22
90.85934867177208
 32
0
 13
218.3175467702968
 23
90.85934867177208
 33
0
  0
SOLID
  5
117
100
AcDbEntity
  8
Bemaßung (ISO)
  6
ByBlock
 62
    0
370
   -2
100
AcDbTrace
 10
344.585020931075
 20
90.88932116713173
 30
0
 11
344.405020931075
 21
90.85934867177208
 31
0
 12
344.405020931075
 22
90.91929366249137
 32
0
 13
344.405020931075
 23
90.91929366249137
 33
0
  0
LINE
  5
118
100
AcDbEntity
  8
Bemaßung (ISO)
  6
ByBlock
 62
    0
370
   -2
100
AcDbLine
 10
281.9412838506859
 20
90.88932116713173
 11
344.585020931075
 21
90.88932116713173
  0
MTEXT
  5
119
100
AcDbEntity
  8
Bemaßung (ISO)
  6
CONTINUOUS
 62
    0
370
   -2
100
AcDbMText
 10
281.3612838506859
 20
90.88932116713173
 30
0
 40
0.18
 41
0.9800000000000222
 71
    5
 72
    1
  1
126.4475
  7
Standard
210
0
220
0
230
1
 50
0
 73
    2
 44
1
  0
LINE
  5
11A
100
AcDbEntity
  8
Bemaßung (ISO)
  6
ByBlock
 62
    0
370
   -2
100
AcDbLine
 10
218.1375467702968
 20
102.8268211671317
 11
218.1375467702968
 21
90.70932116713172
  0
LINE
  5
11B
100
AcDbEntity
  8
Bemaßung (ISO)
  6
ByBlock
 62
    0
370
   -2
100
AcDbLine
 10
344.585020931075
 20
102.7793470063499
 11
344.585020931075
 21
90.70932116713172
  0
ENDBLK
  5
5F
330
5D
100
AcDbEntity
  8
0
100
AcDbBlockEnd
  0
BLOCK
  5
61
330
60
100
AcDbEntity
  8
0
100
AcDbBlockBegin
  2
*D8
 70
    1
 10
0
 20
0
  3
*D8
  1

  0
LINE
  5
11C
100
AcDbEntity
  8
Bemaßung (ISO)
  6
ByBlock
 62
    0
370
   -2
100
AcDbLine
 10
393.3470549780731
 20
288.8498677532476
 11
393.3470549780731
 21
286.2298677532479
  0
SOLID
  5
11D
100
AcDbEntity
  8
Bemaßung (ISO)
  6
ByBlock
 62
    0
370
   -2
100
AcDbTrace
 10
393.3470549780731
 20
288.8498677532476
 30
0
 11
393.3770274734327
 21
288.6698677532476
 31
0
 12
393.3170824827135
 22
288.6698677532476
 32
0
 13
393.3170824827135
 23
288.6698677532476
 33
0
  0
SOLID
  5
11E
100
AcDbEntity
  8
Bemaßung (ISO)
  6
ByBlock
 62
    0
370
   -2
100
AcDbTrace
 10
393.3470549780731
 20
283.2498677532483
 30
0
 11
393.3170824827135
 21
283.4298677532483
 31
0
 12
393.3770274734327
 22
283.4298677532483
 32
0
 13
393.3770274734327
 23
283.4298677532483
 33
0
  0
LINE
  5
11F
100
AcDbEntity
  8
Bemaßung (ISO)
  6
ByBlock
 62
    0
370
   -2
100
AcDbLine
 10
393.3470549780731
 20
285.8698677532479
 11
393.3470549780731
 21
283.2498677532483
  0
MTEXT
  5
120
100
AcDbEntity
  8
Bemaßung (ISO)
  6
CONTINUOUS
 62
    0
370
   -2
100
AcDbMText
 10
393.347054978073
 20
286.0498677532479
 30
0
 40
0.18
 41
0.7000000000000224
 71
    5
 72
    1
  1
5.6000
  7
Standard
210
0
220
0
230
1
 50
0
 73
    2
 44
1
  0
LINE
  5
121
100
AcDbEntity
  8
Bemaßung (ISO)
  6
ByBlock
 62
    0
370
   -2
100
AcDbLine
 10
371.8095549780732
 20
288.8498677532476
 11
393.5270549780731
 21
288.8498677532476
  0
LINE
  5
122
100
AcDbEntity
  8
Bemaßung (ISO)
  6
ByBlock
 62
    0
370
   -2
100
AcDbLine
 10
347.0095549780718
 20
283.2498677532483
 11
393.5270549780731
 21
283.2498677532483
  0
ENDBLK
  5
62
330
60
100
AcDbEntity
  8
0
100
AcDbBlockEnd
  0
BLOCK
  5
64
330
63
100
AcDbEntity
  8
0
100
AcDbBlockBegin
  2
*D6
 70
    1
 10
0
 20
0
  3
*D6
  1

  0
LINE
  5
123
100
AcDbEntity
  8
Bemaßung (ISO)
  6
ByBlock
 62
    0
370
   -2
100
AcDbLine
 10
206.1375467702969
 20
154.0893211671317
 11
206.1375467702969
 21
128.6693211671317
  0
SOLID
  5
124
100
AcDbEntity
  8
Bemaßung (ISO)
  6
ByBlock
 62
    0
370
   -2
100
AcDbTrace
 10
206.1375467702969
 20
154.0893211671317
 30
0
 11
206.1675192656566
 21
153.9093211671317
 31
0
 12
206.1075742749373
 22
153.9093211671317
 32
0
 13
206.1075742749373
 23
153.9093211671317
 33
0
  0
SOLID
  5
125
100
AcDbEntity
  8
Bemaßung (ISO)
  6
ByBlock
 62
    0
370
   -2
100
AcDbTrace
 10
206.1375467702969
 20
102.8893211671317
 30
0
 11
206.1075742749372
 21
103.0693211671317
 31
0
 12
206.1675192656566
 22
103.0693211671317
 32
0
 13
206.1675192656566
 23
103.0693211671317
 33
0
  0
LINE
  5
126
100
AcDbEntity
  8
Bemaßung (ISO)
  6
ByBlock
 62
    0
370
   -2
100
AcDbLine
 10
206.1375467702969
 20
128.3093211671317
 11
206.1375467702969
 21
102.8893211671317
  0
MTEXT
  5
127
100
AcDbEntity
  8
Bemaßung (ISO)
  6
CONTINUOUS
 62
    0
370
   -2
100
AcDbMText
 10
206.1375467702968
 20
128.4893211671317
 30
0
 40
0.18
 41
0.8000000000000111
 71
    5
 72
    1
  1
51.2000
  7
Standard
210
0
220
0
230
1
 50
0
 73
    2
 44
1
  0
LINE
  5
128
100
AcDbEntity
  8
Bemaßung (ISO)
  6
ByBlock
 62
    0
370
   -2
100
AcDbLine
 10
218.0750467702968
 20
154.0893211671317
 11
205.9575467702969
 21
154.0893211671317
  0
LINE
  5
129
100
AcDbEntity
  8
Bemaßung (ISO)
  6
ByBlock
 62
    0
370
   -2
100
AcDbLine
 10
218.0750467702968
 20
102.8893211671317
 11
205.9575467702969
 21
102.8893211671317
  0
ENDBLK
  5
65
330
63
100
AcDbEntity
  8
0
100
AcDbBlockEnd
  0
BLOCK
  5
67
330
66
100
AcDbEntity
  8
0
100
AcDbBlockBegin
  2
*D1
 70
    1
 10
0
 20
0
  3
*D1
  1

  0
SOLID
  5
12A
100
AcDbEntity
  8
Bemaßung (ISO)
  6
ByBlock
 62
    0
370
   -2
100
AcDbTrace
 10
440.381667801451
 20
147.3910674863339
 30
0
 11
440.2755823355553
 21
147.2425945110024
 31
0
 12
440.2331948261195
 22
147.2849820204382
 32
0
 13
440.2331948261195
 23
147.2849820204382
 33
0
  0
LINE
  5
12B
100
AcDbEntity
  8
Bemaßung (ISO)
  6
ByBlock
 62
    0
370
   -2
100
AcDbLine
 10
435.8561844018565
 20
142.8655840867408
 11
440.381667801451
 21
147.3910674863339
  0
MTEXT
  5
12C
100
AcDbEntity
  8
Bemaßung (ISO)
  6
CONTINUOUS
 62
    0
370
   -2
100
AcDbMText
 10
445.2537589352426
 20
155.7869813840625
 30
0
 40
0.18
 41
0.7200000000000111
 71
    5
 72
    1
  1
6.4000
  7
Standard
210
0
220
0
230
1
 50
44.99999999999137
 73
    2
 44
1
  0
ENDBLK
  5
68
330
66
100
AcDbEntity
  8
0
100
AcDbBlockEnd
  0
BLOCK
  5
6A
330
69
100
AcDbEntity
  8
0
100
AcDbBlockBegin
  2
*D14
 70
    1
 10
0
 20
0
  3
*D14
  1

  0
LINE
  5
12D
100
AcDbEntity
  8
Bemaßung (ISO)
  6
ByBlock
 62
    0
370
   -2
100
AcDbLine
 10
284.5470549780731
 20
267.0054641440482
 11
253.0533178976834
 21
267.0054641440482
  0
SOLID
  5
12E
100
AcDbEntity
  8
Bemaßung (ISO)
  6
ByBlock
 62
    0
370
   -2
100
AcDbTrace
 10
284.5470549780731
 20
267.0054641440482
 30
0
 11
284.3670549780731
 21
266.9754916486885
 31
0
 12
284.3670549780731
 22
267.0354366394078
 32
0
 13
284.3670549780731
 23
267.0354366394078
 33
0
  0
SOLID
  5
12F
100
AcDbEntity
  8
Bemaßung (ISO)
  6
ByBlock
 62
    0
370
   -2
100
AcDbTrace
 10
220.4995808172937
 20
267.0054641440482
 30
0
 11
220.6795808172937
 21
267.0354366394078
 31
0
 12
220.6795808172937
 22
266.9754916486885
 32
0
 13
220.6795808172937
 23
266.9754916486885
 33
0
  0
LINE
  5
130
100
AcDbEntity
  8
Bemaßung (ISO)
  6
ByBlock
 62
    0
370
   -2
100
AcDbLine
 10
251.9933178976834
 20
267.0054641440482
 11
220.4995808172937
 21
267.0054641440482
  0
MTEXT
  5
131
100
AcDbEntity
  8
Bemaßung (ISO)
  6
CONTINUOUS
 62
    0
370
   -2
100
AcDbMText
 10
252.5233178976834
 20
267.0054641440482
 30
0
 40
0.18
 41
0.8800000000000223
 71
    5
 72
    1
  1
64.0475
  7
Standard
210
0
220
0
230
1
 50
0
 73
    2
 44
1
  0
LINE
  5
132
100
AcDbEntity
  8
Bemaßung (ISO)
  6
ByBlock
 62
    0
370
   -2
100
AcDbLine
 10
284.5470549780731
 20
288.6273677532477
 11
284.5470549780731
 21
266.8254641440482
  0
LINE
  5
133
100
AcDbEntity
  8
Bemaßung (ISO)
  6
ByBlock
 62
    0
370
   -2
100
AcDbLine
 10
220.4995808172937
 20
288.6273677532477
 11
220.4995808172937
 21
266.8254641440482
  0
ENDBLK
  5
6B
330
69
100
AcDbEntity
  8
0
100
AcDbBlockEnd
  0
BLOCK
  5
6D
330
6C
100
AcDbEntity
  8
0
100
AcDbBlockBegin
  2
*D4
 70
    1
 10
0
 20
0
  3
*D4
  1

  0
LINE
  5
134
100
AcDbEntity
  8
Bemaßung (ISO)
  6
ByBlock
 62
    0
370
   -2
100
AcDbLine
 10
395.8561844018568
 20
72.46558408674083
 11
415.3361844018565
 21
72.46558408674083
  0
SOLID
  5
135
100
AcDbEntity
  8
Bemaßung (ISO)
  6
ByBlock
 62
    0
370
   -2
100
AcDbTrace
 10
395.8561844018568
 20
72.46558408674083
 30
0
 11
396.0361844018568
 21
72.49555658210048
 31
0
 12
396.0361844018568
 22
72.43561159138119
 32
0
 13
396.0361844018568
 23
72.43561159138119
 33
0
  0
SOLID
  5
136
100
AcDbEntity
  8
Bemaßung (ISO)
  6
ByBlock
 62
    0
370
   -2
100
AcDbTrace
 10
435.8561844018566
 20
72.46558408674083
 30
0
 11
435.6761844018566
 21
72.43561159138119
 31
0
 12
435.6761844018566
 22
72.49555658210048
 32
0
 13
435.6761844018566
 23
72.49555658210048
 33
0
  0
LINE
  5
137
100
AcDbEntity
  8
Bemaßung (ISO)
  6
ByBlock
 62
    0
370
   -2
100
AcDbLine
 10
416.3761844018566
 20
72.46558408674083
 11
435.8561844018566
 21
72.46558408674083
  0
MTEXT
  5
138
100
AcDbEntity
  8
Bemaßung (ISO)
  6
CONTINUOUS
 62
    0
370
   -2
100
AcDbMText
 10
415.8561844018566
 20
72.46558408674083
 30
0
 40
0.18
 41
0.8600000000000001
 71
    5
 72
    1
  1
40.0000
  7
Standard
210
0
220
0
230
1
 50
0
 73
    2
 44
1
  0
LINE
  5
139
100
AcDbEntity
  8
Bemaßung (ISO)
  6
ByBlock
 62
    0
370
   -2
100
AcDbLine
 10
395.8561844018568
 20
84.40308408674083
 11
395.8561844018568
 21
72.28558408674083
  0
LINE
  5
13A
100
AcDbEntity
  8
Bemaßung (ISO)
  6
ByBlock
 62
    0
370
   -2
100
AcDbLine
 10
435.8561844018566
 20
105.8030840867408
 11
435.8561844018566
 21
72.28558408674083
  0
ENDBLK
  5
6E
330
6C
100
AcDbEntity
  8
0
100
AcDbBlockEnd
  0
BLOCK
  5
70
330
6F
100
AcDbEntity
  8
0
100
AcDbBlockBegin
  2
*D10
 70
    1
 10
0
 20
0
  3
*D10
  1

  0
LINE
  5
13B
100
AcDbEntity
  8
Bemaßung (ISO)
  6
ByBlock
 62
    0
370
   -2
100
AcDbLine
 10
200.5470549780731
 20
288.6898677532477
 11
200.5470549780731
 21
286.1498677532476
  0
SOLID
  5
13C
100
AcDbEntity
  8
Bemaßung (ISO)
  6
ByBlock
 62
    0
370
   -2
100
AcDbTrace
 10
200.5470549780731
 20
288.6898677532477
 30
0
 11
200.5770274734328
 21
288.5098677532477
 31
0
 12
200.5170824827134
 22
288.5098677532477
 32
0
 13
200.5170824827134
 23
288.5098677532477
 33
0
  0
SOLID
  5
13D
100
AcDbEntity
  8
Bemaßung (ISO)
  6
ByBlock
 62
    0
370
   -2
100
AcDbTrace
 10
200.5470549780731
 20
283.2498677532476
 30
0
 11
200.5170824827134
 21
283.4298677532476
 31
0
 12
200.5770274734328
 22
283.4298677532476
 32
0
 13
200.5770274734328
 23
283.4298677532476
 33
0
  0
LINE
  5
13E
100
AcDbEntity
  8
Bemaßung (ISO)
  6
ByBlock
 62
    0
370
   -2
100
AcDbLine
 10
200.5470549780731
 20
285.7898677532476
 11
200.5470549780731
 21
283.2498677532476
  0
MTEXT
  5
13F
100
AcDbEntity
  8
Bemaßung (ISO)
  6
CONTINUOUS
 62
    0
370
   -2
100
AcDbMText
 10
200.5470549780731
 20
285.9698677532476
 30
0
 40
0.18
 41
0.7400000000000111
 71
    5
 72
    1
  1
5.4400
  7
Standard
210
0
220
0
230
1
 50
0
 73
    2
 44
1
  0
LINE
  5
140
100
AcDbEntity
  8
Bemaßung (ISO)
  6
ByBlock
 62
    0
370
   -2
100
AcDbLine
 10
212.4845549780731
 20
288.6898677532477
 11
200.3670549780731
 21
288.6898677532477
  0
LINE
  5
141
100
AcDbEntity
  8
Bemaßung (ISO)
  6
ByBlock
 62
    0
370
   -2
100
AcDbLine
 10
220.4845549780754
 20
283.2498677532476
 11
200.3670549780731
 21
283.2498677532476
  0
ENDBLK
  5
71
330
6F
100
AcDbEntity
  8
0
100
AcDbBlockEnd
  0
BLOCK
  5
73
330
72
100
AcDbEntity
  8
0
100
AcDbBlockBegin
  2
*D9
 70
    1
 10
0
 20
0
  3
*D9
  1

  0
LINE
  5
142
100
AcDbEntity
  8
Bemaßung (ISO)
  6
ByBlock
 62
    0
370
   -2
100
AcDbLine
 10
416.5470549780717
 20
300.8498677532475
 11
416.5470549780717
 21
292.2298677532479
  0
SOLID
  5
143
100
AcDbEntity
  8
Bemaßung (ISO)
  6
ByBlock
 62
    0
370
   -2
100
AcDbTrace
 10
416.5470549780717
 20
300.8498677532475
 30
0
 11
416.5770274734313
 21
300.6698677532475
 31
0
 12
416.5170824827121
 22
300.6698677532475
 32
0
 13
416.5170824827121
 23
300.6698677532475
 33
0
  0
SOLID
  5
144
100
AcDbEntity
  8
Bemaßung (ISO)
  6
ByBlock
 62
    0
370
   -2
100
AcDbTrace
 10
416.5470549780717
 20
283.2498677532483
 30
0
 11
416.5170824827121
 21
283.4298677532483
 31
0
 12
416.5770274734313
 22
283.4298677532483
 32
0
 13
416.5770274734313
 23
283.4298677532483
 33
0
  0
LINE
  5
145
100
AcDbEntity
  8
Bemaßung (ISO)
  6
ByBlock
 62
    0
370
   -2
100
AcDbLine
 10
416.5470549780717
 20
291.8698677532479
 11
416.5470549780717
 21
283.2498677532483
  0
MTEXT
  5
146
100
AcDbEntity
  8
Bemaßung (ISO)
  6
CONTINUOUS
 62
    0
370
   -2
100
AcDbMText
 10
416.5470549780717
 20
292.0498677532479
 30
0
 40
0.18
 41
0.8000000000000111
 71
    5
 72
    1
  1
17.6000
  7
Standard
210
0
220
0
230
1
 50
0
 73
    2
 44
1
  0
LINE
  5
147
100
AcDbEntity
  8
Bemaßung (ISO)
  6
ByBlock
 62
    0
370
   -2
100
AcDbLine
 10
347.0095549780719
 20
300.8498677532475
 11
416.7270549780717
 21
300.8498677532475
  0
LINE
  5
148
100
AcDbEntity
  8
Bemaßung (ISO)
  6
ByBlock
 62
    0
370
   -2
100
AcDbLine
 10
347.0095549780718
 20
283.2498677532483
 11
416.7270549780717
 21
283.2498677532483
  0
ENDBLK
  5
74
330
72
100
AcDbEntity
  8
0
100
AcDbBlockEnd
  0
BLOCK
  5
76
330
75
100
AcDbEntity
  8
0
100
AcDbBlockBegin
  2
*D15
 70
    1
 10
0
 20
0
  3
*D15
  1

  0
LINE
  5
149
100
AcDbEntity
  8
Bemaßung (ISO)
  6
ByBlock
 62
    0
370
   -2
100
AcDbLine
 10
273.1079387813043
 20
288.6898677532477
 11
273.1079387813043
 21
292.0498677532476
  0
SOLID
  5
14A
100
AcDbEntity
  8
Bemaßung (ISO)
  6
ByBlock
 62
    0
370
   -2
100
AcDbTrace
 10
273.1079387813043
 20
288.6898677532477
 30
0
 11
273.0779662859447
 21
288.8698677532477
 31
0
 12
273.1379112766639
 22
288.8698677532477
 32
0
 13
273.1379112766639
 23
288.8698677532477
 33
0
  0
SOLID
  5
14B
100
AcDbEntity
  8
Bemaßung (ISO)
  6
ByBlock
 62
    0
370
   -2
100
AcDbTrace
 10
273.1079387813043
 20
292.0498677532476
 30
0
 11
273.1379112766639
 21
291.8698677532476
 31
0
 12
273.0779662859447
 22
291.8698677532476
 32
0
 13
273.0779662859447
 23
291.8698677532476
 33
0
  0
MTEXT
  5
14C
100
AcDbEntity
  8
Bemaßung (ISO)
  6
CONTINUOUS
 62
    0
370
   -2
100
AcDbMText
 10
273.1079387813043
 20
302.9041378986983
 30
0
 40
0.18
 41
0.7000000000000335
 71
    5
 72
    1
  1
3.3600
  7
Standard
210
0
220
0
230
1
 50
0
 73
    2
 44
1
  0
LINE
  5
14D
100
AcDbEntity
  8
Bemaßung (ISO)
  6
ByBlock
 62
    0
370
   -2
100
AcDbLine
 10
284.4845549780754
 20
288.6898677532477
 11
272.9279387813043
 21
288.6898677532477
  0
LINE
  5
14E
100
AcDbEntity
  8
Bemaßung (ISO)
  6
ByBlock
 62
    0
370
   -2
100
AcDbLine
 10
293.8845549780754
 20
292.0498677532476
 11
272.9279387813043
 21
292.0498677532476
  0
ENDBLK
  5
77
330
75
100
AcDbEntity
  8
0
100
AcDbBlockEnd
  0
BLOCK
  5
79
330
78
100
AcDbEntity
  8
0
100
AcDbBlockBegin
  2
*D12
 70
    1
 10
0
 20
0
  3
*D12
  1

  0
LINE
  5
14F
100
AcDbEntity
  8
Bemaßung (ISO)
  6
ByBlock
 62
    0
370
   -2
100
AcDbLine
 10
284.5470549780731
 20
274.2498677532475
 11
291.6570549780742
 21
274.2498677532475
  0
SOLID
  5
150
100
AcDbEntity
  8
Bemaßung (ISO)
  6
ByBlock
 62
    0
370
   -2
100
AcDbTrace
 10
284.5470549780731
 20
274.2498677532475
 30
0
 11
284.7270549780731
 21
274.2798402486071
 31
0
 12
284.7270549780731
 22
274.2198952578879
 32
0
 13
284.7270549780731
 23
274.2198952578879
 33
0
  0
SOLID
  5
151
100
AcDbEntity
  8
Bemaßung (ISO)
  6
ByBlock
 62
    0
370
   -2
100
AcDbTrace
 10
299.7470549780754
 20
274.2498677532475
 30
0
 11
299.5670549780754
 21
274.2198952578879
 31
0
 12
299.5670549780754
 22
274.2798402486071
 32
0
 13
299.5670549780754
 23
274.2798402486071
 33
0
  0
LINE
  5
152
100
AcDbEntity
  8
Bemaßung (ISO)
  6
ByBlock
 62
    0
370
   -2
100
AcDbLine
 10
292.6370549780742
 20
274.2498677532475
 11
299.7470549780754
 21
274.2498677532475
  0
MTEXT
  5
153
100
AcDbEntity
  8
Bemaßung (ISO)
  6
CONTINUOUS
 62
    0
370
   -2
100
AcDbMText
 10
292.1470549780742
 20
274.2498677532475
 30
0
 40
0.18
 41
0.8000000000000111
 71
    5
 72
    1
  1
15.2000
  7
Standard
210
0
220
0
230
1
 50
0
 73
    2
 44
1
  0
LINE
  5
154
100
AcDbEntity
  8
Bemaßung (ISO)
  6
ByBlock
 62
    0
370
   -2
100
AcDbLine
 10
284.5470549780731
 20
288.6273677532477
 11
284.5470549780731
 21
274.0698677532475
  0
LINE
  5
155
100
AcDbEntity
  8
Bemaßung (ISO)
  6
ByBlock
 62
    0
370
   -2
100
AcDbLine
 10
299.7470549780754
 20
286.1873677532475
 11
299.7470549780754
 21
274.0698677532475
  0
ENDBLK
  5
7A
330
78
100
AcDbEntity
  8
0
100
AcDbBlockEnd
  0
BLOCK
  5
7C
330
7B
100
AcDbEntity
  8
0
100
AcDbBlockBegin
  2
*D2
 70
    1
 10
0
 20
0
  3
*D2
  1

  0
LINE
  5
156
100
AcDbEntity
  8
Bemaßung (ISO)
  6
ByBlock
 62
    0
370
   -2
100
AcDbLine
 10
374.2561844018569
 20
146.8655840867408
 11
374.2561844018569
 21
128.6335840867409
  0
SOLID
  5
157
100
AcDbEntity
  8
Bemaßung (ISO)
  6
ByBlock
 62
    0
370
   -2
100
AcDbTrace
 10
374.2561844018569
 20
146.8655840867408
 30
0
 11
374.2861568972165
 21
146.6855840867408
 31
0
 12
374.2262119064973
 22
146.6855840867408
 32
0
 13
374.2262119064973
 23
146.6855840867408
 33
0
  0
SOLID
  5
158
100
AcDbEntity
  8
Bemaßung (ISO)
  6
ByBlock
 62
    0
370
   -2
100
AcDbTrace
 10
374.2561844018569
 20
110.0655840867408
 30
0
 11
374.2262119064973
 21
110.2455840867408
 31
0
 12
374.2861568972165
 22
110.2455840867408
 32
0
 13
374.2861568972165
 23
110.2455840867408
 33
0
  0
LINE
  5
159
100
AcDbEntity
  8
Bemaßung (ISO)
  6
ByBlock
 62
    0
370
   -2
100
AcDbLine
 10
374.2561844018569
 20
128.2735840867409
 11
374.2561844018569
 21
110.0655840867408
  0
MTEXT
  5
15A
100
AcDbEntity
  8
Bemaßung (ISO)
  6
CONTINUOUS
 62
    0
370
   -2
100
AcDbMText
 10
374.2561844018568
 20
128.4535840867409
 30
0
 40
0.18
 41
0.8400000000000223
 71
    5
 72
    1
  1
36.8000
  7
Standard
210
0
220
0
230
1
 50
0
 73
    2
 44
1
  0
LINE
  5
15B
100
AcDbEntity
  8
Bemaßung (ISO)
  6
ByBlock
 62
    0
370
   -2
100
AcDbLine
 10
396.3536844018568
 20
146.8655840867408
 11
374.0761844018569
 21
146.8655840867408
  0
LINE
  5
15C
100
AcDbEntity
  8
Bemaßung (ISO)
  6
ByBlock
 62
    0
370
   -2
100
AcDbLine
 10
396.3536844018568
 20
110.0655840867408
 11
374.0761844018569
 21
110.0655840867408
  0
ENDBLK
  5
7D
330
7B
100
AcDbEntity
  8
0
100
AcDbBlockEnd
  0
BLOCK
  5
7F
330
7E
100
AcDbEntity
  8
0
100
AcDbBlockBegin
  2
*D13
 70
    1
 10
0
 20
0
  3
*D13
  1

  0
LINE
  5
15D
100
AcDbEntity
  8
Bemaßung (ISO)
  6
ByBlock
 62
    0
370
   -2
100
AcDbLine
 10
284.5470549780731
 20
267.0054641440482
 11
315.2270549780724
 21
267.0054641440482
  0
SOLID
  5
15E
100
AcDbEntity
  8
Bemaßung (ISO)
  6
ByBlock
 62
    0
370
   -2
100
AcDbTrace
 10
284.5470549780731
 20
267.0054641440482
 30
0
 11
284.7270549780731
 21
267.0354366394078
 31
0
 12
284.7270549780731
 22
266.9754916486885
 32
0
 13
284.7270549780731
 23
266.9754916486885
 33
0
  0
SOLID
  5
15F
100
AcDbEntity
  8
Bemaßung (ISO)
  6
ByBlock
 62
    0
370
   -2
100
AcDbTrace
 10
346.9470549780718
 20
267.0054641440482
 30
0
 11
346.7670549780718
 21
266.9754916486885
 31
0
 12
346.7670549780718
 22
267.0354366394078
 32
0
 13
346.7670549780718
 23
267.0354366394078
 33
0
  0
LINE
  5
160
100
AcDbEntity
  8
Bemaßung (ISO)
  6
ByBlock
 62
    0
370
   -2
100
AcDbLine
 10
316.2670549780724
 20
267.0054641440482
 11
346.9470549780718
 21
267.0054641440482
  0
MTEXT
  5
161
100
AcDbEntity
  8
Bemaßung (ISO)
  6
CONTINUOUS
 62
    0
370
   -2
100
AcDbMText
 10
315.7470549780724
 20
267.0054641440482
 30
0
 40
0.18
 41
0.8600000000000112
 71
    5
 72
    1
  1
62.4000
  7
Standard
210
0
220
0
230
1
 50
0
 73
    2
 44
1
  0
LINE
  5
162
100
AcDbEntity
  8
Bemaßung (ISO)
  6
ByBlock
 62
    0
370
   -2
100
AcDbLine
 10
284.5470549780731
 20
288.6273677532477
 11
284.5470549780731
 21
266.8254641440482
  0
LINE
  5
163
100
AcDbEntity
  8
Bemaßung (ISO)
  6
ByBlock
 62
    0
370
   -2
100
AcDbLine
 10
346.9470549780718
 20
283.1873677532483
 11
346.9470549780718
 21
266.8254641440482
  0
ENDBLK
  5
80
330
7E
100
AcDbEntity
  8
0
100
AcDbBlockEnd
  0
BLOCK
  5
82
330
81
100
AcDbEntity
  8
0
100
AcDbBlockBegin
  2
*D7
 70
    1
 10
0
 20
0
  3
*D7
  1

  0
LINE
  5
164
100
AcDbEntity
  8
Bemaßung (ISO)
  6
ByBlock
 62
    0
370
   -2
100
AcDbLine
 10
383.7470549780732
 20
300.8498677532475
 11
383.7470549780733
 21
298.2298677532476
  0
SOLID
  5
165
100
AcDbEntity
  8
Bemaßung (ISO)
  6
ByBlock
 62
    0
370
   -2
100
AcDbTrace
 10
383.7470549780732
 20
300.8498677532475
 30
0
 11
383.7770274734328
 21
300.6698677532475
 31
0
 12
383.7170824827136
 22
300.6698677532475
 32
0
 13
383.7170824827136
 23
300.6698677532475
 33
0
  0
SOLID
  5
166
100
AcDbEntity
  8
Bemaßung (ISO)
  6
ByBlock
 62
    0
370
   -2
100
AcDbTrace
 10
383.7470549780732
 20
295.2498677532476
 30
0
 11
383.7170824827136
 21
295.4298677532476
 31
0
 12
383.7770274734328
 22
295.4298677532476
 32
0
 13
383.7770274734328
 23
295.4298677532476
 33
0
  0
LINE
  5
167
100
AcDbEntity
  8
Bemaßung (ISO)
  6
ByBlock
 62
    0
370
   -2
100
AcDbLine
 10
383.7470549780733
 20
297.8698677532477
 11
383.7470549780732
 21
295.2498677532476
  0
MTEXT
  5
168
100
AcDbEntity
  8
Bemaßung (ISO)
  6
CONTINUOUS
 62
    0
370
   -2
100
AcDbMText
 10
383.7470549780732
 20
298.0498677532476
 30
0
 40
0.18
 41
0.7000000000000224
 71
    5
 72
    1
  1
5.6000
  7
Standard
210
0
220
0
230
1
 50
0
 73
    2
 44
1
  0
LINE
  5
169
100
AcDbEntity
  8
Bemaßung (ISO)
  6
ByBlock
 62
    0
370
   -2
100
AcDbLine
 10
347.0095549780719
 20
300.8498677532475
 11
383.9270549780732
 21
300.8498677532475
  0
LINE
  5
16A
100
AcDbEntity
  8
Bemaßung (ISO)
  6
ByBlock
 62
    0
370
   -2
100
AcDbLine
 10
371.8095549780732
 20
295.2498677532476
 11
383.9270549780732
 21
295.2498677532476
  0
ENDBLK
  5
83
330
81
100
AcDbEntity
  8
0
100
AcDbBlockEnd
  0
BLOCK
  5
85
330
84
100
AcDbEntity
  8
0
100
AcDbBlockBegin
  2
*D11
 70
    1
 10
0
 20
0
  3
*D11
  1

  0
LINE
  5
16B
100
AcDbEntity
  8
Bemaßung (ISO)
  6
ByBlock
 62
    0
370
   -2
100
AcDbLine
 10
291.7470549780731
 20
316.6898677532476
 11
288.5870549780731
 21
316.6898677532476
  0
SOLID
  5
16C
100
AcDbEntity
  8
Bemaßung (ISO)
  6
ByBlock
 62
    0
370
   -2
100
AcDbTrace
 10
291.7470549780731
 20
316.6898677532476
 30
0
 11
291.5670549780731
 21
316.659895257888
 31
0
 12
291.5670549780731
 22
316.7198402486072
 32
0
 13
291.5670549780731
 23
316.7198402486072
 33
0
  0
SOLID
  5
16D
100
AcDbEntity
  8
Bemaßung (ISO)
  6
ByBlock
 62
    0
370
   -2
100
AcDbTrace
 10
284.5470549780731
 20
316.6898677532476
 30
0
 11
284.7270549780731
 21
316.7198402486072
 31
0
 12
284.7270549780731
 22
316.659895257888
 32
0
 13
284.7270549780731
 23
316.659895257888
 33
0
  0
LINE
  5
16E
100
AcDbEntity
  8
Bemaßung (ISO)
  6
ByBlock
 62
    0
370
   -2
100
AcDbLine
 10
287.7070549780731
 20
316.6898677532476
 11
284.5470549780731
 21
316.6898677532476
  0
MTEXT
  5
16F
100
AcDbEntity
  8
Bemaßung (ISO)
  6
CONTINUOUS
 62
    0
370
   -2
100
AcDbMText
 10
288.1470549780731
 20
316.6898677532476
 30
0
 40
0.18
 41
0.7
 71
    5
 72
    1
  1
7.2000
  7
Standard
210
0
220
0
230
1
 50
0
 73
    2
 44
1
  0
LINE
  5
170
100
AcDbEntity
  8
Bemaßung (ISO)
  6
ByBlock
 62
    0
370
   -2
100
AcDbLine
 10
291.7470549780731
 20
294.7523677532477
 11
291.7470549780731
 21
316.8698677532476
  0
LINE
  5
171
100
AcDbEntity
  8
Bemaßung (ISO)
  6
ByBlock
 62
    0
370
   -2
100
AcDbLine
 10
284.5470549780731
 20
304.7523677532476
 11
284.5470549780731
 21
316.8698677532476
  0
ENDBLK
  5
86
330
84
100
AcDbEntity
  8
0
100
AcDbBlockEnd
  0
BLOCK
  5
88
330
87
100
AcDbEntity
  8
0
100
AcDbBlockBegin
  2
Filled-1
 70
    0
 10
0
 20
0
  3
Filled-1
  1

  0
LINE
  5
172
100
AcDbEntity
  8
0
  6
ByLayer
 62
    0
370
   -1
100
AcDbLine
 10
-1
 20
0
 11
0
 21
0
  0
LWPOLYLINE
  5
173
100
AcDbEntity
  8
0
  6
ByLayer
 62
    0
370
   -1
100
AcDbPolyline
 90
    4
 70
    0
 43
0
 10
-1
 20
-0.1
 10
0
 20
0
 10
-1
 20
0.1
 10
-1
 20
-0.1
  0
SOLID
  5
174
100
AcDbEntity
  8
0
  6
ByLayer
 62
    0
370
   -1
100
AcDbTrace
 10
-1
 20
-0.1
 30
0
 11
0
 21
0
 31
0
 12
-1
 22
0.1
 32
0
 13
-1
 23
-0.1
 33
0
  0
LINE
  5
175
100
AcDbEntity
  8
0
  6
ByLayer
 62
    0
370
   -1
100
AcDbLine
 10
-1
 20
-0.1
 11
0
 21
0
  0
LINE
  5
176
100
AcDbEntity
  8
0
  6
ByLayer
 62
    0
370
   -1
100
AcDbLine
 10
0
 20
0
 11
-1
 21
0.1
  0
LINE
  5
177
100
AcDbEntity
  8
0
  6
ByLayer
 62
    0
370
   -1
100
AcDbLine
 10
-1
 20
0.1
 11
-1
 21
-0.1
  0
ENDBLK
  5
89
330
87
100
AcDbEntity
  8
0
100
AcDbBlockEnd
  0
BLOCK
  5
8B
330
8A
100
AcDbEntity
  8
0
100
AcDbBlockBegin
  2
DatumFilled45
 70
    0
 10
0
 20
0
  3
DatumFilled45
  1

  0
LWPOLYLINE
  5
178
100
AcDbEntity
  8
0
  6
ByLayer
 62
    0
370
   -1
100
AcDbPolyline
 90
    4
 70
    0
 43
0
 10
0
 20
1
 10
0
 20
-1
 10
-1
 20
0
 10
0
 20
1
  0
SOLID
  5
179
100
AcDbEntity
  8
0
  6
ByLayer
 62
    0
370
   -1
100
AcDbTrace
 10
0
 20
1
 30
0
 11
0
 21
-1
 31
0
 12
-1
 22
0
 32
0
 13
0
 23
1
 33
0
  0
ENDBLK
  5
8C
330
8A
100
AcDbEntity
  8
0
100
AcDbBlockEnd
  0
BLOCK
  5
8E
330
8D
100
AcDbEntity
  8
0
100
AcDbBlockBegin
  2
Glasbearbeitung
 70
    0
 10
0
 20
0
  3
Glasbearbeitung
  1

  0
MTEXT
  5
17A
100
AcDbEntity
  8
Symbole(DIN)
  6
ByLayer
 62
    7
370
   -1
100
AcDbMText
 10
-36.95807933807373
 20
2.29287352412939
 30
0
 40
3.499999940395355
 41
131.0555551236998
 71
    1
 72
    1
  1
\fArial|b0|i0;\H3.5000;Alle Kanten geschliffen und poliert
  7
aktuell-din
210
0
220
0
230
1
 50
0
 73
    1
 44
1
  0
ENDBLK
  5
8F
330
8D
100
AcDbEntity
  8
0
100
AcDbBlockEnd
  0
BLOCK
  5
91
330
90
100
AcDbEntity
  8
0
100
AcDbBlockBegin
  2
unbemaßte_Kanten
 70
    0
 10
0
 20
0
  3
unbemaßte_Kanten
  1

  0
MTEXT
  5
17B
100
AcDbEntity
  8
Symbole(DIN)
  6
ByLayer
 62
    7
370
   -1
100
AcDbMText
 10
-25.81729110330343
 20
1.518673673272132
 30
0
 40
2.5
 41
124.9305568412757
 71
    1
 72
    1
  1
unbemaßte Kanten 0,2x45\fAIGDT|b0|i0;\H2.5000;~\fArial|b0|i0;\H2.5000; fasen
  7
aktuell-din
210
0
220
0
230
1
 50
0
 73
    1
 44
1
  0
ENDBLK
  5
92
330
90
100
AcDbEntity
  8
0
100
AcDbBlockEnd
  0
BLOCK
  5
94
330
93
100
AcDbEntity
  8
0
100
AcDbBlockBegin
  2
Schleifrichtung
 70
    0
 10
0
 20
0
  3
Schleifrichtung
  1

  0
HATCH
  5
17C
100
AcDbEntity
  8
Schraffur
  6
ByLayer
 62
  179
420
2500185
370
   -1
100
AcDbHatch
 10
0
 20
0
 30
0
210
0
220
0
230
1
  2
SOLID
 70
    1
 71
    0
 91
    1
 92
    0
 93
    3
 72
    1
 10
0
 20
5
 11
-0.4999999999999983
 21
2.78774508444858
 72
    1
 10
-0.4999999999999983
 20
2.78774508444858
 11
0.4999999999999983
 21
2.78774508444858
 72
    1
 10
0.4999999999999983
 20
2.78774508444858
 11
0
 21
5
 97
    0
 75
    0
 76
    1
 98
    0
  0
HATCH
  5
17D
100
AcDbEntity
  8
Schraffur
  6
ByLayer
 62
  179
420
2500185
370
   -1
100
AcDbHatch
 10
0
 20
0
 30
0
210
0
220
0
230
1
  2
SOLID
 70
    1
 71
    0
 91
    1
 92
    0
 93
    3
 72
    1
 10
0
 20
-5
 11
0.4999999999999983
 21
-2.78774508444858
 72
    1
 10
0.4999999999999983
 20
-2.78774508444858
 11
-0.4999999999999983
 21
-2.78774508444858
 72
    1
 10
-0.4999999999999983
 20
-2.78774508444858
 11
0
 21
-5
 97
    0
 75
    0
 76
    1
 98
    0
  0
LINE
  5
17E
100
AcDbEntity
  8
Skizziergeometrie(DIN)
  6
ByLayer
 62
  256
370
   -1
100
AcDbLine
 10
0
 20
5
 11
0
 21
-5
  0
LINE
  5
17F
100
AcDbEntity
  8
Skizziergeometrie(DIN)
  6
ByLayer
 62
  256
370
   -1
100
AcDbLine
 10
0
 20
5
 11
-0.4999999999999983
 21
2.78774508444858
  0
LINE
  5
180
100
AcDbEntity
  8
Skizziergeometrie(DIN)
  6
ByLayer
 62
  256
370
   -1
100
AcDbLine
 10
-0.4999999999999983
 20
2.78774508444858
 11
0.4999999999999983
 21
2.78774508444858
  0
LINE
  5
181
100
AcDbEntity
  8
Skizziergeometrie(DIN)
  6
ByLayer
 62
  256
370
   -1
100
AcDbLine
 10
0.4999999999999983
 20
2.78774508444858
 11
0
 21
5
  0
LINE
  5
182
100
AcDbEntity
  8
Skizziergeometrie(DIN)
  6
ByLayer
 62
  256
370
   -1
100
AcDbLine
 10
0
 20
-5
 11
-0.4999999999999983
 21
-2.78774508444858
  0
LINE
  5
183
100
AcDbEntity
  8
Skizziergeometrie(DIN)
  6
ByLayer
 62
  256
370
   -1
100
AcDbLine
 10
-0.4999999999999983
 20
-2.78774508444858
 11
0.4999999999999983
 21
-2.78774508444858
  0
LINE
  5
184
100
AcDbEntity
  8
Skizziergeometrie(DIN)
  6
ByLayer
 62
  256
370
   -1
100
AcDbLine
 10
0.4999999999999983
 20
-2.78774508444858
 11
0
 21
-5
  0
ENDBLK
  5
95
330
93
100
AcDbEntity
  8
0
100
AcDbBlockEnd
  0
BLOCK
  5
97
330
96
100
AcDbEntity
  8
0
100
AcDbBlockBegin
  2
Senkung DIN 974-1 für Zylinderkopfschrauben
 70
    0
 10
0
 20
0
  3
Senkung DIN 974-1 für Zylinderkopfschrauben
  1

  0
MTEXT
  5
185
100
AcDbEntity
  8
Symbole(DIN)
  6
ByLayer
 62
    7
370
   -1
100
AcDbMText
 10
-22.51524209976196
 20
1.639672182500362
 30
0
 40
2.5
 41
45.90277696999526
 71
    1
 72
    1
  1
Senkung DIN 974-1 (Reihe1)
  7
aktuell-din
210
0
220
0
230
1
 50
0
 73
    1
 44
1
  0
ENDBLK
  5
98
330
96
100
AcDbEntity
  8
0
100
AcDbBlockEnd
  0
BLOCK
  5
9A
330
99
100
AcDbEntity
  8
0
100
AcDbBlockBegin
  2
Senkung DIN 74-1 B (f) f. Senkschrauben
 70
    0
 10
0
 20
0
  3
Senkung DIN 74-1 B (f) f. Senkschrauben
  1

  0
MTEXT
  5
186
100
AcDbEntity
  8
Symbole(DIN)
  6
ByLayer
 62
    7
370
   -1
100
AcDbMText
 10
-18.14691185951233
 20
1.639672182500362
 30
0
 40
2.5
 41
39.4444436366618
 71
    1
 72
    1
  1
Senkung DIN 74-1 B (f)
  7
aktuell-din
210
0
220
0
230
1
 50
0
 73
    1
 44
1
  0
ENDBLK
  5
9B
330
99
100
AcDbEntity
  8
0
100
AcDbBlockEnd
  0
BLOCK
  5
9D
330
9C
100
AcDbEntity
  8
0
100
AcDbBlockBegin
  2
Rz4(Rz16)
 70
    0
 10
0
 20
0
  3
Rz4(Rz16)
  1

  0
LINE
  5
187
100
AcDbEntity
  8
Skizziergeometrie(DIN)
  6
ByLayer
 62
  256
370
   -1
100
AcDbLine
 10
-13.35665995719496
 20
-0.624154925091176
 11
-11.35665995719495
 21
-4.124154925091172
  0
LINE
  5
188
100
AcDbEntity
  8
Skizziergeometrie(DIN)
  6
ByLayer
 62
  256
370
   -1
100
AcDbLine
 10
-11.35665995719495
 20
-4.124154925091172
 11
-9.356659957194953
 21
-0.624154925091176
  0
LINE
  5
189
100
AcDbEntity
  8
Skizziergeometrie(DIN)
  6
ByLayer
 62
  256
370
   -1
100
AcDbLine
 10
-9.356659957194953
 20
-0.624154925091176
 11
-13.35665995719496
 21
-0.624154925091176
  0
LINE
  5
18A
100
AcDbEntity
  8
Skizziergeometrie(DIN)
  6
ByLayer
 62
  256
370
   -1
100
AcDbLine
 10
-9.356659957194953
 20
-0.624154925091176
 11
-6.643340042805041
 21
4.12415492509119
  0
LINE
  5
18B
100
AcDbEntity
  8
Skizziergeometrie(DIN)
  6
ByLayer
 62
  256
370
   -1
100
AcDbLine
 10
-6.643340042805041
 20
4.12415492509119
 11
13.35665995719496
 21
4.124154925091172
  0
MTEXT
  5
18C
100
AcDbEntity
  8
Symbole(DIN)
  6
ByLayer
 62
    7
370
   -1
100
AcDbMText
 10
-6.476606384140213
 20
3.265635088166192
 30
0
 40
2.5
 41
20.90277750000016
 71
    1
 72
    1
  1
Rz 4 (Rz 16)
  7
aktuell-din
210
0
220
0
230
1
 50
0
 73
    1
 44
1
  0
ENDBLK
  5
9E
330
9C
100
AcDbEntity
  8
0
100
AcDbBlockEnd
  0
BLOCK
  5
A0
330
9F
100
AcDbEntity
  8
0
100
AcDbBlockBegin
  2
Rz16(Rz4)
 70
    0
 10
0
 20
0
  3
Rz16(Rz4)
  1

  0
LINE
  5
18D
100
AcDbEntity
  8
Skizziergeometrie(DIN)
  6
ByLayer
 62
  256
370
   -1
100
AcDbLine
 10
-13.35665995719496
 20
-0.624154925091176
 11
-11.35665995719495
 21
-4.124154925091172
  0
LINE
  5
18E
100
AcDbEntity
  8
Skizziergeometrie(DIN)
  6
ByLayer
 62
  256
370
   -1
100
AcDbLine
 10
-11.35665995719495
 20
-4.124154925091172
 11
-9.356659957194953
 21
-0.624154925091176
  0
LINE
  5
18F
100
AcDbEntity
  8
Skizziergeometrie(DIN)
  6
ByLayer
 62
  256
370
   -1
100
AcDbLine
 10
-9.356659957194953
 20
-0.624154925091176
 11
-13.35665995719496
 21
-0.624154925091176
  0
LINE
  5
190
100
AcDbEntity
  8
Skizziergeometrie(DIN)
  6
ByLayer
 62
  256
370
   -1
100
AcDbLine
 10
-9.356659957194953
 20
-0.624154925091176
 11
-6.643340042805041
 21
4.12415492509119
  0
LINE
  5
191
100
AcDbEntity
  8
Skizziergeometrie(DIN)
  6
ByLayer
 62
  256
370
   -1
100
AcDbLine
 10
-6.643340042805041
 20
4.12415492509119
 11
13.35665995719496
 21
4.124154925091172
  0
MTEXT
  5
192
100
AcDbEntity
  8
Symbole(DIN)
  6
ByLayer
 62
    7
370
   -1
100
AcDbMText
 10
-6.476606384140213
 20
3.265635088166192
 30
0
 40
2.5
 41
20.90277750000016
 71
    1
 72
    1
  1
Rz 16 (Rz 4)
  7
aktuell-din
210
0
220
0
230
1
 50
0
 73
    1
 44
1
  0
ENDBLK
  5
A1
330
9F
100
AcDbEntity
  8
0
100
AcDbBlockEnd
  0
BLOCK
  5
A3
330
A2
100
AcDbEntity
  8
0
100
AcDbBlockBegin
  2
unbemaßte_Kanten 0_5
 70
    0
 10
0
 20
0
  3
unbemaßte_Kanten 0_5
  1

  0
MTEXT
  5
193
100
AcDbEntity
  8
Symbole(DIN)
  6
ByLayer
 62
    7
370
   -1
100
AcDbMText
 10
-25.81729110330343
 20
1.518673673272132
 30
0
 40
2.5
 41
124.9305568412758
 71
    1
 72
    1
  1
unbemaßte Kanten 0,5x45\fAIGDT|b0|i0;\H2.5000;~\fArial|b0|i0;\H2.5000; fasen
  7
aktuell-din
210
0
220
0
230
1
 50
0
 73
    1
 44
1
  0
ENDBLK
  5
A4
330
A2
100
AcDbEntity
  8
0
100
AcDbBlockEnd
  0
BLOCK
  5
A6
330
A5
100
AcDbEntity
  8
0
100
AcDbBlockBegin
  2
unbemaßte_Kanten 1
 70
    0
 10
0
 20
0
  3
unbemaßte_Kanten 1
  1

  0
MTEXT
  5
194
100
AcDbEntity
  8
Symbole(DIN)
  6
ByLayer
 62
    7
370
   -1
100
AcDbMText
 10
-24.36149891465902
 20
1.291920635849237
 30
0
 40
2.5
 41
121.4583346190534
 71
    1
 72
    1
  1
unbemaßte Kanten 1x45\fAIGDT|b0|i0;\H2.5000;~\fArial|b0|i0;\H2.5000; fasen
  7
aktuell-din
210
0
220
0
230
1
 50
0
 73
    1
 44
1
  0
ENDBLK
  5
A7
330
A5
100
AcDbEntity
  8
0
100
AcDbBlockEnd
  0
BLOCK
  5
A9
330
A8
100
AcDbEntity
  8
0
100
AcDbBlockBegin
  2
Schleifrichtung rund
 70
    0
 10
0
 20
0
  3
Schleifrichtung rund
  1

  0
HATCH
  5
195
100
AcDbEntity
  8
Schraffur
  6
ByLayer
 62
  179
420
2500185
370
   -1
100
AcDbHatch
 10
0
 20
0
 30
0
210
0
220
0
230
1
  2
SOLID
 70
    1
 71
    0
 91
    1
 92
    0
 93
    3
 72
    1
 10
2.685970543868814
 20
1.033598154028645
 11
1.500695516670456
 21
2.910062754248521
 72
    1
 10
1.500695516670456
 20
2.910062754248521
 11
0.8087002570814227
 21
2.218067494659514
 72
    1
 10
0.8087002570814227
 20
2.218067494659514
 11
2.685970543868814
 21
1.033598154028645
 97
    0
 75
    0
 76
    1
 98
    0
  0
HATCH
  5
196
100
AcDbEntity
  8
Schraffur
  6
ByLayer
 62
  179
420
2500185
370
   -1
100
AcDbHatch
 10
0
 20
0
 30
0
210
0
220
0
230
1
  2
SOLID
 70
    1
 71
    0
 91
    1
 92
    0
 93
    3
 72
    1
 10
2.746159792612967
 20
-0.9654959543953012
 11
0.9437208322689283
 21
-2.260567411965119
 72
    1
 10
0.9437208322689283
 20
-2.260567411965119
 11
1.675752716096035
 21
-2.910062754248556
 72
    1
 10
1.675752716096035
 20
-2.910062754248556
 11
2.746159792612967
 21
-0.9654959543953012
 97
    0
 75
    0
 76
    1
 98
    0
  0
LINE
  5
197
100
AcDbEntity
  8
Skizziergeometrie(DIN)
  6
ByLayer
 62
  256
370
   -1
100
AcDbLine
 10
2.685970543868814
 20
1.033598154028645
 11
1.500695516670456
 21
2.910062754248521
  0
LINE
  5
198
100
AcDbEntity
  8
Skizziergeometrie(DIN)
  6
ByLayer
 62
  256
370
   -1
100
AcDbLine
 10
1.500695516670456
 20
2.910062754248521
 11
0.8087002570814227
 21
2.218067494659514
  0
LINE
  5
199
100
AcDbEntity
  8
Skizziergeometrie(DIN)
  6
ByLayer
 62
  256
370
   -1
100
AcDbLine
 10
0.8087002570814227
 20
2.218067494659514
 11
2.685970543868814
 21
1.033598154028645
  0
LINE
  5
19A
100
AcDbEntity
  8
Skizziergeometrie(DIN)
  6
ByLayer
 62
  256
370
   -1
100
AcDbLine
 10
2.746159792612967
 20
-0.9654959543953012
 11
1.675752716096035
 21
-2.910062754248556
  0
LINE
  5
19B
100
AcDbEntity
  8
Skizziergeometrie(DIN)
  6
ByLayer
 62
  256
370
   -1
100
AcDbLine
 10
1.675752716096035
 20
-2.910062754248556
 11
0.9437208322689283
 21
-2.260567411965119
  0
LINE
  5
19C
100
AcDbEntity
  8
Skizziergeometrie(DIN)
  6
ByLayer
 62
  256
370
   -1
100
AcDbLine
 10
0.9437208322689283
 20
-2.260567411965119
 11
2.746159792612967
 21
-0.9654959543953012
  0
ARC
  5
19D
100
AcDbEntity
  8
Skizziergeometrie (ISO)
  6
ByLayer
 62
  256
370
   -1
100
AcDbCircle
 10
0.07706842498974351
 20
-0.0454045049720975
 40
2.823228117602702
100
AcDbArc
 50
67.56090338518598
 51
295.8882073090315
  0
ENDBLK
  5
AA
330
A8
100
AcDbEntity
  8
0
100
AcDbBlockEnd
  0
BLOCK
  5
AC
330
AB
100
AcDbEntity
  8
0
100
AcDbBlockBegin
  2
Prototyp
 70
    0
 10
0
 20
0
  3
Prototyp
  1

  0
MTEXT
  5
19E
100
AcDbEntity
  8
Symbol (ISO)
  6
ByLayer
 62
    1
370
   -1
100
AcDbMText
 10
-38.43368768692016
 20
5.167682543396949
 30
0
 40
10
 41
232.2222222222232
 71
    1
 72
    1
  1
\fArial|b1|i0;\H10.0000;\LPROTOTYP\l
  7
notiztext (din)
210
0
220
0
230
1
 50
0
 73
    1
 44
1
  0
ENDBLK
  5
AD
330
AB
100
AcDbEntity
  8
0
100
AcDbBlockEnd
  0
BLOCK
  5
AF
330
AE
100
AcDbEntity
  8
0
100
AcDbBlockBegin
  2
Freigabe
 70
    0
 10
0
 20
0
  3
Freigabe
  1

  0
MTEXT
  5
19F
100
AcDbEntity
  8
Symbole(DIN)
  6
ByLayer
 62
    7
370
   -1
100
AcDbMText
 10
-44.64234352111816
 20
18.7593937292695
 30
0
 40
3.499999940395355
 41
191.6249967366486
 71
    1
 72
    1
  1
\fArial|b1|i0;\H3.5000;\LWir bitten um Freigabe zur Fertigung:\l\fArial|b1|i0;\H3.5000;\P\fArial|b0|i0;\H3.5000; \PDatum:___________________________\P \PName: ___________________________\P \PUnterschrift:_______________________
  7
aktuell-din
210
0
220
0
230
1
 50
0
 73
    2
 44
0.9442214965820312
  0
ENDBLK
  5
B0
330
AE
100
AcDbEntity
  8
0
100
AcDbBlockEnd
  0
BLOCK
  5
B2
330
B1
100
AcDbEntity
  8
0
100
AcDbBlockBegin
  2
Freigabe(Englisch)
 70
    0
 10
0
 20
0
  3
Freigabe(Englisch)
  1

  0
MTEXT
  5
1A0
100
AcDbEntity
  8
Symbole(DIN)
  6
ByLayer
 62
    7
370
   -1
100
AcDbMText
 10
-44.64234352111816
 20
18.75806000083685
 30
0
 40
3.499999940395355
 41
161.6805528021524
 71
    1
 72
    1
  1
\fArial|b1|i0;\H3.5000;\LWe ask for release for our production:\P\l\fArial|b0|i0;\H3.5000; \PDate:___________________________\P \PName: ___________________________\P \PSignature:_______________________
  7
aktuell-din
210
0
220
0
230
1
 50
0
 73
    2
 44
0.9442214965820312
  0
ENDBLK
  5
B3
330
B1
100
AcDbEntity
  8
0
100
AcDbBlockEnd
  0
BLOCK
  5
B5
330
B4
100
AcDbEntity
  8
0
100
AcDbBlockBegin
  2
Freigabe(Französisch)
 70
    0
 10
0
 20
0
  3
Freigabe(Französisch)
  1

  0
MTEXT
  5
1A1
100
AcDbEntity
  8
Symbole(DIN)
  6
ByLayer
 62
    7
370
   -1
100
AcDbMText
 10
-59.52934741973876
 20
18.78740441054105
 30
0
 40
3.499999940395355
 41
171.4027802588235
 71
    1
 72
    1
  1
\fArial|b1|i0;\H3.5000;\LNous demandons l'autorisation pour la production:\P\l\fArial|b0|i0;\H3.5000; \PDate:___________________________\P \PNom: ___________________________\P \PSignature:_______________________
  7
aktuell-din
210
0
220
0
230
1
 50
0
 73
    2
 44
0.9442214965820312
  0
ENDBLK
  5
B6
330
B4
100
AcDbEntity
  8
0
100
AcDbBlockEnd
  0
BLOCK
  5
B8
330
B7
100
AcDbEntity
  8
0
100
AcDbBlockBegin
  2
Freigabe(Spanisch)
 70
    0
 10
0
 20
0
  3
Freigabe(Spanisch)
  1

  0
MTEXT
  5
1A2
100
AcDbEntity
  8
Symbole(DIN)
  6
ByLayer
 62
    7
370
   -1
100
AcDbMText
 10
-46.81517124176025
 20
18.71937859803438
 30
0
 40
3.499999940395355
 41
166.7361082716124
 71
    1
 72
    1
  1
\fArial|b1|i0;\H3.5000;\LPor favor, dénos permiso para producir:\P\l\fArial|b0|i0;\H3.5000; \PFecha:___________________________\P \PNombre: ___________________________\P \PFirma:_______________________
  7
aktuell-din
210
0
220
0
230
1
 50
0
 73
    2
 44
0.9442214965820312
  0
ENDBLK
  5
B9
330
B7
100
AcDbEntity
  8
0
100
AcDbBlockEnd
  0
BLOCK
  5
BB
330
BA
100
AcDbEntity
  8
0
100
AcDbBlockBegin
  2
Schleifrichtung 30°
 70
    0
 10
0
 20
0
  3
Schleifrichtung 30°
  1

  0
MTEXT
  5
1A3
100
AcDbEntity
  8
Symbol (ISO)
  6
ByLayer
 62
  256
370
   -1
100
AcDbMText
 10
-1.291992841288447
 20
2.237797244126866
 30
0
 40
2.000000029802322
 41
45.77777803591607
 71
    2
 72
    1
  1
\fAIGDT|b0|i0;\H2.0000;#\P\fArial|b0|i0;\H2.0000;Schleifrichtung
  7
notiztext (din)
210
0
220
0
230
1
 50
29.99999999999999
 73
    2
 44
0.75
  0
ENDBLK
  5
BC
330
BA
100
AcDbEntity
  8
0
100
AcDbBlockEnd
  0
BLOCK
  5
BE
330
BD
100
AcDbEntity
  8
0
100
AcDbBlockBegin
  2
Schleifrichtung 60°
 70
    0
 10
0
 20
0
  3
Schleifrichtung 60°
  1

  0
MTEXT
  5
1A4
100
AcDbEntity
  8
Symbol (ISO)
  6
ByLayer
 62
  256
370
   -1
100
AcDbMText
 10
-2.237797244126848
 20
1.291992841288447
 30
0
 40
2.000000029802322
 41
45.77777803591607
 71
    2
 72
    1
  1
\fAIGDT|b0|i0;\H2.0000;#\P\fArial|b0|i0;\H2.0000;Schleifrichtung
  7
notiztext (din)
210
0
220
0
230
1
 50
60.00000000000004
 73
    2
 44
0.75
  0
ENDBLK
  5
BF
330
BD
100
AcDbEntity
  8
0
100
AcDbBlockEnd
  0
BLOCK
  5
C1
330
C0
100
AcDbEntity
  8
0
100
AcDbBlockBegin
  2
Schleifrichtung 40°
 70
    0
 10
0
 20
0
  3
Schleifrichtung 40°
  1

  0
MTEXT
  5
1A5
100
AcDbEntity
  8
Symbol (ISO)
  6
ByLayer
 62
  256
370
   -1
100
AcDbMText
 10
-1.660953980367843
 20
1.979447873236992
 30
0
 40
2.000000029802322
 41
45.77777803591607
 71
    2
 72
    1
  1
\fAIGDT|b0|i0;\H2.0000;#\P\fArial|b0|i0;\H2.0000;Schleifrichtung
  7
notiztext (din)
210
0
220
0
230
1
 50
39.99999999999999
 73
    2
 44
0.75
  0
ENDBLK
  5
C2
330
C0
100
AcDbEntity
  8
0
100
AcDbBlockEnd
  0
BLOCK
  5
C4
330
C3
100
AcDbEntity
  8
0
100
AcDbBlockBegin
  2
Schleifrichtung 90°
 70
    0
 10
0
 20
0
  3
Schleifrichtung 90°
  1

  0
MTEXT
  5
1A6
100
AcDbEntity
  8
Symbol (ISO)
  6
ByLayer
 62
  256
370
   -1
100
AcDbMText
 10
-2.583985682576894
 20
0
 30
0
 40
2.000000029802322
 41
45.77777803591607
 71
    2
 72
    1
  1
\fAIGDT|b0|i0;\H2.0000;#\P\fArial|b0|i0;\H2.0000;Schleifrichtung
  7
notiztext (din)
210
0
220
0
230
1
 50
89.99999999999991
 73
    2
 44
0.75
  0
ENDBLK
  5
C5
330
C3
100
AcDbEntity
  8
0
100
AcDbBlockEnd
  0
BLOCK
  5
C7
330
C6
100
AcDbEntity
  8
0
100
AcDbBlockBegin
  2
Schleifrichtung 20°
 70
    0
 10
0
 20
0
  3
Schleifrichtung 20°
  1

  0
MTEXT
  5
1A7
100
AcDbEntity
  8
Symbol (ISO)
  6
ByLayer
 62
  256
370
   -1
100
AcDbMText
 10
-0.8837751535064342
 20
2.428152278134021
 30
0
 40
2.000000029802322
 41
45.77777803591607
 71
    2
 72
    1
  1
\fAIGDT|b0|i0;\H2.0000;#\P\fArial|b0|i0;\H2.0000;Schleifrichtung
  7
notiztext (din)
210
0
220
0
230
1
 50
20.00000000000012
 73
    2
 44
0.75
  0
ENDBLK
  5
C8
330
C6
100
AcDbEntity
  8
0
100
AcDbBlockEnd
  0
BLOCK
  5
CA
330
C9
100
AcDbEntity
  8
0
100
AcDbBlockBegin
  2
Schleifrichtung 15°
 70
    0
 10
0
 20
0
  3
Schleifrichtung 15°
  1

  0
MTEXT
  5
1A8
100
AcDbEntity
  8
Symbol (ISO)
  6
ByLayer
 62
  256
370
   -1
100
AcDbMText
 10
-0.6687847069231267
 20
2.495938505562165
 30
0
 40
2.000000029802322
 41
45.77777803591607
 71
    2
 72
    1
  1
\fAIGDT|b0|i0;\H2.0000;#\P\fArial|b0|i0;\H2.0000;Schleifrichtung
  7
notiztext (din)
210
0
220
0
230
1
 50
15.00000000000012
 73
    2
 44
0.75
  0
ENDBLK
  5
CB
330
C9
100
AcDbEntity
  8
0
100
AcDbBlockEnd
  0
BLOCK
  5
CD
330
CC
100
AcDbEntity
  8
0
100
AcDbBlockBegin
  2
Schleifrichtung -30°
 70
    0
 10
0
 20
0
  3
Schleifrichtung -30°
  1

  0
MTEXT
  5
1A9
100
AcDbEntity
  8
Symbol (ISO)
  6
ByLayer
 62
  256
370
   -1
100
AcDbMText
 10
1.291992841288447
 20
2.237797244126795
 30
0
 40
2.000000029802322
 41
45.77777803591607
 71
    2
 72
    1
  1
\fAIGDT|b0|i0;\H2.0000;#\P\fArial|b0|i0;\H2.0000;Schleifrichtung
  7
notiztext (din)
210
0
220
0
230
1
 50
-30.00000000000004
 73
    2
 44
0.75
  0
ENDBLK
  5
CE
330
CC
100
AcDbEntity
  8
0
100
AcDbBlockEnd
  0
BLOCK
  5
D0
330
CF
100
AcDbEntity
  8
0
100
AcDbBlockBegin
  2
Schleifrichtung -15°
 70
    0
 10
0
 20
0
  3
Schleifrichtung -15°
  1

  0
MTEXT
  5
1AA
100
AcDbEntity
  8
Symbol (ISO)
  6
ByLayer
 62
  256
370
   -1
100
AcDbMText
 10
0.6687847069231267
 20
2.495938505562236
 30
0
 40
2.000000029802322
 41
45.77777803591607
 71
    2
 72
    1
  1
\fAIGDT|b0|i0;\H2.0000;#\P\fArial|b0|i0;\H2.0000;Schleifrichtung
  7
notiztext (din)
210
0
220
0
230
1
 50
-14.9999999999998
 73
    2
 44
0.75
  0
ENDBLK
  5
D1
330
CF
100
AcDbEntity
  8
0
100
AcDbBlockEnd
  0
BLOCK
  5
D3
330
D2
100
AcDbEntity
  8
0
100
AcDbBlockBegin
  2
Schleifrichtung -40°
 70
    0
 10
0
 20
0
  3
Schleifrichtung -40°
  1

  0
MTEXT
  5
1AB
100
AcDbEntity
  8
Symbol (ISO)
  6
ByLayer
 62
  256
370
   -1
100
AcDbMText
 10
1.660953980367843
 20
1.979447873236992
 30
0
 40
2.000000029802322
 41
45.77777803591607
 71
    2
 72
    1
  1
\fAIGDT|b0|i0;\H2.0000;#\P\fArial|b0|i0;\H2.0000;Schleifrichtung
  7
notiztext (din)
210
0
220
0
230
1
 50
-40.00000000000016
 73
    2
 44
0.75
  0
ENDBLK
  5
D4
330
D2
100
AcDbEntity
  8
0
100
AcDbBlockEnd
  0
BLOCK
  5
D6
330
D5
100
AcDbEntity
  8
0
100
AcDbBlockBegin
  2
Schleifrichtung -60°
 70
    0
 10
0
 20
0
  3
Schleifrichtung -60°
  1

  0
MTEXT
  5
1AC
100
AcDbEntity
  8
Symbol (ISO)
  6
ByLayer
 62
  256
370
   -1
100
AcDbMText
 10
2.237797244126848
 20
1.291992841288447
 30
0
 40
2.000000029802322
 41
45.77777803591607
 71
    2
 72
    1
  1
\fAIGDT|b0|i0;\H2.0000;#\P\fArial|b0|i0;\H2.0000;Schleifrichtung
  7
notiztext (din)
210
0
220
0
230
1
 50
-59.99999999999974
 73
    2
 44
0.75
  0
ENDBLK
  5
D7
330
D5
100
AcDbEntity
  8
0
100
AcDbBlockEnd
  0
BLOCK
  5
D9
330
D8
100
AcDbEntity
  8
0
100
AcDbBlockBegin
  2
Schleifrichtung -50°
 70
    0
 10
0
 20
0
  3
Schleifrichtung -50°
  1

  0
MTEXT
  5
1AD
100
AcDbEntity
  8
Symbol (ISO)
  6
ByLayer
 62
  256
370
   -1
100
AcDbMText
 10
1.979447873237027
 20
1.660953980367807
 30
0
 40
2.000000029802322
 41
45.77777803591607
 71
    2
 72
    1
  1
\fAIGDT|b0|i0;\H2.0000;#\P\fArial|b0|i0;\H2.0000;Schleifrichtung
  7
notiztext (din)
210
0
220
0
230
1
 50
-49.99999999999986
 73
    2
 44
0.75
  0
ENDBLK
  5
DA
330
D8
100
AcDbEntity
  8
0
100
AcDbBlockEnd
  0
BLOCK
  5
DC
330
DB
100
AcDbEntity
  8
0
100
AcDbBlockBegin
  2
Flächen Galvanik
 70
    0
 10
0
 20
0
  3
Flächen Galvanik
  1

  0
MTEXT
  5
1AE
100
AcDbEntity
  8
Symbol (ISO)
  6
ByLayer
 62
    8
370
   -1
100
AcDbMText
 10
-79.61166381835936
 20
11.89210736808782
 30
0
 40
6.99999988079071
 41
238.9722166685352
 71
    1
 72
    1
  1
\fArial|b1|i0;\H7.0000;FLÄCHE SCHLEIFEN / POLIEREN!\P
  7
notiztext (din)
210
0
220
0
230
1
 50
0
 73
    2
 44
0.8571428656578063
  0
MTEXT
  5
1AF
100
AcDbEntity
  8
Symbol (ISO)
  6
ByLayer
 62
    1
370
   -1
100
AcDbMText
 10
-79.61166381835936
 20
3.200806027419123
 30
0
 40
6.99999988079071
 41
219.7222184803757
 71
    1
 72
    1
  1
\fArial|b1|i0;\H7.0000;FLÄCHE NICHT BEARBEITEN!
  7
notiztext (din)
210
0
220
0
230
1
 50
0
 73
    1
 44
1
  0
MTEXT
  5
1B0
100
AcDbEntity
  8
Symbol (ISO)
  6
ByLayer
 62
    5
370
   -1
100
AcDbMText
 10
-79.61166381835936
 20
-8.518632516837172
 30
0
 40
5
 41
185.6944444444452
 71
    1
 72
    1
  1
\fArial|b0|i0;\H5.0000;ACHTUNG! ALLE KANTEN GRATFREI!
  7
notiztext (din)
210
0
220
0
230
1
 50
0
 73
    1
 44
1
  0
ENDBLK
  5
DD
330
DB
100
AcDbEntity
  8
0
100
AcDbBlockEnd
  0
BLOCK
  5
DF
330
DE
100
AcDbEntity
  8
0
100
AcDbBlockBegin
  2
Duschenglas 8mm
 70
    0
 10
0
 20
0
  3
Duschenglas 8mm
  1

  0
MTEXT
  5
1B1
100
AcDbEntity
  8
Symbol (ISO)
  6
ByLayer
 62
    5
370
   -1
100
AcDbMText
 10
-45.90224742889404
 20
7.150431517511606
 30
0
 40
2.5
 41
97.84722398587674
 71
    1
 72
    1
  1
ESG 8mm klar gefertigt nach DIN EN14428 (Duschenglas).\PEin entsprechender Nachweis (Stempel) ist erforderlich.\PKanten umlaufend geschliffen und poliert.\PAlle Ecken stoßen oder leicht runden.
  7
notiztext (din)
210
0
220
0
230
1
 50
0
 73
    2
 44
0.9442214965820312
  0
ENDBLK
  5
E0
330
DE
100
AcDbEntity
  8
0
100
AcDbBlockEnd
  0
BLOCK
  5
E2
330
E1
100
AcDbEntity
  8
0
100
AcDbBlockBegin
  2
Außerhalb der AbZ 85
 70
    0
 10
0
 20
0
  3
Außerhalb der AbZ 85
  1

  0
MTEXT
  5
1B2
100
AcDbEntity
  8
Symbol (ISO)
  6
ByLayer
 62
  256
370
   -1
100
AcDbMText
 10
-61.90739154815673
 20
2.585746762342751
 30
0
 40
5
 41
204.4444444444475
 71
    1
 72
    1
  1
\fArial|b1|i0;\H5.0000;\LVordach außerhalb der AbZ Z-70.3-85
  7
notiztext (din)
210
0
220
0
230
1
 50
0
 73
    1
 44
1
  0
ENDBLK
  5
E3
330
E1
100
AcDbEntity
  8
0
100
AcDbBlockEnd
  0
BLOCK
  5
E5
330
E4
100
AcDbEntity
  8
0
100
AcDbBlockBegin
  2
Duschenglas 6mm
 70
    0
 10
0
 20
0
  3
Duschenglas 6mm
  1

  0
MTEXT
  5
1B3
100
AcDbEntity
  8
Symbol (ISO)
  6
ByLayer
 62
    5
370
   -1
100
AcDbMText
 10
-45.90224742889404
 20
7.150431517511606
 30
0
 40
2.5
 41
97.84722398587689
 71
    1
 72
    1
  1
ESG 6mm klar gefertigt nach DIN EN14428 (Duschenglas).\PEin entsprechender Nachweis (Stempel) ist erforderlich.\PKanten umlaufend geschliffen und poliert.\PAlle Ecken stoßen oder leicht runden.
  7
notiztext (din)
210
0
220
0
230
1
 50
0
 73
    2
 44
0.9442214965820312
  0
ENDBLK
  5
E6
330
E4
100
AcDbEntity
  8
0
100
AcDbBlockEnd
  0
BLOCK
  5
E8
330
E7
100
AcDbEntity
  8
0
100
AcDbBlockBegin
  2
unbemaßte Kanten R_0_2 runden
 70
    0
 10
0
 20
0
  3
unbemaßte Kanten R_0_2 runden
  1

  0
MTEXT
  5
1B4
100
AcDbEntity
  8
Symbol (ISO)
  6
ByLayer
 62
  256
370
   -1
100
AcDbMText
 10
-25.96322298049927
 20
1.518673673272132
 30
0
 40
2.5
 41
54.93055555555673
 71
    1
 72
    1
  1
unbemaßte Kanten R=0,2 runden
  7
notiztext (din)
210
0
220
0
230
1
 50
0
 73
    1
 44
1
  0
ENDBLK
  5
E9
330
E7
100
AcDbEntity
  8
0
100
AcDbBlockEnd
  0
BLOCK
  5
EB
330
EA
100
AcDbEntity
  8
0
100
AcDbBlockBegin
  2
Prüfzertifikat nach DIN EN 10204 (3.1) erforderlich
 70
    0
 10
0
 20
0
  3
Prüfzertifikat nach DIN EN 10204 (3.1) erforderlich
  1

  0
MTEXT
  5
1B5
100
AcDbEntity
  8
Symbol (ISO)
  6
ByLayer
 62
  256
370
   -1
100
AcDbMText
 10
-39.00819301605224
 20
1.638719402253627
 30
0
 40
2.5
 41
86.80555527777867
 71
    1
 72
    1
  1
Prüfzertifikat nach DIN EN 10204 (3.1) erforderlich
  7
notiztext (din)
210
0
220
0
230
1
 50
0
 73
    1
 44
1
  0
ENDBLK
  5
EC
330
EA
100
AcDbEntity
  8
0
100
AcDbBlockEnd
  0
BLOCK
  5
EE
330
ED
100
AcDbEntity
  8
0
100
AcDbBlockBegin
  2
Reinigen
 70
    0
 10
0
 20
0
  3
Reinigen
  1

  0
MTEXT
  5
1B6
100
AcDbEntity
  8
Symbol (ISO)
  6
ByLayer
 62
  256
370
   -1
100
AcDbMText
 10
-53.57374191284179
 20
3.583934530615806
 30
0
 40
2.5
 41
119.5138914603266
 71
    1
 72
    1
  1
Nach der Bearbeitung von Dreh- und Frästeilen müssen \PBearbeitungsöle und -emulsionen von den Bauteilen entfernt werden.
  7
notiztext (din)
210
0
220
0
230
1
 50
0
 73
    2
 44
0.9442214965820312
  0
ENDBLK
  5
EF
330
ED
100
AcDbEntity
  8
0
100
AcDbBlockEnd
  0
BLOCK
  5
F1
330
F0
100
AcDbEntity
  8
0
100
AcDbBlockBegin
  2
Schleifrichtung rund-2
 70
    0
 10
0
 20
0
  3
Schleifrichtung rund-2
  1

  0
HATCH
  5
1B7
100
AcDbEntity
  8
Schraffur (ISO)
  6
ByLayer
 62
  156
420
16512
370
   -1
100
AcDbHatch
 10
0
 20
0
 30
0
210
0
220
0
230
1
  2
SOLID
 70
    1
 71
    0
 91
    1
 92
    0
 93
    3
 72
    1
 10
-10.47794571960972
 20
20.90644694881277
 11
-6.849893015193186
 21
13.46116476233097
 72
    1
 10
-6.849893015193186
 20
13.46116476233097
 11
-3.613318818075255
 21
16.27266978918406
 72
    1
 10
-3.613318818075255
 20
16.27266978918406
 11
-10.47794571960972
 21
20.90644694881277
 97
    0
 75
    0
 76
    1
 98
    0
  0
HATCH
  5
1B8
100
AcDbEntity
  8
Schraffur (ISO)
  6
ByLayer
 62
    7
370
   -1
100
AcDbHatch
 10
0
 20
0
 30
0
210
0
220
0
230
1
  2
SOLID
 70
    1
 71
    0
 91
    1
 92
    0
 93
    3
 72
    1
 10
8.373591724927785
 20
-13.05289092354922
 11
9.897290434662391
 21
-20.90644694881275
 72
    1
 10
9.897290434662391
 20
-20.90644694881275
 11
10.47794571960972
 21
-12.6446170847675
 72
    1
 10
10.47794571960972
 20
-12.6446170847675
 11
8.373591724927785
 21
-13.05289092354922
 97
    0
 75
    0
 76
    1
 98
    0
  0
HATCH
  5
1B9
100
AcDbEntity
  8
Schraffur (ISO)
  6
ByLayer
 62
    7
370
   -1
100
AcDbHatch
 10
0
 20
0
 30
0
210
0
220
0
230
1
  2
SOLID
 70
    1
 71
    0
 91
    1
 92
    0
 93
    3
 72
    1
 10
8.373591724927785
 20
-13.05289092354922
 11
6.269237730245844
 21
-13.46116476233096
 72
    1
 10
6.269237730245844
 20
-13.46116476233096
 11
9.897290434662391
 21
-20.90644694881275
 72
    1
 10
9.897290434662391
 20
-20.90644694881275
 11
8.373591724927785
 21
-13.05289092354922
 97
    0
 75
    0
 76
    1
 98
    0
  0
HATCH
  5
1BA
100
AcDbEntity
  8
Schraffur (ISO)
  6
ByLayer
 62
    7
370
   -1
100
AcDbHatch
 10
0
 20
0
 30
0
210
0
220
0
230
1
  2
SOLID
 70
    1
 71
    0
 91
    1
 92
    0
 93
    3
 72
    1
 10
-5.231605916634229
 20
14.86691727575753
 11
-10.47794571960972
 21
20.90644694881277
 72
    1
 10
-10.47794571960972
 20
20.90644694881277
 11
-6.849893015193186
 21
13.46116476233097
 72
    1
 10
-6.849893015193186
 20
13.46116476233097
 11
-5.231605916634229
 21
14.86691727575753
 97
    0
 75
    0
 76
    1
 98
    0
  0
HATCH
  5
1BB
100
AcDbEntity
  8
Schraffur (ISO)
  6
ByLayer
 62
    7
370
   -1
100
AcDbHatch
 10
0
 20
0
 30
0
210
0
220
0
230
1
  2
SOLID
 70
    1
 71
    0
 91
    1
 92
    0
 93
    3
 72
    1
 10
-5.231605916634229
 20
14.86691727575753
 11
-3.613318818075255
 21
16.27266978918406
 72
    1
 10
-3.613318818075255
 20
16.27266978918406
 11
-10.47794571960972
 21
20.90644694881277
 72
    1
 10
-10.47794571960972
 20
20.90644694881277
 11
-5.231605916634229
 21
14.86691727575753
 97
    0
 75
    0
 76
    1
 98
    0
  0
ARC
  5
1BC
100
AcDbEntity
  8
Skizziergeometrie (ISO)
  6
ByLayer
 62
  256
370
   -1
100
AcDbCircle
 10
-50.5280784645487
 20
-24.48063124655874
 40
60
100
AcDbArc
 50
10.97976698014274
 51
40.9797669801427
  0
LINE
  5
1BD
100
AcDbEntity
  8
Skizziergeometrie (ISO)
  6
ByLayer
 62
  256
370
   -1
100
AcDbLine
 10
-5.231605916634229
 20
14.86691727575753
 11
-10.47794571960972
 21
20.90644694881277
  0
LINE
  5
1BE
100
AcDbEntity
  8
Skizziergeometrie (ISO)
  6
ByLayer
 62
  256
370
   -1
100
AcDbLine
 10
-10.47794571960972
 20
20.90644694881277
 11
-6.849893015193186
 21
13.46116476233097
  0
LINE
  5
1BF
100
AcDbEntity
  8
Skizziergeometrie (ISO)
  6
ByLayer
 62
  256
370
   -1
100
AcDbLine
 10
-6.849893015193186
 20
13.46116476233097
 11
-3.613318818075255
 21
16.27266978918406
  0
LINE
  5
1C0
100
AcDbEntity
  8
Skizziergeometrie (ISO)
  6
ByLayer
 62
  256
370
   -1
100
AcDbLine
 10
-3.613318818075255
 20
16.27266978918406
 11
-10.47794571960972
 21
20.90644694881277
  0
LINE
  5
1C1
100
AcDbEntity
  8
Skizziergeometrie (ISO)
  6
ByLayer
 62
  256
370
   -1
100
AcDbLine
 10
8.373591724927785
 20
-13.05289092354922
 11
9.897290434662391
 21
-20.90644694881275
  0
LINE
  5
1C2
100
AcDbEntity
  8
Skizziergeometrie (ISO)
  6
ByLayer
 62
  256
370
   -1
100
AcDbLine
 10
9.897290434662391
 20
-20.90644694881275
 11
6.269237730245844
 21
-13.46116476233096
  0
LINE
  5
1C3
100
AcDbEntity
  8
Skizziergeometrie (ISO)
  6
ByLayer
 62
  256
370
   -1
100
AcDbLine
 10
6.269237730245844
 20
-13.46116476233096
 11
10.47794571960972
 21
-12.6446170847675
  0
LINE
  5
1C4
100
AcDbEntity
  8
Skizziergeometrie (ISO)
  6
ByLayer
 62
  256
370
   -1
100
AcDbLine
 10
10.47794571960972
 20
-12.6446170847675
 11
9.897290434662391
 21
-20.90644694881275
  0
ENDBLK
  5
F2
330
F0
100
AcDbEntity
  8
0
100
AcDbBlockEnd
  0
BLOCK
  5
F4
330
F3
100
AcDbEntity
  8
0
100
AcDbBlockBegin
  2
EPDM-washer
 70
    0
 10
0
 20
0
  3
EPDM-washer
  1

  0
MTEXT
  5
1C5
100
AcDbEntity
  8
Symbole(DIN)
  6
ByLayer
 62
    7
370
   -1
100
AcDbMText
 10
-11.25666856765747
 20
1.270007696002721
 30
0
 40
2.5
 41
21.94444573016283
 71
    1
 72
    1
  1
EPDM-washer
  7
aktuell-din
210
0
220
0
230
1
 50
0
 73
    1
 44
1
  0
ENDBLK
  5
F5
330
F3
100
AcDbEntity
  8
0
100
AcDbBlockEnd
  0
BLOCK
  5
F7
330
F6
100
AcDbEntity
  8
0
100
AcDbBlockBegin
  2
isometric view
 70
    0
 10
0
 20
0
  3
isometric view
  1

  0
MTEXT
  5
1C6
100
AcDbEntity
  8
Symbole(DIN)
  6
ByLayer
 62
    7
370
   -1
100
AcDbMText
 10
-10.96417665481567
 20
1.270007696002721
 30
0
 40
2.5
 41
23.263890174607
 71
    1
 72
    1
  1
isometric view
  7
aktuell-din
210
0
220
0
230
1
 50
0
 73
    1
 44
1
  0
ENDBLK
  5
F8
330
F6
100
AcDbEntity
  8
0
100
AcDbBlockEnd
  0
BLOCK
  5
FA
330
F9
100
AcDbEntity
  8
0
100
AcDbBlockBegin
  2
glazing
 70
    0
 10
0
 20
0
  3
glazing
  1

  0
MTEXT
  5
1C7
100
AcDbEntity
  8
Symbole(DIN)
  6
ByLayer
 62
    7
370
   -1
100
AcDbMText
 10
-5.532583594322204
 20
1.616806462407112
 30
0
 40
2.5
 41
10.83333333333391
 71
    1
 72
    1
  1
glazing
  7
aktuell-din
210
0
220
0
230
1
 50
0
 73
    1
 44
1
  0
ENDBLK
  5
FB
330
F9
100
AcDbEntity
  8
0
100
AcDbBlockEnd
  0
BLOCK
  5
FD
330
FC
100
AcDbEntity
  8
0
100
AcDbBlockBegin
  2
countersink screw EN ISO A2
 70
    0
 10
0
 20
0
  3
countersink screw EN ISO A2
  1

  0
MTEXT
  5
1C8
100
AcDbEntity
  8
Symbole(DIN)
  6
ByLayer
 62
    7
370
   -1
100
AcDbMText
 10
-16.98551774024963
 20
5.20426383242011
 30
0
 40
2.5
 41
33.40277724777287
 71
    1
 72
    1
  1
countersink screw\PEN ISO 10642 M6x16\Pmaterial: A2
  7
aktuell-din
210
0
220
0
230
1
 50
0
 73
    2
 44
0.9442214965820312
  0
ENDBLK
  5
FE
330
FC
100
AcDbEntity
  8
0
100
AcDbBlockEnd
  0
BLOCK
  5
100
330
FF
100
AcDbEntity
  8
0
100
AcDbBlockBegin
  2
cylinder head screw EN ISO A2
 70
    0
 10
0
 20
0
  3
cylinder head screw EN ISO A2
  1

  0
MTEXT
  5
1C9
100
AcDbEntity
  8
Symbole(DIN)
  6
ByLayer
 62
    7
370
   -1
100
AcDbMText
 10
-16.01467132568359
 20
5.20426383242011
 30
0
 40
2.5
 41
33.47222350794068
 71
    1
 72
    1
  1
cylinder head screw\PEN ISO 4762 M8x20\Pmaterial: A2
  7
aktuell-din
210
0
220
0
230
1
 50
0
 73
    2
 44
0.9442214965820312
  0
ENDBLK
  5
101
330
FF
100
AcDbEntity
  8
0
100
AcDbBlockEnd
  0
BLOCK
  5
103
330
102
100
AcDbEntity
  8
0
100
AcDbBlockBegin
  2
P+S glass clamp
 70
    0
 10
0
 20
0
  3
P+S glass clamp
  1

  0
MTEXT
  5
1CA
100
AcDbEntity
  8
Symbole(DIN)
  6
ByLayer
 62
    7
370
   -1
100
AcDbMText
 10
-26.10899209976196
 20
3.277438879013061
 30
0
 40
5
 41
120.8333374161963
 71
    1
 72
    1
  1
\fArial|b0|i0;\H5.0000;P+S glass clamp
  7
aktuell-din
210
0
220
0
230
1
 50
0
 73
    1
 44
1
  0
ENDBLK
  5
104
330
102
100
AcDbEntity
  8
0
100
AcDbBlockEnd
  0
BLOCK
  5
106
330
105
100
AcDbEntity
  8
0
100
AcDbBlockBegin
  2
Eloxalqualität nach DIN 17611
 70
    0
 10
0
 20
0
  3
Eloxalqualität nach DIN 17611
  1

  0
MTEXT
  5
1CB
100
AcDbEntity
  8
Symbol (ISO)
  6
ByLayer
 62
  256
370
   -1
100
AcDbMText
 10
0
 20
3.998107574880123
 30
0
 40
2.791878283023834
 41
90.65849202374756
 71
    2
 72
    1
  1
\fArial|b0|i0;\H2.7919;Eloxalqualität nach DIN 17611 \P(Achtung: Dekorative Oberfläche)\P
  7
notiztext (din)
210
0
220
0
230
1
 50
0
 73
    2
 44
0.9442214369773864
  0
ENDBLK
  5
107
330
105
100
AcDbEntity
  8
0
100
AcDbBlockEnd
  0
BLOCK
  5
109
330
108
100
AcDbEntity
  8
0
100
AcDbBlockBegin
  2
Duschenglas 8mm Weissglas
 70
    0
 10
0
 20
0
  3
Duschenglas 8mm Weissglas
  1

  0
MTEXT
  5
1CC
100
AcDbEntity
  8
Symbol (ISO)
  6
ByLayer
 62
    5
370
   -1
100
AcDbMText
 10
-53.56992959976196
 20
7.150431517511606
 30
0
 40
2.5
 41
175.9027779514167
 71
    1
 72
    1
  1
ESG 8mm \fArial|b1|i0;\H2.5000;WEISSGLAS\fArial|b0|i0;\H2.5000; gefertigt nach DIN EN14428 (Duschenglas).\PEin entsprechender Nachweis (Stempel) ist erforderlich.\PKanten umlaufend geschliffen und poliert.\PAlle Ecken stoßen oder leicht runden.
  7
notiztext (din)
210
0
220
0
230
1
 50
0
 73
    2
 44
0.9442214965820312
  0
ENDBLK
  5
10A
330
108
100
AcDbEntity
  8
0
100
AcDbBlockEnd
  0
BLOCK
  5
10C
330
10B
100
AcDbEntity
  8
0
100
AcDbBlockBegin
  2
Duschenglas 10mm Weissglas
 70
    0
 10
0
 20
0
  3
Duschenglas 10mm Weissglas
  1

  0
MTEXT
  5
1CD
100
AcDbEntity
  8
Symbol (ISO)
  6
ByLayer
 62
    5
370
   -1
100
AcDbMText
 10
-54.540776014328
 20
7.150431517511606
 30
0
 40
2.5
 41
177.2916668403056
 71
    1
 72
    1
  1
ESG 10mm \fArial|b1|i0;\H2.5000;WEISSGLAS\fArial|b0|i0;\H2.5000; gefertigt nach DIN EN14428 (Duschenglas).\PEin entsprechender Nachweis (Stempel) ist erforderlich.\PKanten umlaufend geschliffen und poliert.\PAlle Ecken stoßen oder leicht runden.
  7
notiztext (din)
210
0
220
0
230
1
 50
0
 73
    2
 44
0.9442214965820312
  0
ENDBLK
  5
10D
330
10B
100
AcDbEntity
  8
0
100
AcDbBlockEnd
  0
ENDSEC
  0
SECTION
  2
ENTITIES
  0
LINE
  5
1CE
100
AcDbEntity
  8
Sichtbar (ISO)
  6
ByLayer
 62
  256
370
   -1
100
AcDbLine
 10
15.38833014291026
 20
142.5378581720417
 11
15.38833014291025
 21
232.3524820740917
  0
LINE
  5
1CF
100
AcDbEntity
  8
Sichtbar (ISO)
  6
ByLayer
 62
  256
370
   -1
100
AcDbLine
 10
15.38833014291025
 20
232.3524820740917
 11
29.53046576664121
 21
240.517447883369
  0
LINE
  5
1D0
100
AcDbEntity
  8
Sichtbar (ISO)
  6
ByLayer
 62
  256
370
   -1
100
AcDbLine
 10
79.02794044969954
 20
195.610135932344
 11
79.02794044969954
 21
176.8307145710039
  0
LINE
  5
1D1
100
AcDbEntity
  8
Sichtbar (ISO)
  6
ByLayer
 62
  256
370
   -1
100
AcDbLine
 10
79.02794044969954
 20
119.0227566413233
 11
79.02794044969954
 21
105.7955120302941
  0
LINE
  5
1D2
100
AcDbEntity
  8
Sichtbar (ISO)
  6
ByLayer
 62
  256
370
   -1
100
AcDbLine
 10
79.71616554909041
 20
106.1928589766905
 11
79.02794044969954
 21
105.7955120302941
  0
LINE
  5
1D3
100
AcDbEntity
  8
Sichtbar (ISO)
  6
ByLayer
 62
  256
370
   -1
100
AcDbLine
 10
93.17007607343049
 20
195.3651869580657
 11
93.17007607343049
 21
203.7751017416213
  0
LINE
  5
1D4
100
AcDbEntity
  8
Sichtbar (ISO)
  6
ByLayer
 62
  256
370
   -1
100
AcDbLine
 10
93.17007607343049
 20
203.7751017416213
 11
79.02794044969954
 21
195.610135932344
  0
LINE
  5
1D5
100
AcDbEntity
  8
Sichtbar (ISO)
  6
ByLayer
 62
  256
370
   -1
100
AcDbLine
 10
79.02794044969954
 20
105.7955120302941
 11
15.38833014291026
 21
142.5378581720417
  0
LINE
  5
1D6
100
AcDbEntity
  8
Sichtbar (ISO)
  6
ByLayer
 62
  256
370
   -1
100
AcDbLine
 10
15.38833014291025
 20
232.3524820740917
 11
79.02794044969954
 21
195.610135932344
  0
LINE
  5
1D7
100
AcDbEntity
  8
Sichtbar (ISO)
  6
ByLayer
 62
  256
370
   -1
100
AcDbLine
 10
93.17007607343049
 20
203.7751017416213
 11
29.53046576664121
 21
240.517447883369
  0
LINE
  5
1D8
100
AcDbEntity
  8
Sichtbar (ISO)
  6
ByLayer
 62
  256
370
   -1
100
AcDbLine
 10
161.9008552047629
 20
154.4587082535866
 11
91.68515183293874
 21
194.9977634966482
  0
LINE
  5
1D9
100
AcDbEntity
  8
Sichtbar (ISO)
  6
ByLayer
 62
  256
370
   -1
100
AcDbLine
 10
161.900855204763
 20
64.6440843515367
 11
161.9008552047629
 21
154.4587082535866
  0
LINE
  5
1DA
100
AcDbEntity
  8
Sichtbar (ISO)
  6
ByLayer
 62
  256
370
   -1
100
AcDbLine
 10
90.69520233927759
 20
194.9977634966482
 11
86.02829758344637
 21
192.3033247795867
  0
LINE
  5
1DB
100
AcDbEntity
  8
Sichtbar (ISO)
  6
ByLayer
 62
  256
370
   -1
100
AcDbLine
 10
156.2440009552706
 20
61.37809802782581
 11
92.47510132659995
 21
98.19508939436506
  0
LINE
  5
1DC
100
AcDbEntity
  8
Sichtbar (ISO)
  6
ByLayer
 62
  256
370
   -1
100
AcDbLine
 10
156.2440009552706
 20
151.1927219298757
 11
156.2440009552706
 21
61.37809802782581
  0
LINE
  5
1DD
100
AcDbEntity
  8
Sichtbar (ISO)
  6
ByLayer
 62
  256
370
   -1
100
AcDbLine
 10
86.02829758344637
 20
191.7317771729373
 11
156.2440009552706
 21
151.1927219298757
  0
LINE
  5
1DE
100
AcDbEntity
  8
Sichtbar (ISO)
  6
ByLayer
 62
  256
370
   -1
100
AcDbLine
 10
161.900855204763
 20
64.6440843515367
 11
156.2440009552706
 21
61.37809802782581
  0
LINE
  5
1DF
100
AcDbEntity
  8
Sichtbar (ISO)
  6
ByLayer
 62
  256
370
   -1
100
AcDbLine
 10
161.9008552047629
 20
154.4587082535866
 11
156.2440009552706
 21
151.1927219298757
  0
LINE
  5
1E0
100
AcDbEntity
  8
Sichtbar (ISO)
  6
ByLayer
 62
  256
370
   -1
100
AcDbLine
 10
86.02829758344637
 20
191.7317771729373
 11
86.02829758344637
 21
192.3033247795867
  0
LINE
  5
1E1
100
AcDbEntity
  8
Sichtbar (ISO)
  6
ByLayer
 62
  256
370
   -1
100
AcDbLine
 10
90.69520233927759
 20
194.9977634966482
 11
91.68515183293874
 21
194.9977634966482
  0
ELLIPSE
  5
1E2
100
AcDbEntity
  8
Sichtbar (ISO)
  6
ByLayer
 62
  256
370
   -1
100
AcDbEllipse
 10
85.21616554909041
 20
105.6520242432513
 30
0
 11
-5.5
 21
3e-016
 31
0
 40
0.5773502691896255
 41
0
 42
0.7853981633974528
  0
ELLIPSE
  5
1E3
100
AcDbEntity
  8
Sichtbar (ISO)
  6
ByLayer
 62
  256
370
   -1
100
AcDbEllipse
 10
85.21616554909039
 20
195.4666481453012
 30
0
 11
-5.5
 21
-3.287e-013
 31
0
 40
0.5773502691896255
 41
3.926990816987
 42
7.068583470576793
  0
ELLIPSE
  5
1E4
100
AcDbEntity
  8
Sichtbar (ISO)
  6
ByLayer
 62
  256
370
   -1
100
AcDbEllipse
 10
88.79399902404661
 20
197.0424133166261
 30
0
 11
0.3999999999999999
 21
0
 31
0
 40
0.5773502691896255
 41
5.497787143782209
 42
6.934851881167173
  0
ELLIPSE
  5
1E5
100
AcDbEntity
  8
Sichtbar (ISO)
  6
ByLayer
 62
  256
370
   -1
100
AcDbEllipse
 10
82.48686021155802
 20
193.4009850254195
 30
0
 11
-0.4000000000000007
 21
2.38e-014
 31
0
 40
0.5773502691896254
 41
0.9191297528077146
 42
2.356194490192624
  0
ELLIPSE
  5
1E6
100
AcDbEntity
  8
Sichtbar (ISO)
  6
ByLayer
 62
  256
370
   -1
100
AcDbEllipse
 10
85.21616554909039
 20
195.4666481453012
 30
0
 11
-4.9
 21
-2e-016
 31
0
 40
0.5773502691896257
 41
3.793259227577301
 42
7.202315059986981
  0
LINE
  5
1E7
100
AcDbEntity
  8
Sichtbar (ISO)
  6
ByLayer
 62
  256
370
   -1
100
AcDbLine
 10
79.71616554909041
 20
119.175154613439
 11
79.71616554909041
 21
105.6520242432513
  0
LINE
  5
1E8
100
AcDbEntity
  8
Sichtbar (ISO)
  6
ByLayer
 62
  256
370
   -1
100
AcDbLine
 10
81.32707825256439
 20
193.2212825477499
 11
91.0144411548201
 21
187.628280968395
  0
LINE
  5
1E9
100
AcDbEntity
  8
Sichtbar (ISO)
  6
ByLayer
 62
  256
370
   -1
100
AcDbLine
 10
91.0144411548201
 20
97.81365706634512
 11
81.32707825256439
 21
103.4066586457
  0
ELLIPSE
  5
1EA
100
AcDbEntity
  8
Sichtbar (ISO)
  6
ByLayer
 62
  256
370
   -1
100
AcDbEllipse
 10
91.58012657976934
 20
187.9548796007661
 30
0
 11
0.8000000000000014
 21
4.79e-014
 31
0
 40
0.5773502691896255
 41
3.926990816987
 42
5.497787143781896
  0
ELLIPSE
  5
1EB
100
AcDbEntity
  8
Sichtbar (ISO)
  6
ByLayer
 62
  256
370
   -1
100
AcDbEllipse
 10
91.58012657976934
 20
98.14025569871619
 30
0
 11
0.8000000000000014
 21
4.79e-014
 31
0
 40
0.5773502691896255
 41
3.926990816987
 42
5.497787143781896
  0
LINE
  5
1EC
100
AcDbEntity
  8
Sichtbar (ISO)
  6
ByLayer
 62
  256
370
   -1
100
AcDbLine
 10
92.14581200471856
 20
187.628280968395
 11
92.35794403907452
 21
187.7507554555341
  0
LINE
  5
1ED
100
AcDbEntity
  8
Sichtbar (ISO)
  6
ByLayer
 62
  256
370
   -1
100
AcDbLine
 10
92.14581200471858
 20
97.81365706634512
 11
92.35794403907452
 21
97.93613155348427
  0
ELLIPSE
  5
1EE
100
AcDbEntity
  8
Sichtbar (ISO)
  6
ByLayer
 62
  256
370
   -1
100
AcDbEllipse
 10
92.07510132659991
 20
187.9140547717197
 30
0
 11
0.4000000000000027
 21
0
 31
0
 40
0.5773502691896255
 41
5.497787143782125
 42
7.068583470577028
  0
ELLIPSE
  5
1EF
100
AcDbEntity
  8
Sichtbar (ISO)
  6
ByLayer
 62
  256
370
   -1
100
AcDbEllipse
 10
92.07510132659992
 20
98.09943086966982
 30
0
 11
0.4000000000000049
 21
1e-016
 31
0
 40
0.5773502691896255
 41
5.497787143782125
 42
6.283185307179586
  0
LINE
  5
1F0
100
AcDbEntity
  8
Sichtbar (ISO)
  6
ByLayer
 62
  256
370
   -1
100
AcDbLine
 10
92.35794403907452
 20
188.0773540879052
 11
91.22657318917605
 21
188.7305513526474
  0
LINE
  5
1F1
100
AcDbEntity
  8
Sichtbar (ISO)
  6
ByLayer
 62
  256
370
   -1
100
AcDbLine
 10
91.22657318917605
 20
188.7305513526474
 11
90.94373047670145
 21
188.5672520364618
  0
LINE
  5
1F2
100
AcDbEntity
  8
Sichtbar (ISO)
  6
ByLayer
 62
  256
370
   -1
100
AcDbLine
 10
90.94373047670145
 20
188.5672520364618
 11
90.59017708610816
 21
188.7713761816938
  0
ELLIPSE
  5
1F3
100
AcDbEntity
  8
Sichtbar (ISO)
  6
ByLayer
 62
  256
370
   -1
100
AcDbEllipse
 10
90.37804505175222
 20
188.893850668833
 30
0
 11
0.3000000000000003
 21
0
 31
0
 40
0.5773502691896254
 41
5.49778714378214
 42
6.425082361783775
  0
ELLIPSE
  5
1F4
100
AcDbEntity
  8
Sichtbar (ISO)
  6
ByLayer
 62
  256
370
   -1
100
AcDbEllipse
 10
89.88307030492162
 20
188.8530258397866
 30
0
 11
0.8000000000000079
 21
0
 31
0
 40
0.5773502691896254
 41
0.1418970546041398
 42
0.7853981633974187
  0
LINE
  5
1F5
100
AcDbEntity
  8
Sichtbar (ISO)
  6
ByLayer
 62
  256
370
   -1
100
AcDbLine
 10
90.44875572987084
 20
189.1796244721577
 11
89.28202954091304
 21
189.853234151423
  0
ELLIPSE
  5
1F6
100
AcDbEntity
  8
Sichtbar (ISO)
  6
ByLayer
 62
  256
370
   -1
100
AcDbEllipse
 10
89.17596352373506
 20
189.7919969078534
 30
0
 11
-0.1500000000000001
 21
-9e-015
 31
0
 40
0.5773502691896254
 41
3.926990816986815
 42
7.068583470576609
  0
LINE
  5
1F7
100
AcDbEntity
  8
Sichtbar (ISO)
  6
ByLayer
 62
  256
370
   -1
100
AcDbLine
 10
89.06989750655708
 20
189.7307596642838
 11
90.23662369551487
 21
189.0571499850185
  0
ELLIPSE
  5
1F8
100
AcDbEntity
  8
Sichtbar (ISO)
  6
ByLayer
 62
  256
370
   -1
100
AcDbEllipse
 10
89.88307030492165
 20
188.8530258397866
 30
0
 11
0.5000000000000127
 21
0
 31
0
 40
0.5773502691896257
 41
0.1418970546041072
 42
0.785398163397387
  0
LINE
  5
1F9
100
AcDbEntity
  8
Sichtbar (ISO)
  6
ByLayer
 62
  256
370
   -1
100
AcDbLine
 10
90.37804505175222
 20
188.893850668833
 11
88.25672470819254
 21
190.1185955402245
  0
LINE
  5
1FA
100
AcDbEntity
  8
Sichtbar (ISO)
  6
ByLayer
 62
  256
370
   -1
100
AcDbLine
 10
88.25672470819254
 20
190.1185955402245
 11
88.53956742066717
 21
190.28189485641
  0
LINE
  5
1FB
100
AcDbEntity
  8
Sichtbar (ISO)
  6
ByLayer
 62
  256
370
   -1
100
AcDbLine
 10
88.53956742066717
 20
189.955296224039
 11
88.53956742066717
 21
190.28189485641
  0
LINE
  5
1FC
100
AcDbEntity
  8
Sichtbar (ISO)
  6
ByLayer
 62
  256
370
   -1
100
AcDbLine
 10
88.53956742066717
 20
190.28189485641
 11
85.64042961780233
 21
191.9557128473119
  0
LINE
  5
1FD
100
AcDbEntity
  8
Sichtbar (ISO)
  6
ByLayer
 62
  256
370
   -1
100
AcDbLine
 10
85.64042961780233
 20
191.9557128473119
 11
85.85256165215829
 21
192.0781873344511
  0
ELLIPSE
  5
1FE
100
AcDbEntity
  8
Sichtbar (ISO)
  6
ByLayer
 62
  256
370
   -1
100
AcDbEllipse
 10
85.42829758344637
 20
192.3231363087294
 30
0
 11
0.5999999999999962
 21
0
 31
0
 40
0.5773502691896255
 41
5.49778714378214
 42
8.639379797371934
  0
LINE
  5
1FF
100
AcDbEntity
  8
Sichtbar (ISO)
  6
ByLayer
 62
  256
370
   -1
100
AcDbLine
 10
85.00403351473442
 20
192.5680852830077
 11
84.79190148037846
 21
192.4456107958685
  0
LINE
  5
200
100
AcDbEntity
  8
Sichtbar (ISO)
  6
ByLayer
 62
  256
370
   -1
100
AcDbLine
 10
84.79190148037846
 20
192.4456107958685
 11
84.43834808978519
 21
192.6497349411005
  0
ELLIPSE
  5
201
100
AcDbEntity
  8
Sichtbar (ISO)
  6
ByLayer
 62
  256
370
   -1
100
AcDbEllipse
 10
84.72119080225983
 20
192.813034257286
 30
0
 11
-0.4000000000000005
 21
-1e-016
 31
0
 40
0.5773502691896257
 41
5.497787143782023
 42
7.068583470576962
  0
LINE
  5
202
100
AcDbEntity
  8
Sichtbar (ISO)
  6
ByLayer
 62
  256
370
   -1
100
AcDbLine
 10
92.47510132659991
 20
111.2590346892087
 11
92.47510132659991
 21
98.09943086966982
  0
LINE
  5
203
100
AcDbEntity
  8
Sichtbar (ISO)
  6
ByLayer
 62
  256
370
   -1
100
AcDbLine
 10
90.67804505175221
 20
188.893850668833
 11
90.67804505175221
 21
188.720645588076
  0
LINE
  5
204
100
AcDbEntity
  8
Sichtbar (ISO)
  6
ByLayer
 62
  256
370
   -1
100
AcDbLine
 10
89.02596352373507
 20
189.7919969078534
 11
89.02596352373507
 21
189.674475303
  0
LINE
  5
205
100
AcDbEntity
  8
Sichtbar (ISO)
  6
ByLayer
 62
  256
370
   -1
100
AcDbLine
 10
86.02829758344636
 20
192.3231363087294
 11
86.02829758344636
 21
192.3033247795867
  0
LINE
  5
206
100
AcDbEntity
  8
Sichtbar (ISO)
  6
ByLayer
 62
  256
370
   -1
100
AcDbLine
 10
89.07684173652125
 20
196.8791140004406
 11
82.76970292403266
 21
193.237685709234
  0
LINE
  5
207
100
AcDbEntity
  8
Sichtbar (ISO)
  6
ByLayer
 62
  256
370
   -1
100
AcDbLine
 10
89.10525284561641
 20
197.7120137428524
 11
98.79261574787213
 21
192.1190121634975
  0
ELLIPSE
  5
208
100
AcDbEntity
  8
Sichtbar (ISO)
  6
ByLayer
 62
  256
370
   -1
100
AcDbEllipse
 10
98.22693032292288
 20
191.7924135311264
 30
0
 11
0.8000000000000014
 21
1e-016
 31
0
 40
0.5773502691896255
 41
5.497787143782158
 42
7.068583470577065
  0
LINE
  5
209
100
AcDbEntity
  8
Sichtbar (ISO)
  6
ByLayer
 62
  256
370
   -1
100
AcDbLine
 10
98.79261574787213
 20
191.4658148987553
 11
98.58048371351614
 21
191.3433404116161
  0
ELLIPSE
  5
20A
100
AcDbEntity
  8
Sichtbar (ISO)
  6
ByLayer
 62
  256
370
   -1
100
AcDbEllipse
 10
98.29764100104155
 20
191.5066397278017
 30
0
 11
-0.4000000000000026
 21
2.39e-014
 31
0
 40
0.5773502691896258
 41
0.7853981633976899
 42
2.356194490192523
  0
LINE
  5
20B
100
AcDbEntity
  8
Sichtbar (ISO)
  6
ByLayer
 62
  256
370
   -1
100
AcDbLine
 10
98.01479828856692
 20
191.3433404116161
 11
96.88342743866843
 21
191.9965376763583
  0
LINE
  5
20C
100
AcDbEntity
  8
Sichtbar (ISO)
  6
ByLayer
 62
  256
370
   -1
100
AcDbLine
 10
96.88342743866843
 20
191.9965376763583
 11
97.16627015114305
 21
192.1598369925439
  0
LINE
  5
20D
100
AcDbEntity
  8
Sichtbar (ISO)
  6
ByLayer
 62
  256
370
   -1
100
AcDbLine
 10
97.16627015114305
 20
192.1598369925439
 11
96.81271676054979
 21
192.3639611377758
  0
LINE
  5
20E
100
AcDbEntity
  8
Sichtbar (ISO)
  6
ByLayer
 62
  256
370
   -1
100
AcDbLine
 10
96.81271676054979
 20
192.0373625054047
 11
96.81271676054979
 21
192.3639611377758
  0
ELLIPSE
  5
20F
100
AcDbEntity
  8
Sichtbar (ISO)
  6
ByLayer
 62
  256
370
   -1
100
AcDbEllipse
 10
96.60058472619382
 20
192.486435624915
 30
0
 11
-0.3000000000000003
 21
1.79e-014
 31
0
 40
0.5773502691896254
 41
1.42889927219087
 42
2.35619449019277
  0
ELLIPSE
  5
210
100
AcDbEntity
  8
Sichtbar (ISO)
  6
ByLayer
 62
  256
370
   -1
100
AcDbEllipse
 10
96.67129540431247
 20
192.7722094282396
 30
0
 11
-0.8000000000000079
 21
0
 31
0
 40
0.5773502691896254
 41
0.7853981633974608
 42
1.428899272190733
  0
LINE
  5
211
100
AcDbEntity
  8
Sichtbar (ISO)
  6
ByLayer
 62
  256
370
   -1
100
AcDbLine
 10
96.10560997936324
 20
192.4456107958685
 11
94.93888379040543
 21
193.1192204751339
  0
ELLIPSE
  5
212
100
AcDbEntity
  8
Sichtbar (ISO)
  6
ByLayer
 62
  256
370
   -1
100
AcDbEllipse
 10
95.04494980758341
 20
193.1804577187035
 30
0
 11
-0.1500000000000001
 21
0
 31
0
 40
0.5773502691896254
 41
3.926990816987212
 42
7.068583470577006
  0
LINE
  5
213
100
AcDbEntity
  8
Sichtbar (ISO)
  6
ByLayer
 62
  256
370
   -1
100
AcDbLine
 10
95.15101582476139
 20
193.2416949622731
 11
96.3177420137192
 21
192.5680852830077
  0
ELLIPSE
  5
214
100
AcDbEntity
  8
Sichtbar (ISO)
  6
ByLayer
 62
  256
370
   -1
100
AcDbEllipse
 10
96.67129540431245
 20
192.7722094282396
 30
0
 11
0.5000000000000127
 21
2.99e-014
 31
0
 40
0.5773502691896255
 41
3.92699081698697
 42
4.57049192578047
  0
LINE
  5
215
100
AcDbEntity
  8
Sichtbar (ISO)
  6
ByLayer
 62
  256
370
   -1
100
AcDbLine
 10
96.60058472619382
 20
192.486435624915
 11
94.47926438263417
 21
193.7111804963065
  0
LINE
  5
216
100
AcDbEntity
  8
Sichtbar (ISO)
  6
ByLayer
 62
  256
370
   -1
100
AcDbLine
 10
94.47926438263417
 20
193.3845818639355
 11
94.47926438263417
 21
193.7111804963065
  0
LINE
  5
217
100
AcDbEntity
  8
Sichtbar (ISO)
  6
ByLayer
 62
  256
370
   -1
100
AcDbLine
 10
94.47926438263417
 20
193.7111804963065
 11
94.19642167015957
 21
193.547881180121
  0
LINE
  5
218
100
AcDbEntity
  8
Sichtbar (ISO)
  6
ByLayer
 62
  256
370
   -1
100
AcDbLine
 10
94.19642167015957
 20
193.547881180121
 11
91.29728386729471
 21
195.2216991710228
  0
LINE
  5
219
100
AcDbEntity
  8
Sichtbar (ISO)
  6
ByLayer
 62
  256
370
   -1
100
AcDbLine
 10
91.29728386729471
 20
194.9977634966482
 11
91.29728386729471
 21
195.2216991710228
  0
LINE
  5
21A
100
AcDbEntity
  8
Sichtbar (ISO)
  6
ByLayer
 62
  256
370
   -1
100
AcDbLine
 10
91.29728386729471
 20
195.2216991710228
 11
91.08515183293873
 21
195.0992246838837
  0
ELLIPSE
  5
21B
100
AcDbEntity
  8
Sichtbar (ISO)
  6
ByLayer
 62
  256
370
   -1
100
AcDbEllipse
 10
90.66088776422683
 20
195.344173658162
 30
0
 11
-0.5999999999999962
 21
3.59e-014
 31
0
 40
0.5773502691896255
 41
5.497787143782351
 42
8.639379797372145
  0
LINE
  5
21C
100
AcDbEntity
  8
Sichtbar (ISO)
  6
ByLayer
 62
  256
370
   -1
100
AcDbLine
 10
90.23662369551487
 20
195.5891226324403
 11
90.44875572987084
 21
195.7115971195795
  0
LINE
  5
21D
100
AcDbEntity
  8
Sichtbar (ISO)
  6
ByLayer
 62
  256
370
   -1
100
AcDbLine
 10
90.44875572987084
 20
195.7115971195795
 11
90.09520233927756
 21
195.9157212648114
  0
ELLIPSE
  5
21E
100
AcDbEntity
  8
Sichtbar (ISO)
  6
ByLayer
 62
  256
370
   -1
100
AcDbEllipse
 10
89.81235962680296
 20
195.7524219486258
 30
0
 11
-0.4000000000000005
 21
-2.38e-014
 31
0
 40
0.5773502691896255
 41
3.926990816986959
 42
5.497787143781831
  0
LINE
  5
21F
100
AcDbEntity
  8
Sichtbar (ISO)
  6
ByLayer
 62
  256
370
   -1
100
AcDbLine
 10
84.43834808978519
 20
192.9763335734716
 11
89.52951691432835
 21
195.9157212648114
  0
LINE
  5
220
100
AcDbEntity
  8
Sichtbar (ISO)
  6
ByLayer
 62
  256
370
   -1
100
AcDbLine
 10
99.02693032292289
 20
190.7589857091252
 11
99.02693032292289
 21
191.7924135311264
  0
LINE
  5
221
100
AcDbEntity
  8
Sichtbar (ISO)
  6
ByLayer
 62
  256
370
   -1
100
AcDbLine
 10
94.89494980758342
 20
193.1445857719428
 11
94.89494980758342
 21
193.1804577187035
  0
LINE
  5
222
100
AcDbEntity
  8
Sichtbar (ISO)
  6
ByLayer
 62
  256
370
   -1
100
AcDbLine
 10
90.06088776422682
 20
194.6315418059917
 11
90.06088776422682
 21
195.344173658162
  0
LINE
  5
223
100
AcDbEntity
  8
Sichtbar (ISO)
  6
ByLayer
 62
  256
370
   -1
100
AcDbLine
 10
74.21961433763306
 20
174.0546261958509
 11
74.21961433763306
 21
121.7988450164764
  0
LINE
  5
224
100
AcDbEntity
  8
Sichtbar (ISO)
  6
ByLayer
 62
  256
370
   -1
100
AcDbLine
 10
74.21961433763306
 20
174.0546261958509
 11
79.71616554909039
 21
177.2280615174003
  0
LINE
  5
225
100
AcDbEntity
  8
Sichtbar (ISO)
  6
ByLayer
 62
  256
370
   -1
100
AcDbLine
 10
79.24007248405756
 20
171.1560633335575
 11
74.21961433763306
 21
174.0546261958509
  0
LINE
  5
226
100
AcDbEntity
  8
Sichtbar (ISO)
  6
ByLayer
 62
  256
370
   -1
100
AcDbLine
 10
74.21961433763306
 20
121.7988450164764
 11
79.24007248405756
 21
118.9002821541829
  0
LINE
  5
227
100
AcDbEntity
  8
Sichtbar (ISO)
  6
ByLayer
 62
  256
370
   -1
100
AcDbLine
 10
79.24007248405756
 20
171.1560633335575
 11
79.91578271605854
 21
171.5461848178975
  0
LINE
  5
228
100
AcDbEntity
  8
Sichtbar (ISO)
  6
ByLayer
 62
  256
370
   -1
100
AcDbLine
 10
79.91578271605854
 20
156.0735746093171
 11
79.24007248405756
 21
155.683453124977
  0
LINE
  5
229
100
AcDbEntity
  8
Sichtbar (ISO)
  6
ByLayer
 62
  256
370
   -1
100
AcDbLine
 10
79.91578271605854
 20
171.5461848178975
 11
79.91578271605856
 21
156.0735746093171
  0
LINE
  5
22A
100
AcDbEntity
  8
Sichtbar (ISO)
  6
ByLayer
 62
  256
370
   -1
100
AcDbLine
 10
79.24007248405756
 20
155.683453124977
 11
79.24007248405756
 21
171.1560633335575
  0
ELLIPSE
  5
22B
100
AcDbEntity
  8
Sichtbar (ISO)
  6
ByLayer
 62
  256
370
   -1
100
AcDbEllipse
 10
95.43281777322944
 20
170.78863987214
 30
0
 11
-15.57241150239742
 21
5e-016
 31
0
 40
0.5773502691896254
 41
5.85867341205967
 42
6.198826898039792
  0
ELLIPSE
  5
22C
100
AcDbEntity
  8
Sichtbar (ISO)
  6
ByLayer
 62
  256
370
   -1
100
AcDbEllipse
 10
95.43281777322935
 20
155.3160296635596
 30
0
 11
-15.5724115023973
 21
3e-016
 31
0
 40
0.5773502691896254
 41
5.858673412059672
 42
6.198826898039794
  0
LINE
  5
22D
100
AcDbEntity
  8
Sichtbar (ISO)
  6
ByLayer
 62
  256
370
   -1
100
AcDbLine
 10
87.65464318017742
 20
150.8252984684571
 11
79.24007248405756
 21
155.683453124977
  0
LINE
  5
22E
100
AcDbEntity
  8
Sichtbar (ISO)
  6
ByLayer
 62
  256
370
   -1
100
AcDbLine
 10
87.65464318017742
 20
129.5147377062434
 11
79.24007248405756
 21
134.3728923627634
  0
LINE
  5
22F
100
AcDbEntity
  8
Sichtbar (ISO)
  6
ByLayer
 62
  256
370
   -1
100
AcDbLine
 10
84.70167856813077
 20
138.0373790706625
 11
87.65464318017742
 21
136.3324841569899
  0
LINE
  5
230
100
AcDbEntity
  8
Sichtbar (ISO)
  6
ByLayer
 62
  256
370
   -1
100
AcDbLine
 10
87.65464318017742
 20
144.0075520177105
 11
84.70167856813077
 21
145.7124469313831
  0
ELLIPSE
  5
231
100
AcDbEntity
  8
Sichtbar (ISO)
  6
ByLayer
 62
  256
370
   -1
100
AcDbEllipse
 10
95.43281777322954
 20
155.3160296635596
 30
0
 11
11.00000000000011
 21
6.575e-013
 31
0
 40
0.5773502691896257
 41
3.926990816987
 42
4.285663335722521
  0
ELLIPSE
  5
232
100
AcDbEntity
  8
Sichtbar (ISO)
  6
ByLayer
 62
  256
370
   -1
100
AcDbEllipse
 10
95.43281777322949
 20
148.4982832128131
 30
0
 11
-11.00000000000003
 21
-2e-016
 31
0
 40
0.577350269189626
 41
0.7853981633974457
 42
1.609375356670231
  0
ELLIPSE
  5
233
100
AcDbEntity
  8
Sichtbar (ISO)
  6
ByLayer
 62
  256
370
   -1
100
AcDbEllipse
 10
95.43281777322949
 20
134.0054689013459
 30
0
 11
-11.00000000000003
 21
1e-016
 31
0
 40
0.5773502691896254
 41
0.7853981633974457
 42
1.609375356670232
  0
ELLIPSE
  5
234
100
AcDbEntity
  8
Sichtbar (ISO)
  6
ByLayer
 62
  256
370
   -1
100
AcDbEllipse
 10
95.43281777322949
 20
140.8232153520924
 30
0
 11
11.00000000000003
 21
6.555e-013
 31
0
 40
0.5773502691896253
 41
3.926990816986998
 42
4.75096801025992
  0
LINE
  5
235
100
AcDbEntity
  8
Sichtbar (ISO)
  6
ByLayer
 62
  256
370
   -1
100
AcDbLine
 10
79.24007248405756
 20
118.9002821541829
 11
79.24007248405756
 21
134.3728923627634
  0
LINE
  5
236
100
AcDbEntity
  8
Sichtbar (ISO)
  6
ByLayer
 62
  256
370
   -1
100
AcDbLine
 10
79.91578271605854
 20
119.290403638523
 11
79.24007248405756
 21
118.9002821541829
  0
LINE
  5
237
100
AcDbEntity
  8
Sichtbar (ISO)
  6
ByLayer
 62
  256
370
   -1
100
AcDbLine
 10
79.91578271605854
 20
133.9827708784234
 11
79.91578271605854
 21
119.290403638523
  0
LINE
  5
238
100
AcDbEntity
  8
Sichtbar (ISO)
  6
ByLayer
 62
  256
370
   -1
100
AcDbLine
 10
84.70167856813077
 20
145.7124469313831
 11
84.70167856813077
 21
138.0373790706625
  0
LINE
  5
239
100
AcDbEntity
  8
Sichtbar (ISO)
  6
ByLayer
 62
  256
370
   -1
100
AcDbLine
 10
84.95989468528101
 20
138.1864602154083
 11
84.70167856813077
 21
138.0373790706625
  0
ELLIPSE
  5
23A
100
AcDbEntity
  8
Sichtbar (ISO)
  6
ByLayer
 62
  256
370
   -1
100
AcDbEllipse
 10
84.8184733290437
 20
138.268109873501
 30
0
 11
0.2000000000000072
 21
0
 31
0
 40
0.5773502691896254
 41
5.497787143782209
 42
6.283185307179586
  0
LINE
  5
23B
100
AcDbEntity
  8
Sichtbar (ISO)
  6
ByLayer
 62
  256
370
   -1
100
AcDbLine
 10
85.0184733290437
 20
145.5295453908922
 11
85.0184733290437
 21
138.268109873501
  0
ELLIPSE
  5
23C
100
AcDbEntity
  8
Sichtbar (ISO)
  6
ByLayer
 62
  256
370
   -1
100
AcDbEllipse
 10
95.43281777322959
 20
118.5328586927655
 30
0
 11
-15.57241150239753
 21
4e-015
 31
0
 40
0.5773502691896254
 41
5.858673412059673
 42
6.198826898039794
  0
LINE
  5
23D
100
AcDbEntity
  8
Sichtbar (ISO)
  6
ByLayer
 62
  256
370
   -1
100
AcDbLine
 10
82.02327379139479
 20
173.2528433061134
 11
82.35134232127936
 21
173.442253760155
  0
LINE
  5
23E
100
AcDbEntity
  8
Sichtbar (ISO)
  6
ByLayer
 62
  256
370
   -1
100
AcDbLine
 10
129.3739432701811
 20
89.95547836029726
 11
133.2630305667068
 21
92.20084395784832
  0
LINE
  5
23F
100
AcDbEntity
  8
Sichtbar (ISO)
  6
ByLayer
 62
  256
370
   -1
100
AcDbLine
 10
81.44848633826709
 20
117.6252538209736
 11
129.3739432701811
 21
89.95547836029726
  0
ELLIPSE
  5
240
100
AcDbEntity
  8
Sichtbar (ISO)
  6
ByLayer
 62
  256
370
   -1
100
AcDbEllipse
 10
95.43281777322989
 20
118.5328586927655
 30
0
 11
-14.07241150239681
 21
-1.27e-014
 31
0
 40
0.5773502691896248
 41
1.49e-014
 42
0.1119428442498185
  0
ELLIPSE
  5
241
100
AcDbEntity
  8
Sichtbar (ISO)
  6
ByLayer
 62
  256
370
   -1
100
AcDbEllipse
 10
95.43281777322952
 20
170.78863987214
 30
0
 11
-14.07241150239642
 21
-3.73e-014
 31
0
 40
0.577350269189625
 41
5.975034171360552
 42
6.395128151429387
  0
LINE
  5
242
100
AcDbEntity
  8
Sichtbar (ISO)
  6
ByLayer
 62
  256
370
   -1
100
AcDbLine
 10
81.44848633826709
 20
169.8810350003482
 11
81.44848633826709
 21
154.9799723984172
  0
LINE
  5
243
100
AcDbEntity
  8
Sichtbar (ISO)
  6
ByLayer
 62
  256
370
   -1
100
AcDbLine
 10
81.44848633826709
 20
132.5263164229046
 11
81.44848633826709
 21
117.6252538209736
  0
LINE
  5
244
100
AcDbEntity
  8
Sichtbar (ISO)
  6
ByLayer
 62
  256
370
   -1
100
AcDbLine
 10
81.36040627083307
 20
170.78863987214
 11
81.36040627083307
 21
155.887577270209
  0
LINE
  5
245
100
AcDbEntity
  8
Sichtbar (ISO)
  6
ByLayer
 62
  256
370
   -1
100
AcDbLine
 10
81.36040627083307
 20
133.1487170801973
 11
81.36040627083307
 21
118.5328586927655
  0
LINE
  5
246
100
AcDbEntity
  8
Sichtbar (ISO)
  6
ByLayer
 62
  256
370
   -1
100
AcDbLine
 10
96.13992455441596
 20
146.4978665895408
 11
96.13992455441596
 21
124.0442106140283
  0
ELLIPSE
  5
247
100
AcDbEntity
  8
Sichtbar (ISO)
  6
ByLayer
 62
  256
370
   -1
100
AcDbEllipse
 10
95.43281777322944
 20
133.4339212946965
 30
0
 11
-14.07241150239635
 21
-3.75e-014
 31
0
 40
0.577350269189625
 41
0.0357498811326105
 42
0.1119428442498025
  0
LINE
  5
248
100
AcDbEntity
  8
Sichtbar (ISO)
  6
ByLayer
 62
  256
370
   -1
100
AcDbLine
 10
96.13992455441596
 20
124.0442106140283
 11
81.44848633826709
 21
132.5263164229046
  0
ELLIPSE
  5
249
100
AcDbEntity
  8
Sichtbar (ISO)
  6
ByLayer
 62
  256
370
   -1
100
AcDbEllipse
 10
92.53220619129849
 20
165.5230878118973
 30
0
 11
-2.999999999999762
 21
-1.872e-013
 31
0
 40
0.577350269189625
 41
3.926990816986998
 42
4.338128679309447
  0
ELLIPSE
  5
24A
100
AcDbEntity
  8
Sichtbar (ISO)
  6
ByLayer
 62
  256
370
   -1
100
AcDbEllipse
 10
94.72571099204301
 20
168.7473984198209
 30
0
 11
-2.999999999999775
 21
-7.7e-015
 31
0
 40
0.577350269189625
 41
0.7853981633974439
 42
1.196536025719795
  0
LINE
  5
24B
100
AcDbEntity
  8
Sichtbar (ISO)
  6
ByLayer
 62
  256
370
   -1
100
AcDbLine
 10
92.60439064848354
 20
167.5226535484294
 11
82.35134232127936
 21
173.442253760155
  0
LINE
  5
24C
100
AcDbEntity
  8
Sichtbar (ISO)
  6
ByLayer
 62
  256
370
   -1
100
AcDbLine
 10
81.44848633826707
 20
154.9799723984172
 11
96.13992455441596
 21
146.4978665895408
  0
ELLIPSE
  5
24D
100
AcDbEntity
  8
Sichtbar (ISO)
  6
ByLayer
 62
  256
370
   -1
100
AcDbEllipse
 10
95.43281777323016
 20
155.887577270209
 30
0
 11
-14.07241150239705
 21
-3.66e-014
 31
0
 40
0.577350269189625
 41
1.1e-015
 42
0.1119428442498001
  0
ELLIPSE
  5
24E
100
AcDbEntity
  8
Sichtbar (ISO)
  6
ByLayer
 62
  256
370
   -1
100
AcDbEllipse
 10
95.43281777322949
 20
148.3349838966275
 30
0
 11
-10.92499999999986
 21
-3.1e-015
 31
0
 40
0.5773502691896257
 41
0.6339813019602865
 42
1.60964033409841
  0
ELLIPSE
  5
24F
100
AcDbEntity
  8
Sichtbar (ISO)
  6
ByLayer
 62
  256
370
   -1
100
AcDbEllipse
 10
95.43281777322952
 20
140.986514668278
 30
0
 11
-10.9999999999999
 21
-3.7e-015
 31
0
 40
0.5773502691896255
 41
0.3277824892244476
 42
1.609375356670231
  0
LINE
  5
250
100
AcDbEntity
  8
Sichtbar (ISO)
  6
ByLayer
 62
  256
370
   -1
100
AcDbLine
 10
95.85708184194114
 20
146.6611659057258
 11
95.85708184194117
 21
124.6974078787705
  0
LINE
  5
251
100
AcDbEntity
  8
Sichtbar (ISO)
  6
ByLayer
 62
  256
370
   -1
100
AcDbLine
 10
96.13992455441606
 20
124.5341085625847
 11
95.85708184194118
 21
124.6974078787705
  0
LINE
  5
252
100
AcDbEntity
  8
Sichtbar (ISO)
  6
ByLayer
 62
  256
370
   -1
100
AcDbLine
 10
79.02794044970159
 20
176.879167683456
 11
79.02794044970159
 21
176.8307145710051
  0
LINE
  5
253
100
AcDbEntity
  8
Sichtbar (ISO)
  6
ByLayer
 62
  256
370
   -1
100
AcDbLine
 10
74.21961433763306
 20
174.0546261958509
 11
79.02794044970159
 21
176.879167683456
  0
LINE
  5
254
100
AcDbEntity
  8
Sichtbar (ISO)
  6
ByLayer
 62
  256
370
   -1
100
AcDbLine
 10
74.21961433763309
 20
121.8957512413781
 11
74.21961433763308
 21
174.0546261958509
  0
LINE
  5
255
100
AcDbEntity
  8
Sichtbar (ISO)
  6
ByLayer
 62
  256
370
   -1
100
AcDbLine
 10
17.65107184270923
 20
154.5556144784872
 11
74.21961433763308
 21
121.8957512413781
  0
LINE
  5
256
100
AcDbEntity
  8
Sichtbar (ISO)
  6
ByLayer
 62
  256
370
   -1
100
AcDbLine
 10
22.4174363285029
 20
209.5632574767906
 11
79.0279404497016
 21
176.879167683456
  0
LINE
  5
257
100
AcDbEntity
  8
Sichtbar (ISO)
  6
ByLayer
 62
  256
370
   -1
100
AcDbLine
 10
74.21961433763306
 20
174.0546261958509
 11
17.65107184270926
 21
206.71448943296
  0
LINE
  5
258
100
AcDbEntity
  8
Sichtbar (ISO)
  6
ByLayer
 62
  256
370
   -1
100
AcDbLine
 10
17.65107184270927
 20
206.71448943296
 11
17.65107184270923
 21
154.5556144784872
  0
LINE
  5
259
100
AcDbEntity
  8
Sichtbar (ISO)
  6
ByLayer
 62
  256
370
   -1
100
AcDbLine
 10
17.65107184270927
 20
206.71448943296
 11
22.4174363285029
 21
209.5632574767906
  0
LINE
  5
25A
100
AcDbEntity
  8
Sichtbar (ISO)
  6
ByLayer
 62
  256
370
   -1
100
AcDbLine
 10
282.1850209310786
 20
154.0418470063499
 11
282.1850209310786
 21
102.8418470063499
  0
LINE
  5
25B
100
AcDbEntity
  8
Sichtbar (ISO)
  6
ByLayer
 62
  256
370
   -1
100
AcDbLine
 10
287.8650209310787
 20
154.0418470063499
 11
282.1850209310786
 21
154.0418470063499
  0
LINE
  5
25C
100
AcDbEntity
  8
Sichtbar (ISO)
  6
ByLayer
 62
  256
370
   -1
100
AcDbLine
 10
282.1850209310786
 20
102.8418470063499
 11
287.8650209310786
 21
102.8418470063499
  0
LINE
  5
25D
100
AcDbEntity
  8
Sichtbar (ISO)
  6
ByLayer
 62
  256
370
   -1
100
AcDbLine
 10
306.1850209310786
 20
134.5973042891265
 11
306.1850209310786
 21
132.2018470063499
  0
LINE
  5
25E
100
AcDbEntity
  8
Sichtbar (ISO)
  6
ByLayer
 62
  256
370
   -1
100
AcDbLine
 10
306.1850209310786
 20
124.6818470063499
 11
306.1850209310786
 21
122.2863897235706
  0
LINE
  5
25F
100
AcDbEntity
  8
Sichtbar (ISO)
  6
ByLayer
 62
  256
370
   -1
100
AcDbLine
 10
287.8650209310787
 20
138.8818470063499
 11
287.8650209310787
 21
154.0418470063499
  0
LINE
  5
260
100
AcDbEntity
  8
Sichtbar (ISO)
  6
ByLayer
 62
  256
370
   -1
100
AcDbLine
 10
297.3850209310786
 20
138.8818470063499
 11
287.8650209310787
 21
138.8818470063499
  0
LINE
  5
261
100
AcDbEntity
  8
Sichtbar (ISO)
  6
ByLayer
 62
  256
370
   -1
100
AcDbLine
 10
297.3850209310786
 20
118.0018470063499
 11
287.8650209310787
 21
118.0018470063499
  0
LINE
  5
262
100
AcDbEntity
  8
Sichtbar (ISO)
  6
ByLayer
 62
  256
370
   -1
100
AcDbLine
 10
294.0441228482273
 20
124.6818470063499
 11
297.3850209310786
 21
124.6818470063499
  0
LINE
  5
263
100
AcDbEntity
  8
Sichtbar (ISO)
  6
ByLayer
 62
  256
370
   -1
100
AcDbLine
 10
297.3850209310786
 20
132.2018470063499
 11
294.0441228482273
 21
132.2018470063499
  0
LINE
  5
264
100
AcDbEntity
  8
Sichtbar (ISO)
  6
ByLayer
 62
  256
370
   -1
100
AcDbLine
 10
306.1850209310786
 20
138.88184700635
 11
297.3850209310786
 21
138.88184700635
  0
LINE
  5
265
100
AcDbEntity
  8
Sichtbar (ISO)
  6
ByLayer
 62
  256
370
   -1
100
AcDbLine
 10
297.3850209310786
 20
132.2018470063499
 11
306.1850209310786
 21
132.2018470063499
  0
LINE
  5
266
100
AcDbEntity
  8
Sichtbar (ISO)
  6
ByLayer
 62
  256
370
   -1
100
AcDbLine
 10
297.3850209310786
 20
118.0018470063499
 11
306.1850209310786
 21
118.0018470063499
  0
LINE
  5
267
100
AcDbEntity
  8
Sichtbar (ISO)
  6
ByLayer
 62
  256
370
   -1
100
AcDbLine
 10
306.1850209310786
 20
124.6818470063499
 11
297.3850209310786
 21
124.6818470063499
  0
LINE
  5
268
100
AcDbEntity
  8
Sichtbar (ISO)
  6
ByLayer
 62
  256
370
   -1
100
AcDbLine
 10
287.8650209310786
 20
102.8418470063499
 11
287.8650209310787
 21
118.0018470063499
  0
LINE
  5
269
100
AcDbEntity
  8
Sichtbar (ISO)
  6
ByLayer
 62
  256
370
   -1
100
AcDbLine
 10
294.0441228482273
 20
132.2018470063499
 11
294.0441228482273
 21
124.6818470063499
  0
LINE
  5
26A
100
AcDbEntity
  8
Sichtbar (ISO)
  6
ByLayer
 62
  256
370
   -1
100
AcDbLine
 10
306.9850209310779
 20
139.44184700635
 11
306.9850209310779
 21
117.4418470063499
  0
LINE
  5
26B
100
AcDbEntity
  8
Sichtbar (ISO)
  6
ByLayer
 62
  256
370
   -1
100
AcDbLine
 10
287.8650209310793
 20
117.4418470063499
 11
290.3635559902426
 21
117.4418470063499
  0
LINE
  5
26C
100
AcDbEntity
  8
Sichtbar (ISO)
  6
ByLayer
 62
  256
370
   -1
100
AcDbLine
 10
306.9850209310779
 20
117.4418470063499
 11
290.3635559902426
 21
117.4418470063499
  0
LINE
  5
26D
100
AcDbEntity
  8
Sichtbar (ISO)
  6
ByLayer
 62
  256
370
   -1
100
AcDbLine
 10
290.3635559902426
 20
102.8418470063499
 11
344.585020931075
 21
102.8418470063499
  0
LINE
  5
26E
100
AcDbEntity
  8
Sichtbar (ISO)
  6
ByLayer
 62
  256
370
   -1
100
AcDbLine
 10
290.3635559902426
 20
102.8418470063499
 11
287.8650209310793
 21
102.8418470063499
  0
LINE
  5
26F
100
AcDbEntity
  8
Sichtbar (ISO)
  6
ByLayer
 62
  256
370
   -1
100
AcDbLine
 10
344.585020931075
 20
154.0418470063499
 11
344.585020931075
 21
102.8418470063499
  0
LINE
  5
270
100
AcDbEntity
  8
Sichtbar (ISO)
  6
ByLayer
 62
  256
370
   -1
100
AcDbLine
 10
287.8650209310793
 20
154.04184700635
 11
290.3635559902426
 21
154.04184700635
  0
LINE
  5
271
100
AcDbEntity
  8
Sichtbar (ISO)
  6
ByLayer
 62
  256
370
   -1
100
AcDbLine
 10
344.585020931075
 20
154.0418470063499
 11
290.3635559902426
 21
154.04184700635
  0
LINE
  5
272
100
AcDbEntity
  8
Sichtbar (ISO)
  6
ByLayer
 62
  256
370
   -1
100
AcDbLine
 10
290.3635559902426
 20
154.04184700635
 11
290.3635559902426
 21
139.44184700635
  0
LINE
  5
273
100
AcDbEntity
  8
Sichtbar (ISO)
  6
ByLayer
 62
  256
370
   -1
100
AcDbLine
 10
290.3635559902426
 20
117.4418470063499
 11
290.3635559902426
 21
102.8418470063499
  0
LINE
  5
274
100
AcDbEntity
  8
Sichtbar (ISO)
  6
ByLayer
 62
  256
370
   -1
100
AcDbLine
 10
290.3635559902426
 20
139.44184700635
 11
306.9850209310778
 21
139.44184700635
  0
LINE
  5
275
100
AcDbEntity
  8
Sichtbar (ISO)
  6
ByLayer
 62
  256
370
   -1
100
AcDbLine
 10
290.3635559902426
 20
139.44184700635
 11
287.8650209310793
 21
139.44184700635
  0
LINE
  5
276
100
AcDbEntity
  8
Sichtbar (ISO)
  6
ByLayer
 62
  256
370
   -1
100
AcDbLine
 10
294.0441228482273
 20
132.0418470063499
 11
305.471132936444
 21
132.0418470063499
  0
LINE
  5
277
100
AcDbEntity
  8
Sichtbar (ISO)
  6
ByLayer
 62
  256
370
   -1
100
AcDbLine
 10
305.5266440028424
 20
124.8418470063499
 11
294.0441228482273
 21
124.8418470063499
  0
LINE
  5
278
100
AcDbEntity
  8
Sichtbar (ISO)
  6
ByLayer
 62
  256
370
   -1
100
AcDbLine
 10
305.4711329364439
 20
132.0418470063499
 11
305.4965702268531
 21
132.0418470063499
  0
LINE
  5
279
100
AcDbEntity
  8
Sichtbar (ISO)
  6
ByLayer
 62
  256
370
   -1
100
AcDbLine
 10
305.5565702268531
 20
124.8418470063499
 11
305.5266440028424
 21
124.8418470063499
  0
LINE
  5
27A
100
AcDbEntity
  8
Sichtbar (ISO)
  6
ByLayer
 62
  256
370
   -1
100
AcDbLine
 10
305.4965702268531
 20
132.0418470063499
 11
305.5565702268531
 21
124.8418470063499
  0
LINE
  5
27B
100
AcDbEntity
  8
Sichtbar (ISO)
  6
ByLayer
 62
  256
370
   -1
100
AcDbLine
 10
303.3850209310787
 20
117.8418470063499
 11
291.3850209310785
 21
117.8418470063499
  0
LINE
  5
27C
100
AcDbEntity
  8
Sichtbar (ISO)
  6
ByLayer
 62
  256
370
   -1
100
AcDbLine
 10
291.3850209310785
 20
117.4418470063499
 11
291.3850209310785
 21
117.8418470063499
  0
LINE
  5
27D
100
AcDbEntity
  8
Sichtbar (ISO)
  6
ByLayer
 62
  256
370
   -1
100
AcDbLine
 10
303.3850209310787
 20
117.4418470063499
 11
303.3850209310787
 21
117.8418470063499
  0
LINE
  5
27E
100
AcDbEntity
  8
Sichtbar (ISO)
  6
ByLayer
 62
  256
370
   -1
100
AcDbLine
 10
294.1850209310785
 20
132.041847006351
 11
294.1850209310785
 21
132.201847006351
  0
LINE
  5
27F
100
AcDbEntity
  8
Sichtbar (ISO)
  6
ByLayer
 62
  256
370
   -1
100
AcDbLine
 10
294.1850209310785
 20
138.8818470063529
 11
294.1850209310785
 21
139.041847006353
  0
LINE
  5
280
100
AcDbEntity
  8
Sichtbar (ISO)
  6
ByLayer
 62
  256
370
   -1
100
AcDbLine
 10
300.5850209310787
 20
132.041847006351
 11
300.5850209310787
 21
132.201847006351
  0
LINE
  5
281
100
AcDbEntity
  8
Sichtbar (ISO)
  6
ByLayer
 62
  256
370
   -1
100
AcDbLine
 10
300.5850209310787
 20
138.8818470063529
 11
300.5850209310787
 21
139.041847006353
  0
LINE
  5
282
100
AcDbEntity
  8
Sichtbar (ISO)
  6
ByLayer
 62
  256
370
   -1
100
AcDbLine
 10
293.7850209310785
 20
117.8418470063469
 11
293.7850209310785
 21
118.0018470063469
  0
LINE
  5
283
100
AcDbEntity
  8
Sichtbar (ISO)
  6
ByLayer
 62
  256
370
   -1
100
AcDbLine
 10
300.9850209310787
 20
117.8418470063469
 11
300.9850209310787
 21
118.0018470063469
  0
LINE
  5
284
100
AcDbEntity
  8
Sichtbar (ISO)
  6
ByLayer
 62
  256
370
   -1
100
AcDbLine
 10
300.9850209310787
 20
124.6818470063488
 11
300.9850209310787
 21
124.8418470063535
  0
LINE
  5
285
100
AcDbEntity
  8
Sichtbar (ISO)
  6
ByLayer
 62
  256
370
   -1
100
AcDbLine
 10
305.4985702268528
 20
131.8018470063497
 11
306.1895192258281
 21
131.8018470063497
  0
LINE
  5
286
100
AcDbEntity
  8
Sichtbar (ISO)
  6
ByLayer
 62
  256
370
   -1
100
AcDbLine
 10
306.1895192258281
 20
131.4818470063497
 11
305.5012368935195
 21
131.4818470063497
  0
LINE
  5
287
100
AcDbEntity
  8
Sichtbar (ISO)
  6
ByLayer
 62
  256
370
   -1
100
AcDbLine
 10
305.5519035601863
 20
125.4018470063498
 11
306.1895192258282
 21
125.4018470063498
  0
LINE
  5
288
100
AcDbEntity
  8
Sichtbar (ISO)
  6
ByLayer
 62
  256
370
   -1
100
AcDbLine
 10
306.1895192258281
 20
125.0818470063498
 11
305.5545702268529
 21
125.0818470063498
  0
ELLIPSE
  5
289
100
AcDbEntity
  8
Sichtbar (ISO)
  6
ByLayer
 62
  256
370
   -1
100
AcDbEllipse
 10
306.1007129364756
 20
123.6418470063499
 30
0
 11
-9.900000000000001e-015
 21
4.313592873117354
 31
0
 40
0.0205875454557655
 41
4.392744253211351
 42
4.712388980384689
  0
LINE
  5
28A
100
AcDbEntity
  8
Sichtbar (ISO)
  6
ByLayer
 62
  256
370
   -1
100
AcDbLine
 10
306.1850209310778
 20
122.2863897234508
 11
306.1850209310778
 21
117.5218470063499
  0
LINE
  5
28B
100
AcDbEntity
  8
Sichtbar (ISO)
  6
ByLayer
 62
  256
370
   -1
100
AcDbLine
 10
306.2650209310779
 20
117.5218470063499
 11
306.1850209310778
 21
117.5218470063499
  0
LINE
  5
28C
100
AcDbEntity
  8
Sichtbar (ISO)
  6
ByLayer
 62
  256
370
   -1
100
AcDbLine
 10
306.2650209310778
 20
139.36184700635
 11
306.2650209310779
 21
117.5218470063499
  0
LINE
  5
28D
100
AcDbEntity
  8
Sichtbar (ISO)
  6
ByLayer
 62
  256
370
   -1
100
AcDbLine
 10
306.1850209310778
 20
139.36184700635
 11
306.2650209310778
 21
139.36184700635
  0
LINE
  5
28E
100
AcDbEntity
  8
Sichtbar (ISO)
  6
ByLayer
 62
  256
370
   -1
100
AcDbLine
 10
306.1850209310778
 20
139.36184700635
 11
306.1850209310778
 21
134.5973042892491
  0
ELLIPSE
  5
28F
100
AcDbEntity
  8
Sichtbar (ISO)
  6
ByLayer
 62
  256
370
   -1
100
AcDbEllipse
 10
306.1007129364756
 20
133.2418470063499
 30
0
 11
-1.01e-014
 21
4.313592873117355
 31
0
 40
0.0205875454557655
 41
4.712388980384689
 42
5.032033707557879
  0
LINE
  5
290
100
AcDbEntity
  8
Sichtbar (ISO)
  6
ByLayer
 62
  256
370
   -1
100
AcDbLine
 10
306.1895192258286
 20
123.6418470063499
 11
306.1895192258286
 21
133.24184700635
  0
LINE
  5
291
100
AcDbEntity
  8
Sichtbar (ISO)
  6
ByLayer
 62
  256
370
   -1
100
AcDbLine
 10
306.7450209310779
 20
117.5218470063499
 11
306.9850209310787
 21
117.5218470063499
  0
ARC
  5
292
100
AcDbEntity
  8
Sichtbar (ISO)
  6
ByLayer
 62
  256
370
   -1
100
AcDbCircle
 10
306.7450209310779
 20
117.7618470063499
 40
0.2399999999999979
100
AcDbArc
 50
270
 51
0
  0
ARC
  5
293
100
AcDbEntity
  8
Sichtbar (ISO)
  6
ByLayer
 62
  256
370
   -1
100
AcDbCircle
 10
306.7450209310779
 20
139.1218470063499
 40
0.2399999999999979
100
AcDbArc
 50
0
 51
90
  0
LINE
  5
294
100
AcDbEntity
  8
Sichtbar (ISO)
  6
ByLayer
 62
  256
370
   -1
100
AcDbLine
 10
306.9850209310787
 20
139.3618470063499
 11
306.7450209310779
 21
139.3618470063499
  0
LINE
  5
295
100
AcDbEntity
  8
Sichtbar (ISO)
  6
ByLayer
 62
  256
370
   -1
100
AcDbLine
 10
306.7450209310779
 20
117.5218470063499
 11
306.2650209310779
 21
117.5218470063499
  0
LINE
  5
296
100
AcDbEntity
  8
Sichtbar (ISO)
  6
ByLayer
 62
  256
370
   -1
100
AcDbLine
 10
306.7450209310779
 20
139.36184700635
 11
306.2650209310778
 21
139.36184700635
  0
LINE
  5
297
100
AcDbEntity
  8
Sichtbar (ISO)
  6
ByLayer
 62
  256
370
   -1
100
AcDbLine
 10
303.3850209310786
 20
139.0418470063499
 11
291.3850209310786
 21
139.0418470063499
  0
LINE
  5
298
100
AcDbEntity
  8
Sichtbar (ISO)
  6
ByLayer
 62
  256
370
   -1
100
AcDbLine
 10
291.3850209310786
 20
139.0418470063499
 11
291.3850209310786
 21
139.44184700635
  0
LINE
  5
299
100
AcDbEntity
  8
Sichtbar (ISO)
  6
ByLayer
 62
  256
370
   -1
100
AcDbLine
 10
303.3850209310786
 20
139.0418470063499
 11
303.3850209310786
 21
139.44184700635
  0
LINE
  5
29A
100
AcDbEntity
  8
Sichtbar (ISO)
  6
ByLayer
 62
  256
370
   -1
100
AcDbLine
 10
282.1850209310786
 20
154.0418470063499
 11
282.1850209310786
 21
154.0893211671317
  0
LINE
  5
29B
100
AcDbEntity
  8
Sichtbar (ISO)
  6
ByLayer
 62
  256
370
   -1
100
AcDbLine
 10
282.1850209310786
 20
102.9367953279134
 11
282.1850209310786
 21
154.0418470063499
  0
LINE
  5
29C
100
AcDbEntity
  8
Sichtbar (ISO)
  6
ByLayer
 62
  256
370
   -1
100
AcDbLine
 10
218.1850209310785
 20
102.9367953279134
 11
282.1850209310786
 21
102.9367953279134
  0
LINE
  5
29D
100
AcDbEntity
  8
Sichtbar (ISO)
  6
ByLayer
 62
  256
370
   -1
100
AcDbLine
 10
218.1850209310785
 20
102.9367953279134
 11
218.1375467702968
 21
102.8893211671317
  0
LINE
  5
29E
100
AcDbEntity
  8
Sichtbar (ISO)
  6
ByLayer
 62
  256
370
   -1
100
AcDbLine
 10
282.1850209310786
 20
102.8893211671316
 11
218.1375467702968
 21
102.8893211671317
  0
LINE
  5
29F
100
AcDbEntity
  8
Sichtbar (ISO)
  6
ByLayer
 62
  256
370
   -1
100
AcDbLine
 10
218.1375467702968
 20
102.8893211671317
 11
218.1375467702968
 21
154.0893211671317
  0
LINE
  5
2A0
100
AcDbEntity
  8
Sichtbar (ISO)
  6
ByLayer
 62
  256
370
   -1
100
AcDbLine
 10
218.1375467702968
 20
154.0893211671317
 11
282.1850209310786
 21
154.0893211671317
  0
LINE
  5
2A1
100
AcDbEntity
  8
Sichtbar (ISO)
  6
ByLayer
 62
  256
370
   -1
100
AcDbLine
 10
282.1850209310786
 20
154.0418470063499
 11
218.1850209310786
 21
154.04184700635
  0
LINE
  5
2A2
100
AcDbEntity
  8
Sichtbar (ISO)
  6
ByLayer
 62
  256
370
   -1
100
AcDbLine
 10
218.1850209310786
 20
154.04184700635
 11
218.1850209310785
 21
102.9367953279134
  0
LINE
  5
2A3
100
AcDbEntity
  8
Sichtbar (ISO)
  6
ByLayer
 62
  256
370
   -1
100
AcDbLine
 10
218.1850209310786
 20
154.04184700635
 11
218.1375467702968
 21
154.0893211671317
  0
LINE
  5
2A4
100
AcDbEntity
  8
Sichtbar (ISO)
  6
ByLayer
 62
  256
370
   -1
100
AcDbLine
 10
212.5470549780731
 20
288.6898677532477
 11
212.5470549780732
 21
304.6898677532476
  0
LINE
  5
2A5
100
AcDbEntity
  8
Sichtbar (ISO)
  6
ByLayer
 62
  256
370
   -1
100
AcDbLine
 10
212.5470549780732
 20
304.6898677532476
 11
212.5470549780731
 21
288.6898677532477
  0
LINE
  5
2A6
100
AcDbEntity
  8
Sichtbar (ISO)
  6
ByLayer
 62
  256
370
   -1
100
AcDbLine
 10
284.5470549780731
 20
304.6898677532476
 11
284.5470549780731
 21
300.8498677532476
  0
LINE
  5
2A7
100
AcDbEntity
  8
Sichtbar (ISO)
  6
ByLayer
 62
  256
370
   -1
100
AcDbLine
 10
284.5470549780731
 20
304.6898677532476
 11
284.5470549780731
 21
288.6898677532476
  0
LINE
  5
2A8
100
AcDbEntity
  8
Sichtbar (ISO)
  6
ByLayer
 62
  256
370
   -1
100
AcDbLine
 10
220.4995808172937
 20
288.6898677532477
 11
212.5470549780731
 21
288.6898677532477
  0
LINE
  5
2A9
100
AcDbEntity
  8
Sichtbar (ISO)
  6
ByLayer
 62
  256
370
   -1
100
AcDbLine
 10
284.5470549780731
 20
304.6898677532476
 11
212.5470549780732
 21
304.6898677532476
  0
LINE
  5
2AA
100
AcDbEntity
  8
Sichtbar (ISO)
  6
ByLayer
 62
  256
370
   -1
100
AcDbLine
 10
212.5470549780731
 20
288.6898677532477
 11
284.5470549780731
 21
288.6898677532476
  0
LINE
  5
2AB
100
AcDbEntity
  8
Sichtbar (ISO)
  6
ByLayer
 62
  256
370
   -1
100
AcDbLine
 10
284.5470549780731
 20
304.6898677532476
 11
212.5470549780732
 21
304.6898677532476
  0
LINE
  5
2AC
100
AcDbEntity
  8
Sichtbar (ISO)
  6
ByLayer
 62
  256
370
   -1
100
AcDbLine
 10
371.7470549780732
 20
295.2498677532476
 11
292.3070549780731
 21
295.2498677532476
  0
LINE
  5
2AD
100
AcDbEntity
  8
Sichtbar (ISO)
  6
ByLayer
 62
  256
370
   -1
100
AcDbLine
 10
291.7470549780731
 20
294.6898677532477
 11
291.7470549780731
 21
289.4098677532476
  0
LINE
  5
2AE
100
AcDbEntity
  8
Sichtbar (ISO)
  6
ByLayer
 62
  256
370
   -1
100
AcDbLine
 10
292.3070549780731
 20
288.8498677532476
 11
371.7470549780732
 21
288.8498677532476
  0
LINE
  5
2AF
100
AcDbEntity
  8
Sichtbar (ISO)
  6
ByLayer
 62
  256
370
   -1
100
AcDbLine
 10
371.7470549780732
 20
295.2498677532476
 11
371.7470549780732
 21
288.8498677532476
  0
LINE
  5
2B0
100
AcDbEntity
  8
Sichtbar (ISO)
  6
ByLayer
 62
  256
370
   -1
100
AcDbLine
 10
292.3070549780731
 20
288.8498677532476
 11
291.7470549780731
 21
289.4098677532476
  0
LINE
  5
2B1
100
AcDbEntity
  8
Sichtbar (ISO)
  6
ByLayer
 62
  256
370
   -1
100
AcDbLine
 10
291.7470549780731
 20
294.6898677532477
 11
292.3070549780731
 21
295.2498677532476
  0
ARC
  5
2B2
100
AcDbEntity
  8
Sichtbar (ISO)
  6
ByLayer
 62
  256
370
   -1
100
AcDbCircle
 10
288.188232468134
 20
292.0498677532476
 40
4.4
100
AcDbArc
 50
90
 51
270
  0
ARC
  5
2B3
100
AcDbEntity
  8
Sichtbar (ISO)
  6
ByLayer
 62
  256
370
   -1
100
AcDbCircle
 10
288.668232468134
 20
295.617724252604
 40
0.3199999999999999
100
AcDbArc
 50
0
 51
82.33774433923709
  0
ARC
  5
2B4
100
AcDbEntity
  8
Sichtbar (ISO)
  6
ByLayer
 62
  256
370
   -1
100
AcDbCircle
 10
288.668232468134
 20
288.4820112538911
 40
0.3200000000000005
100
AcDbArc
 50
277.6622556607629
 51
0
  0
ARC
  5
2B5
100
AcDbEntity
  8
Sichtbar (ISO)
  6
ByLayer
 62
  256
370
   -1
100
AcDbCircle
 10
288.188232468134
 20
292.0498677532476
 40
3.92
100
AcDbArc
 50
82.33774433923436
 51
277.6622556607663
  0
LINE
  5
2B6
100
AcDbEntity
  8
Sichtbar (ISO)
  6
ByLayer
 62
  256
370
   -1
100
AcDbLine
 10
288.188232468134
 20
287.6498677532476
 11
299.148232468134
 21
287.6498677532476
  0
ARC
  5
2B7
100
AcDbEntity
  8
Sichtbar (ISO)
  6
ByLayer
 62
  256
370
   -1
100
AcDbCircle
 10
299.148232468134
 20
288.2898677532476
 40
0.6400000000000011
100
AcDbArc
 50
270
 51
0
  0
LINE
  5
2B8
100
AcDbEntity
  8
Sichtbar (ISO)
  6
ByLayer
 62
  256
370
   -1
100
AcDbLine
 10
299.788232468134
 20
288.2898677532476
 11
299.788232468134
 21
288.5298677532476
  0
ARC
  5
2B9
100
AcDbEntity
  8
Sichtbar (ISO)
  6
ByLayer
 62
  256
370
   -1
100
AcDbCircle
 10
299.468232468134
 20
288.5298677532476
 40
0.3200000000000021
100
AcDbArc
 50
0
 51
90
  0
LINE
  5
2BA
100
AcDbEntity
  8
Sichtbar (ISO)
  6
ByLayer
 62
  256
370
   -1
100
AcDbLine
 10
299.468232468134
 20
288.8498677532476
 11
298.188232468134
 21
288.8498677532476
  0
LINE
  5
2BB
100
AcDbEntity
  8
Sichtbar (ISO)
  6
ByLayer
 62
  256
370
   -1
100
AcDbLine
 10
298.188232468134
 20
288.8498677532476
 11
298.188232468134
 21
288.5298677532476
  0
LINE
  5
2BC
100
AcDbEntity
  8
Sichtbar (ISO)
  6
ByLayer
 62
  256
370
   -1
100
AcDbLine
 10
298.188232468134
 20
288.5298677532476
 11
297.788232468134
 21
288.5298677532476
  0
ARC
  5
2BD
100
AcDbEntity
  8
Sichtbar (ISO)
  6
ByLayer
 62
  256
370
   -1
100
AcDbCircle
 10
297.5482324681339
 20
288.5298677532476
 40
0.2400000000000002
100
AcDbArc
 50
0
 51
53.13010235415802
  0
ARC
  5
2BE
100
AcDbEntity
  8
Sichtbar (ISO)
  6
ByLayer
 62
  256
370
   -1
100
AcDbCircle
 10
297.308232468134
 20
288.2098677532476
 40
0.6400000000000063
100
AcDbArc
 50
53.13010235415522
 51
90
  0
LINE
  5
2BF
100
AcDbEntity
  8
Sichtbar (ISO)
  6
ByLayer
 62
  256
370
   -1
100
AcDbLine
 10
297.308232468134
 20
288.8498677532476
 11
295.988232468134
 21
288.8498677532476
  0
ARC
  5
2C0
100
AcDbEntity
  8
Sichtbar (ISO)
  6
ByLayer
 62
  256
370
   -1
100
AcDbCircle
 10
295.988232468134
 20
288.7298677532476
 40
0.1200000000000001
100
AcDbArc
 50
90
 51
270
  0
LINE
  5
2C1
100
AcDbEntity
  8
Sichtbar (ISO)
  6
ByLayer
 62
  256
370
   -1
100
AcDbLine
 10
295.988232468134
 20
288.6098677532476
 11
297.308232468134
 21
288.6098677532476
  0
ARC
  5
2C2
100
AcDbEntity
  8
Sichtbar (ISO)
  6
ByLayer
 62
  256
370
   -1
100
AcDbCircle
 10
297.308232468134
 20
288.2098677532476
 40
0.4000000000000101
100
AcDbArc
 50
53.1301023541572
 51
90
  0
LINE
  5
2C3
100
AcDbEntity
  8
Sichtbar (ISO)
  6
ByLayer
 62
  256
370
   -1
100
AcDbLine
 10
297.5482324681339
 20
288.5298677532476
 11
295.148232468134
 21
288.5298677532476
  0
LINE
  5
2C4
100
AcDbEntity
  8
Sichtbar (ISO)
  6
ByLayer
 62
  256
370
   -1
100
AcDbLine
 10
295.148232468134
 20
288.5298677532476
 11
295.148232468134
 21
288.8498677532476
  0
LINE
  5
2C5
100
AcDbEntity
  8
Sichtbar (ISO)
  6
ByLayer
 62
  256
370
   -1
100
AcDbLine
 10
295.148232468134
 20
288.8498677532476
 11
291.868232468134
 21
288.8498677532476
  0
LINE
  5
2C6
100
AcDbEntity
  8
Sichtbar (ISO)
  6
ByLayer
 62
  256
370
   -1
100
AcDbLine
 10
291.868232468134
 20
288.8498677532476
 11
291.868232468134
 21
289.0898677532476
  0
ARC
  5
2C7
100
AcDbEntity
  8
Sichtbar (ISO)
  6
ByLayer
 62
  256
370
   -1
100
AcDbCircle
 10
291.388232468134
 20
289.0898677532476
 40
0.4799999999999969
100
AcDbArc
 50
0
 51
180
  0
LINE
  5
2C8
100
AcDbEntity
  8
Sichtbar (ISO)
  6
ByLayer
 62
  256
370
   -1
100
AcDbLine
 10
290.908232468134
 20
289.0898677532476
 11
290.908232468134
 21
288.8498677532476
  0
LINE
  5
2C9
100
AcDbEntity
  8
Sichtbar (ISO)
  6
ByLayer
 62
  256
370
   -1
100
AcDbLine
 10
290.908232468134
 20
288.8498677532476
 11
290.508232468134
 21
288.8498677532476
  0
ARC
  5
2CA
100
AcDbEntity
  8
Sichtbar (ISO)
  6
ByLayer
 62
  256
370
   -1
100
AcDbCircle
 10
290.508232468134
 20
289.1698677532476
 40
0.3200000000000003
100
AcDbArc
 50
180
 51
270
  0
LINE
  5
2CB
100
AcDbEntity
  8
Sichtbar (ISO)
  6
ByLayer
 62
  256
370
   -1
100
AcDbLine
 10
288.988232468134
 20
295.617724252604
 11
288.988232468134
 21
288.4820112538912
  0
LINE
  5
2CC
100
AcDbEntity
  8
Sichtbar (ISO)
  6
ByLayer
 62
  256
370
   -1
100
AcDbLine
 10
288.188232468134
 20
296.4498677532476
 11
299.148232468134
 21
296.4498677532476
  0
ARC
  5
2CD
100
AcDbEntity
  8
Sichtbar (ISO)
  6
ByLayer
 62
  256
370
   -1
100
AcDbCircle
 10
299.148232468134
 20
295.8098677532476
 40
0.6400000000000011
100
AcDbArc
 50
0
 51
90
  0
LINE
  5
2CE
100
AcDbEntity
  8
Sichtbar (ISO)
  6
ByLayer
 62
  256
370
   -1
100
AcDbLine
 10
299.788232468134
 20
295.8098677532476
 11
299.788232468134
 21
295.5698677532476
  0
ARC
  5
2CF
100
AcDbEntity
  8
Sichtbar (ISO)
  6
ByLayer
 62
  256
370
   -1
100
AcDbCircle
 10
299.468232468134
 20
295.5698677532476
 40
0.3200000000000021
100
AcDbArc
 50
270
 51
0
  0
LINE
  5
2D0
100
AcDbEntity
  8
Sichtbar (ISO)
  6
ByLayer
 62
  256
370
   -1
100
AcDbLine
 10
299.468232468134
 20
295.2498677532476
 11
298.188232468134
 21
295.2498677532476
  0
LINE
  5
2D1
100
AcDbEntity
  8
Sichtbar (ISO)
  6
ByLayer
 62
  256
370
   -1
100
AcDbLine
 10
298.188232468134
 20
295.2498677532476
 11
298.188232468134
 21
295.5698677532476
  0
LINE
  5
2D2
100
AcDbEntity
  8
Sichtbar (ISO)
  6
ByLayer
 62
  256
370
   -1
100
AcDbLine
 10
298.188232468134
 20
295.5698677532476
 11
297.788232468134
 21
295.5698677532476
  0
ARC
  5
2D3
100
AcDbEntity
  8
Sichtbar (ISO)
  6
ByLayer
 62
  256
370
   -1
100
AcDbCircle
 10
297.5482324681339
 20
295.5698677532476
 40
0.2400000000000002
100
AcDbArc
 50
306.869897645842
 51
0
  0
ARC
  5
2D4
100
AcDbEntity
  8
Sichtbar (ISO)
  6
ByLayer
 62
  256
370
   -1
100
AcDbCircle
 10
297.308232468134
 20
295.8898677532476
 40
0.6400000000000063
100
AcDbArc
 50
270
 51
306.8698976458448
  0
LINE
  5
2D5
100
AcDbEntity
  8
Sichtbar (ISO)
  6
ByLayer
 62
  256
370
   -1
100
AcDbLine
 10
297.308232468134
 20
295.2498677532476
 11
295.988232468134
 21
295.2498677532476
  0
ARC
  5
2D6
100
AcDbEntity
  8
Sichtbar (ISO)
  6
ByLayer
 62
  256
370
   -1
100
AcDbCircle
 10
295.988232468134
 20
295.3698677532476
 40
0.1200000000000001
100
AcDbArc
 50
90
 51
270
  0
LINE
  5
2D7
100
AcDbEntity
  8
Sichtbar (ISO)
  6
ByLayer
 62
  256
370
   -1
100
AcDbLine
 10
295.988232468134
 20
295.4898677532476
 11
297.308232468134
 21
295.4898677532476
  0
ARC
  5
2D8
100
AcDbEntity
  8
Sichtbar (ISO)
  6
ByLayer
 62
  256
370
   -1
100
AcDbCircle
 10
297.308232468134
 20
295.8898677532476
 40
0.4000000000000101
100
AcDbArc
 50
270
 51
306.8698976458428
  0
LINE
  5
2D9
100
AcDbEntity
  8
Sichtbar (ISO)
  6
ByLayer
 62
  256
370
   -1
100
AcDbLine
 10
297.5482324681339
 20
295.5698677532476
 11
295.148232468134
 21
295.5698677532476
  0
LINE
  5
2DA
100
AcDbEntity
  8
Sichtbar (ISO)
  6
ByLayer
 62
  256
370
   -1
100
AcDbLine
 10
295.148232468134
 20
295.5698677532476
 11
295.148232468134
 21
295.2498677532476
  0
LINE
  5
2DB
100
AcDbEntity
  8
Sichtbar (ISO)
  6
ByLayer
 62
  256
370
   -1
100
AcDbLine
 10
295.148232468134
 20
295.2498677532476
 11
291.868232468134
 21
295.2498677532476
  0
LINE
  5
2DC
100
AcDbEntity
  8
Sichtbar (ISO)
  6
ByLayer
 62
  256
370
   -1
100
AcDbLine
 10
291.868232468134
 20
295.2498677532476
 11
291.868232468134
 21
295.0098677532476
  0
ARC
  5
2DD
100
AcDbEntity
  8
Sichtbar (ISO)
  6
ByLayer
 62
  256
370
   -1
100
AcDbCircle
 10
291.388232468134
 20
295.0098677532476
 40
0.4799999999999969
100
AcDbArc
 50
180
 51
0
  0
LINE
  5
2DE
100
AcDbEntity
  8
Sichtbar (ISO)
  6
ByLayer
 62
  256
370
   -1
100
AcDbLine
 10
290.908232468134
 20
295.0098677532476
 11
290.908232468134
 21
295.2498677532476
  0
LINE
  5
2DF
100
AcDbEntity
  8
Sichtbar (ISO)
  6
ByLayer
 62
  256
370
   -1
100
AcDbLine
 10
290.908232468134
 20
295.2498677532476
 11
290.508232468134
 21
295.2498677532476
  0
ARC
  5
2E0
100
AcDbEntity
  8
Sichtbar (ISO)
  6
ByLayer
 62
  256
370
   -1
100
AcDbCircle
 10
290.508232468134
 20
294.9298677532476
 40
0.3200000000000003
100
AcDbArc
 50
90
 51
180
  0
LINE
  5
2E1
100
AcDbEntity
  8
Sichtbar (ISO)
  6
ByLayer
 62
  256
370
   -1
100
AcDbLine
 10
290.188232468134
 20
289.1698677532476
 11
290.188232468134
 21
294.9298677532476
  0
ARC
  5
2E2
100
AcDbEntity
  8
Sichtbar (ISO)
  6
ByLayer
 62
  256
370
   -1
100
AcDbCircle
 10
284.2270549780754
 20
289.0098677532476
 40
0.3199999999999985
100
AcDbArc
 50
270
 51
0
  0
LINE
  5
2E3
100
AcDbEntity
  8
Sichtbar (ISO)
  6
ByLayer
 62
  256
370
   -1
100
AcDbLine
 10
284.5470549780754
 20
288.6898677532477
 11
284.5470549780754
 21
289.5796802126163
  0
LINE
  5
2E4
100
AcDbEntity
  8
Sichtbar (ISO)
  6
ByLayer
 62
  256
370
   -1
100
AcDbLine
 10
284.5470549780754
 20
290.5978944456795
 11
284.5470549780754
 21
293.5018410608159
  0
LINE
  5
2E5
100
AcDbEntity
  8
Sichtbar (ISO)
  6
ByLayer
 62
  256
370
   -1
100
AcDbLine
 10
284.5470549780754
 20
294.5200552938791
 11
284.5470549780754
 21
300.8498677532477
  0
LINE
  5
2E6
100
AcDbEntity
  8
Sichtbar (ISO)
  6
ByLayer
 62
  256
370
   -1
100
AcDbLine
 10
290.2270549780754
 20
283.2498677532476
 11
284.5470549780754
 21
283.2498677532476
  0
LINE
  5
2E7
100
AcDbEntity
  8
Sichtbar (ISO)
  6
ByLayer
 62
  256
370
   -1
100
AcDbLine
 10
290.2270549780754
 20
300.8498677532477
 11
284.5470549780754
 21
300.8498677532477
  0
LINE
  5
2E8
100
AcDbEntity
  8
Sichtbar (ISO)
  6
ByLayer
 62
  256
370
   -1
100
AcDbLine
 10
290.2270549780754
 20
283.2498677532476
 11
290.2270549780753
 21
284.0143466127117
  0
LINE
  5
2E9
100
AcDbEntity
  8
Sichtbar (ISO)
  6
ByLayer
 62
  256
370
   -1
100
AcDbLine
 10
290.2270549780753
 20
300.0853888937836
 11
290.2270549780754
 21
300.8498677532477
  0
ARC
  5
2EA
100
AcDbEntity
  8
Sichtbar (ISO)
  6
ByLayer
 62
  256
370
   -1
100
AcDbCircle
 10
299.7470549780754
 20
292.0498677532476
 40
12.45792920191795
100
AcDbArc
 50
200.6772600565286
 51
220.1666191898519
  0
ARC
  5
2EB
100
AcDbEntity
  8
Sichtbar (ISO)
  6
ByLayer
 62
  256
370
   -1
100
AcDbCircle
 10
299.7470549780754
 20
292.0498677532476
 40
12.45792920191798
100
AcDbArc
 50
161.7046596576094
 51
198.2953403423906
  0
ARC
  5
2EC
100
AcDbEntity
  8
Sichtbar (ISO)
  6
ByLayer
 62
  256
370
   -1
100
AcDbCircle
 10
299.7470549780755
 20
292.0498677532476
 40
12.4579292019181
100
AcDbArc
 50
139.8333808101479
 51
159.3227399434712
  0
LINE
  5
2ED
100
AcDbEntity
  8
Sichtbar (ISO)
  6
ByLayer
 62
  256
370
   -1
100
AcDbLine
 10
292.7255900372388
 20
283.2498677532476
 11
290.2270549780754
 21
283.2498677532476
  0
LINE
  5
2EE
100
AcDbEntity
  8
Sichtbar (ISO)
  6
ByLayer
 62
  256
370
   -1
100
AcDbLine
 10
292.7255900372352
 20
300.8498677532477
 11
290.2270549780754
 21
300.8498677532477
  0
LINE
  5
2EF
100
AcDbEntity
  8
Sichtbar (ISO)
  6
ByLayer
 62
  256
370
   -1
100
AcDbLine
 10
289.7470549780761
 20
287.2498677532481
 11
289.7470549780761
 21
287.649867753248
  0
LINE
  5
2F0
100
AcDbEntity
  8
Sichtbar (ISO)
  6
ByLayer
 62
  256
370
   -1
100
AcDbLine
 10
289.7470549780761
 20
286.8787005817676
 11
289.7470549780761
 21
287.2498677532481
  0
LINE
  5
2F1
100
AcDbEntity
  8
Sichtbar (ISO)
  6
ByLayer
 62
  256
370
   -1
100
AcDbLine
 10
346.9470549780717
 20
287.6498677532479
 11
346.9470549780718
 21
283.2498677532484
  0
ARC
  5
2F2
100
AcDbEntity
  8
Sichtbar (ISO)
  6
ByLayer
 62
  256
370
   -1
100
AcDbCircle
 10
299.7470549780754
 20
292.0498677532476
 40
11.25792920191714
100
AcDbArc
 50
207.344240465407
 51
231.4138525222043
  0
LINE
  5
2F3
100
AcDbEntity
  8
Sichtbar (ISO)
  6
ByLayer
 62
  256
370
   -1
100
AcDbLine
 10
346.9470549780718
 20
283.2498677532484
 11
292.7255900372393
 21
283.2498677532483
  0
ARC
  5
2F4
100
AcDbEntity
  8
Sichtbar (ISO)
  6
ByLayer
 62
  256
370
   -1
100
AcDbCircle
 10
303.2653875874002
 20
285.2498677532482
 40
2.399999999999811
100
AcDbArc
 50
90
 51
113.5564643091016
  0
ARC
  5
2F5
100
AcDbEntity
  8
Sichtbar (ISO)
  6
ByLayer
 62
  256
370
   -1
100
AcDbCircle
 10
301.3470549780752
 20
289.6498677532478
 40
2.39999999999982
100
AcDbArc
 50
270
 51
293.5564643091016
  0
LINE
  5
2F6
100
AcDbEntity
  8
Sichtbar (ISO)
  6
ByLayer
 62
  256
370
   -1
100
AcDbLine
 10
346.9470549780717
 20
287.6498677532479
 11
303.2653875874002
 21
287.649867753248
  0
LINE
  5
2F7
100
AcDbEntity
  8
Sichtbar (ISO)
  6
ByLayer
 62
  256
370
   -1
100
AcDbLine
 10
301.3470549780752
 20
287.249867753248
 11
289.7470549780761
 21
287.2498677532481
  0
LINE
  5
2F8
100
AcDbEntity
  8
Sichtbar (ISO)
  6
ByLayer
 62
  256
370
   -1
100
AcDbLine
 10
345.987054978073
 20
295.2498677532476
 11
345.987054978073
 21
296.4498677532476
  0
LINE
  5
2F9
100
AcDbEntity
  8
Sichtbar (ISO)
  6
ByLayer
 62
  256
370
   -1
100
AcDbLine
 10
292.5470549780735
 20
287.249867753248
 11
292.5470549780735
 21
287.6498677532477
  0
LINE
  5
2FA
100
AcDbEntity
  8
Sichtbar (ISO)
  6
ByLayer
 62
  256
370
   -1
100
AcDbLine
 10
345.9870549780737
 20
287.6498677532477
 11
345.9870549780737
 21
288.8498677532476
  0
LINE
  5
2FB
100
AcDbEntity
  8
Sichtbar (ISO)
  6
ByLayer
 62
  256
370
   -1
100
AcDbLine
 10
292.7255900372352
 20
300.8498677532477
 11
346.9470549780718
 21
300.8498677532475
  0
ARC
  5
2FC
100
AcDbEntity
  8
Sichtbar (ISO)
  6
ByLayer
 62
  256
370
   -1
100
AcDbCircle
 10
299.7470549780717
 20
292.0498677532478
 40
11.25792920191791
100
AcDbArc
 50
128.5861474777963
 51
152.6557595345929
  0
LINE
  5
2FD
100
AcDbEntity
  8
Sichtbar (ISO)
  6
ByLayer
 62
  256
370
   -1
100
AcDbLine
 10
289.7470549780718
 20
296.4498677532477
 11
289.7470549780718
 21
297.2210349247282
  0
LINE
  5
2FE
100
AcDbEntity
  8
Sichtbar (ISO)
  6
ByLayer
 62
  256
370
   -1
100
AcDbLine
 10
346.9470549780718
 20
296.4498677532475
 11
299.148232468134
 21
296.4498677532477
  0
LINE
  5
2FF
100
AcDbEntity
  8
Sichtbar (ISO)
  6
ByLayer
 62
  256
370
   -1
100
AcDbLine
 10
346.9470549780718
 20
300.8498677532475
 11
346.9470549780718
 21
296.4498677532475
  0
LINE
  5
300
100
AcDbEntity
  8
Sichtbar (ISO)
  6
ByLayer
 62
  256
370
   -1
100
AcDbLine
 10
284.5470549780754
 20
283.2498677532476
 11
284.5470549780754
 21
288.6898677532477
  0
LINE
  5
301
100
AcDbEntity
  8
Sichtbar (ISO)
  6
ByLayer
 62
  256
370
   -1
100
AcDbLine
 10
220.4995808172937
 20
288.6898677532477
 11
284.5470549780754
 21
288.6898677532477
  0
LINE
  5
302
100
AcDbEntity
  8
Sichtbar (ISO)
  6
ByLayer
 62
  256
370
   -1
100
AcDbLine
 10
284.5470549780754
 20
283.2498677532476
 11
220.5470549780754
 21
283.2498677532477
  0
LINE
  5
303
100
AcDbEntity
  8
Sichtbar (ISO)
  6
ByLayer
 62
  256
370
   -1
100
AcDbLine
 10
220.5470549780754
 20
283.2498677532477
 11
220.4995808172937
 21
288.6898677532477
  0
ARC
  5
304
100
AcDbEntity
  8
Sichtbar (ISO)
  6
ByLayer
 62
  256
370
   -1
100
AcDbCircle
 10
348.1470549780731
 20
299.2498677532476
 40
19.99999999999999
100
AcDbArc
 50
0
 51
67.69484138154748
  0
LINE
  5
305
100
AcDbEntity
  8
Sichtbar (ISO)
  6
ByLayer
 62
  256
370
   -1
100
AcDbLine
 10
368.1470549780731
 20
299.2498677532476
 11
371.7470549780731
 21
299.2498677532476
  0
ARC
  5
306
100
AcDbEntity
  8
Sichtbar (ISO)
  6
ByLayer
 62
  256
370
   -1
100
AcDbCircle
 10
348.1470549780731
 20
299.2498677532476
 40
23.59999999999999
100
AcDbArc
 50
0
 51
69.79780506887407
  0
LINE
  5
307
100
AcDbEntity
  8
Sichtbar (ISO)
  6
ByLayer
 62
  256
370
   -1
100
AcDbLine
 10
356.2969409478847
 20
321.3979908944771
 11
357.4116442361337
 21
323.565297314859
  0
LINE
  5
308
100
AcDbEntity
  8
Sichtbar (ISO)
  6
ByLayer
 62
  256
370
   -1
100
AcDbLine
 10
356.0291489997191
 20
315.5696675895735
 11
354.9962871132302
 21
317.2621480196158
  0
LINE
  5
309
100
AcDbEntity
  8
Sichtbar (ISO)
  6
ByLayer
 62
  256
370
   -1
100
AcDbLine
 10
356.0291489997191
 20
315.5696675895735
 11
355.7378441607523
 21
317.7533787601922
  0
SPLINE
  5
30A
100
AcDbEntity
  8
Sichtbar (ISO)
  6
ByLayer
 62
  256
370
   -1
100
AcDbSpline
210
0
220
0
230
0
 70
    8
 71
    3
 72
   18
 73
   14
 74
    0
 42
1e-007
 43
1e-007
 40
0
 40
0
 40
0
 40
0
 40
0.02002717699594
 40
0.02002717699594
 40
0.044545871881488
 40
0.044545871881488
 40
0.0833055248065748
 40
0.0833055248065748
 40
0.148958115181627
 40
0.148958115181627
 40
0.2120326979996595
 40
0.2120326979996595
 40
0.2127169956761196
 40
0.2127169956761196
 40
0.2127169956761196
 40
0.2127169956761196
 10
355.7378441607523
 20
317.7533787601922
 30
0
 10
355.7378441607523
 20
317.7533787601922
 30
0
 10
355.731327369591
 20
317.7618315382384
 30
0
 10
355.7046963844178
 20
317.7963077925948
 30
0
 10
355.6824012142519
 20
317.8251389936465
 30
0
 10
355.6143882363234
 20
317.9127831754781
 30
0
 10
355.5614584441554
 20
317.98071317347
 30
0
 10
355.4131402669019
 20
318.1697978703228
 30
0
 10
355.2965218300714
 20
318.3172381490289
 30
0
 10
355.0388890017143
 20
318.6379582495205
 30
0
 10
354.9051232978478
 20
318.802345591359
 30
0
 10
354.7716339457628
 20
318.9642256377682
 30
0
 10
354.7702011327027
 20
318.965962939414
 30
0
 10
354.76876820324
 20
318.9677001382652
 30
0
  0
LINE
  5
30B
100
AcDbEntity
  8
Sichtbar (ISO)
  6
ByLayer
 62
  256
370
   -1
100
AcDbLine
 10
348.1470549780731
 20
321.0498677532476
 11
350.0123387565066
 21
320.7273483236534
  0
LINE
  5
30C
100
AcDbEntity
  8
Sichtbar (ISO)
  6
ByLayer
 62
  256
370
   -1
100
AcDbLine
 10
348.1470549780731
 20
321.0498677532476
 11
356.0291489997191
 21
315.5696675895735
  0
LINE
  5
30D
100
AcDbEntity
  8
Sichtbar (ISO)
  6
ByLayer
 62
  256
370
   -1
100
AcDbLine
 10
357.4116442361337
 20
323.565297314859
 11
355.8704564447282
 21
322.3178864465961
  0
LINE
  5
30E
100
AcDbEntity
  8
Sichtbar (ISO)
  6
ByLayer
 62
  256
370
   -1
100
AcDbLine
 10
357.4116442361337
 20
323.565297314859
 11
348.1470549780731
 21
321.0498677532476
  0
SPLINE
  5
30F
100
AcDbEntity
  8
Sichtbar (ISO)
  6
ByLayer
 62
  256
370
   -1
100
AcDbSpline
210
0
220
0
230
0
 70
    8
 71
    3
 72
   18
 73
   14
 74
    0
 42
1e-007
 43
1e-007
 40
-0.0006900732479622
 40
-0.0006900732479622
 40
-0.0006900732479622
 40
-0.0006900732479622
 40
0
 40
0
 40
0.052076942320704
 40
0.052076942320704
 40
0.1005381486776573
 40
0.1005381486776573
 40
0.1433324279049918
 40
0.1433324279049918
 40
0.1742262417633141
 40
0.1742262417633141
 40
0.2008645961684354
 40
0.2008645961684354
 40
0.2008645961684354
 40
0.2008645961684354
 10
355.1635200712937
 20
320.9433971478762
 30
0
 10
355.1652210554913
 20
320.9440992672423
 30
0
 10
355.1669220748697
 20
320.9448013092931
 30
0
 10
355.2969936310471
 20
320.9984772175089
 30
0
 10
355.4267599283085
 20
321.051488295637
 30
0
 10
355.6683134165453
 20
321.1492358721768
 30
0
 10
355.7831724806074
 20
321.1952779910557
 30
0
 10
355.9809636708924
 20
321.2739609057086
 30
0
 10
356.0679499022212
 20
321.3082898503186
 30
0
 10
356.1893793979286
 20
321.3559881011371
 30
0
 10
356.2315771301015
 20
321.3724856626445
 30
0
 10
356.2839407319382
 20
321.392929075227
 30
0
 10
356.2969409478847
 20
321.3979908944771
 30
0
 10
356.2969409478847
 20
321.3979908944771
 30
0
  0
SPLINE
  5
310
100
AcDbEntity
  8
Sichtbar (ISO)
  6
ByLayer
 62
  256
370
   -1
100
AcDbSpline
210
0
220
0
230
0
 70
    8
 71
    3
 72
   18
 73
   14
 74
    0
 42
1e-007
 43
1e-007
 40
-0.0006433994800897
 40
-0.0006433994800897
 40
-0.0006433994800897
 40
-0.0006433994800897
 40
0
 40
0
 40
0.045551712664149
 40
0.045551712664149
 40
0.08865231016050409
 40
0.08865231016050409
 40
0.1317284265166483
 40
0.1317284265166483
 40
0.1640587251217467
 40
0.1640587251217467
 40
0.192392043982726
 40
0.192392043982726
 40
0.192392043982726
 40
0.192392043982726
 10
370.9330155678749
 20
300.0498677532476
 30
0
 10
370.9342498743806
 20
300.0486760219173
 30
0
 10
370.9354841341393
 20
300.0474842388875
 30
0
 10
371.0240981046627
 20
299.9619129440926
 30
0
 10
371.1117873788581
 20
299.8767365815031
 30
0
 10
371.2762713736291
 20
299.7160911394242
 30
0
 10
371.3544879427812
 20
299.6392799113184
 30
0
 10
371.4986506277862
 20
299.4970748163969
 30
0
 10
371.5655421375593
 20
299.4307453760048
 30
0
 10
371.660856096703
 20
299.3359445956164
 30
0
 10
371.694452059257
 20
299.3024227220872
 30
0
 10
371.7365692900765
 20
299.2603593099535
 30
0
 10
371.7470549780732
 20
299.2498677532476
 30
0
 10
371.7470549780732
 20
299.2498677532476
 30
0
  0
SPLINE
  5
311
100
AcDbEntity
  8
Sichtbar (ISO)
  6
ByLayer
 62
  256
370
   -1
100
AcDbSpline
210
0
220
0
230
0
 70
    8
 71
    3
 72
   18
 73
   14
 74
    0
 42
1e-007
 43
1e-007
 40
-0.1888024440799916
 40
-0.1888024440799916
 40
-0.1888024440799916
 40
-0.1888024440799916
 40
-0.1881878451224395
 40
-0.1881878451224395
 40
-0.1447077253374638
 40
-0.1447077253374638
 40
-0.1030213431747049
 40
-0.1030213431747049
 40
-0.0601646066784886
 40
-0.0601646066784886
 40
-0.0280630261739818
 40
-0.0280630261739818
 40
0
 40
0
 40
0
 40
0
 10
368.9316646688997
 20
300.0498677532476
 30
0
 10
368.9305178590201
 20
300.0486759534608
 30
0
 10
368.9293709985461
 20
300.0474841997331
 30
0
 10
368.8470858874918
 20
299.9619851592982
 30
0
 10
368.7652482168546
 20
299.8774577328134
 30
0
 10
368.6098609101418
 20
299.7178838007425
 30
0
 10
368.5351362200417
 20
299.6415941354627
 30
0
 10
368.3946059649849
 20
299.4988239067354
 30
0
 10
368.3281010168595
 20
299.4316596215723
 30
0
 10
368.2331919304455
 20
299.3361488938692
 30
0
 10
368.1996135312383
 20
299.3024827731991
 30
0
 10
368.1575492362477
 20
299.2603551406933
 30
0
 10
368.1470549780731
 20
299.2498677532476
 30
0
 10
368.1470549780731
 20
299.2498677532476
 30
0
  0
SPLINE
  5
312
100
AcDbEntity
  8
Sichtbar (ISO)
  6
ByLayer
 62
  256
370
   -1
100
AcDbSpline
210
0
220
0
230
0
 70
    8
 71
    3
 72
   18
 73
   14
 74
    0
 42
1e-007
 43
1e-007
 40
-0.0008444702507317
 40
-0.0008444702507317
 40
-0.0008444702507317
 40
-0.0008444702507317
 40
0
 40
0
 40
0.0778383598031728
 40
0.0778383598031728
 40
0.1588581576901741
 40
0.1588581576901741
 40
0.2066902268928183
 40
0.2066902268928183
 40
0.236947977466366
 40
0.236947977466366
 40
0.2616628870104464
 40
0.2616628870104464
 40
0.2616628870104464
 40
0.2616628870104464
 10
354.7687682032399
 20
265.13203536823
 30
0
 10
354.7702011327033
 20
265.1337725670818
 30
0
 10
354.7716339457623
 20
265.1355098687263
 30
0
 10
354.9051232978657
 20
265.2973899151595
 30
0
 10
355.0388890017172
 20
265.4617772569782
 30
0
 10
355.2965218300709
 20
265.7824973574657
 30
0
 10
355.4131402669016
 20
265.929937636172
 30
0
 10
355.5614584441554
 20
266.1190223330252
 30
0
 10
355.6143882363234
 20
266.1869523310171
 30
0
 10
355.6824012142519
 20
266.2745965128487
 30
0
 10
355.7046963844177
 20
266.3034277139003
 30
0
 10
355.731327369591
 20
266.3379039682567
 30
0
 10
355.7378441607523
 20
266.346356746303
 30
0
 10
355.7378441607523
 20
266.346356746303
 30
0
  0
LINE
  5
313
100
AcDbEntity
  8
Sichtbar (ISO)
  6
ByLayer
 62
  256
370
   -1
100
AcDbLine
 10
355.7378441607523
 20
266.346356746303
 11
356.0291489997191
 21
268.5300679169217
  0
LINE
  5
314
100
AcDbEntity
  8
Sichtbar (ISO)
  6
ByLayer
 62
  256
370
   -1
100
AcDbLine
 10
356.0291489997191
 20
268.5300679169217
 11
354.9962871132302
 21
266.8375874868793
  0
SPLINE
  5
315
100
AcDbEntity
  8
Sichtbar (ISO)
  6
ByLayer
 62
  256
370
   -1
100
AcDbSpline
210
0
220
0
230
0
 70
    8
 71
    3
 72
   18
 73
   14
 74
    0
 42
1e-007
 43
1e-007
 40
-0.0006202322734978
 40
-0.0006202322734978
 40
-0.0006202322734978
 40
-0.0006202322734978
 40
0
 40
0
 40
0.0438786516266022
 40
0.0438786516266022
 40
0.0859471245178286
 40
0.0859471245178286
 40
0.1291966790236158
 40
0.1291966790236158
 40
0.1615924974936979
 40
0.1615924974936979
 40
0.1899127448885523
 40
0.1899127448885523
 40
0.1899127448885523
 40
0.1899127448885523
 10
368.9316646688997
 20
284.0498677532476
 30
0
 10
368.9305178590203
 20
284.0510595530342
 30
0
 10
368.9293709985459
 20
284.0522513067622
 30
0
 10
368.8470858874949
 20
284.1377503471942
 30
0
 10
368.7652482168551
 20
284.2222777736812
 30
0
 10
368.6098609101418
 20
284.3818517057526
 30
0
 10
368.5351362200417
 20
284.4581413710324
 30
0
 10
368.394605964985
 20
284.6009115997597
 30
0
 10
368.3281010168595
 20
284.6680758849228
 30
0
 10
368.2331919304455
 20
284.763586612626
 30
0
 10
368.1996135312383
 20
284.7972527332961
 30
0
 10
368.1575492362477
 20
284.8393803658018
 30
0
 10
368.1470549780731
 20
284.8498677532476
 30
0
 10
368.1470549780731
 20
284.8498677532476
 30
0
  0
ARC
  5
316
100
AcDbEntity
  8
Sichtbar (ISO)
  6
ByLayer
 62
  256
370
   -1
100
AcDbCircle
 10
348.1470549780731
 20
284.8498677532476
 40
20
100
AcDbArc
 50
292.3051586184525
 51
0
  0
LINE
  5
317
100
AcDbEntity
  8
Sichtbar (ISO)
  6
ByLayer
 62
  256
370
   -1
100
AcDbLine
 10
357.4116442361337
 20
260.5344381916362
 11
355.8704564447282
 21
261.781849059899
  0
LINE
  5
318
100
AcDbEntity
  8
Sichtbar (ISO)
  6
ByLayer
 62
  256
370
   -1
100
AcDbLine
 10
357.4116442361337
 20
260.5344381916362
 11
356.2969409478847
 21
262.7017446120181
  0
SPLINE
  5
319
100
AcDbEntity
  8
Sichtbar (ISO)
  6
ByLayer
 62
  256
370
   -1
100
AcDbSpline
210
0
220
0
230
0
 70
    8
 71
    3
 72
   18
 73
   14
 74
    0
 42
1e-007
 43
1e-007
 40
0
 40
0
 40
0
 40
0
 40
0.0263416040920467
 40
0.0263416040920467
 40
0.0568912619715498
 40
0.0568912619715498
 40
0.0992088144624922
 40
0.0992088144624922
 40
0.1471301647179941
 40
0.1471301647179941
 40
0.1986269717679979
 40
0.1986269717679979
 40
0.1993093576247007
 40
0.1993093576247007
 40
0.1993093576247007
 40
0.1993093576247007
 10
356.2969409478847
 20
262.7017446120181
 30
0
 10
356.2969409478847
 20
262.7017446120181
 30
0
 10
356.2839407319382
 20
262.7068064312681
 30
0
 10
356.2315771301015
 20
262.7272498438506
 30
0
 10
356.1893793979286
 20
262.7437474053579
 30
0
 10
356.0679499022212
 20
262.7914456561766
 30
0
 10
355.9809636708924
 20
262.8257746007866
 30
0
 10
355.7831724806073
 20
262.9044575154395
 30
0
 10
355.6683134165453
 20
262.9504996343184
 30
0
 10
355.426759928309
 20
263.0482472108579
 30
0
 10
355.2969936310508
 20
263.101258288985
 30
0
 10
355.1669220748697
 20
263.154934197202
 30
0
 10
355.1652210554913
 20
263.1556362392528
 30
0
 10
355.1635200712937
 20
263.1563383586189
 30
0
  0
ARC
  5
31A
100
AcDbEntity
  8
Sichtbar (ISO)
  6
ByLayer
 62
  256
370
   -1
100
AcDbCircle
 10
348.1470549780731
 20
284.8498677532476
 40
23.59999999999999
100
AcDbArc
 50
290.2021949311258
 51
0
  0
SPLINE
  5
31B
100
AcDbEntity
  8
Sichtbar (ISO)
  6
ByLayer
 62
  256
370
   -1
100
AcDbSpline
210
0
220
0
230
0
 70
    8
 71
    3
 72
   18
 73
   14
 74
    0
 42
1e-007
 43
1e-007
 40
0
 40
0
 40
0
 40
0
 40
0.0280611086154845
 40
0.0280611086154845
 40
0.060080796290623
 40
0.060080796290623
 40
0.1027430620750846
 40
0.1027430620750846
 40
0.1454295737990318
 40
0.1454295737990318
 40
0.1905436517843627
 40
0.1905436517843627
 40
0.1911808698519868
 40
0.1911808698519868
 40
0.1911808698519868
 40
0.1911808698519868
 10
371.7470549780732
 20
284.8498677532476
 30
0
 10
371.7470549780732
 20
284.8498677532476
 30
0
 10
371.7365692900765
 20
284.8393761965417
 30
0
 10
371.694452059257
 20
284.7973127844079
 30
0
 10
371.660856096703
 20
284.7637909108787
 30
0
 10
371.5655421375593
 20
284.6689901304903
 30
0
 10
371.4986506277862
 20
284.6026606900982
 30
0
 10
371.3544879427812
 20
284.4604555951768
 30
0
 10
371.2762713736291
 20
284.383644367071
 30
0
 10
371.1117873788589
 20
284.2229989249928
 30
0
 10
371.0240981046672
 20
284.1378225624079
 30
0
 10
370.9354841341393
 20
284.0522512676075
 30
0
 10
370.9342498743807
 20
284.0510594845779
 30
0
 10
370.9330155678749
 20
284.0498677532476
 30
0
  0
LINE
  5
31C
100
AcDbEntity
  8
Sichtbar (ISO)
  6
ByLayer
 62
  256
370
   -1
100
AcDbLine
 10
371.7470549780732
 20
284.8498677532476
 11
368.1470549780731
 21
284.8498677532476
  0
LINE
  5
31D
100
AcDbEntity
  8
Sichtbar (ISO)
  6
ByLayer
 62
  256
370
   -1
100
AcDbLine
 10
348.1470549780731
 20
263.0498677532476
 11
350.0123387565065
 21
263.3723871828418
  0
LINE
  5
31E
100
AcDbEntity
  8
Sichtbar (ISO)
  6
ByLayer
 62
  256
370
   -1
100
AcDbLine
 10
348.1470549780731
 20
263.0498677532476
 11
357.4116442361337
 21
260.5344381916362
  0
LINE
  5
31F
100
AcDbEntity
  8
Sichtbar (ISO)
  6
ByLayer
 62
  256
370
   -1
100
AcDbLine
 10
356.0291489997191
 20
268.5300679169217
 11
348.1470549780731
 21
263.0498677532476
  0
LINE
  5
320
100
AcDbEntity
  8
Sichtbar (ISO)
  6
ByLayer
 62
  256
370
   -1
100
AcDbLine
 10
395.8561844018568
 20
84.46558408674083
 11
396.4161844018568
 21
84.46558408674083
  0
LINE
  5
321
100
AcDbEntity
  8
Sichtbar (ISO)
  6
ByLayer
 62
  256
370
   -1
100
AcDbLine
 10
396.4161844018568
 20
84.46558408674083
 11
396.4161844018568
 21
110.0655840867408
  0
LINE
  5
322
100
AcDbEntity
  8
Sichtbar (ISO)
  6
ByLayer
 62
  256
370
   -1
100
AcDbLine
 10
396.4161844018568
 20
110.0655840867408
 11
395.8561844018568
 21
110.0655840867408
  0
LINE
  5
323
100
AcDbEntity
  8
Sichtbar (ISO)
  6
ByLayer
 62
  256
370
   -1
100
AcDbLine
 10
395.8561844018568
 20
110.0655840867408
 11
395.8561844018568
 21
84.46558408674083
  0
LINE
  5
324
100
AcDbEntity
  8
Sichtbar (ISO)
  6
ByLayer
 62
  256
370
   -1
100
AcDbLine
 10
396.4161844018568
 20
172.4655840867408
 11
395.8561844018568
 21
172.4655840867408
  0
LINE
  5
325
100
AcDbEntity
  8
Sichtbar (ISO)
  6
ByLayer
 62
  256
370
   -1
100
AcDbLine
 10
395.8561844018568
 20
172.4655840867408
 11
395.8561844018568
 21
146.8655840867408
  0
LINE
  5
326
100
AcDbEntity
  8
Sichtbar (ISO)
  6
ByLayer
 62
  256
370
   -1
100
AcDbLine
 10
395.8561844018568
 20
146.8655840867408
 11
396.4161844018568
 21
146.8655840867408
  0
LINE
  5
327
100
AcDbEntity
  8
Sichtbar (ISO)
  6
ByLayer
 62
  256
370
   -1
100
AcDbLine
 10
396.4161844018568
 20
146.8655840867408
 11
396.4161844018568
 21
172.4655840867408
  0
LINE
  5
328
100
AcDbEntity
  8
Sichtbar (ISO)
  6
ByLayer
 62
  256
370
   -1
100
AcDbLine
 10
430.8601860031378
 20
110.0655840867409
 11
396.4161844018568
 21
110.0655840867408
  0
LINE
  5
329
100
AcDbEntity
  8
Sichtbar (ISO)
  6
ByLayer
 62
  256
370
   -1
100
AcDbLine
 10
396.4161844018568
 20
146.8655840867408
 11
430.8601860031378
 21
146.8655840867408
  0
LINE
  5
32A
100
AcDbEntity
  8
Sichtbar (ISO)
  6
ByLayer
 62
  256
370
   -1
100
AcDbLine
 10
442.2561844018567
 20
142.8655840867408
 11
442.2561844018567
 21
114.0655840867408
  0
ARC
  5
32B
100
AcDbEntity
  8
Sichtbar (ISO)
  6
ByLayer
 62
  256
370
   -1
100
AcDbCircle
 10
435.8561844018566
 20
114.0655840867408
 40
6.39999999999999
100
AcDbArc
 50
218.6821874534887
 51
0
  0
ARC
  5
32C
100
AcDbEntity
  8
Sichtbar (ISO)
  6
ByLayer
 62
  256
370
   -1
100
AcDbCircle
 10
435.8561844018566
 20
142.8655840867408
 40
6.400000000000003
100
AcDbArc
 50
0
 51
141.3178125465112
  0
LINE
  5
32D
100
AcDbEntity
  8
Sichtbar (ISO)
  6
ByLayer
 62
  256
370
   -1
100
AcDbLine
 10
475.8561844018569
 20
84.46558408674082
 11
396.4161844018568
 21
84.46558408674083
  0
LINE
  5
32E
100
AcDbEntity
  8
Sichtbar (ISO)
  6
ByLayer
 62
  256
370
   -1
100
AcDbLine
 10
475.8561844018569
 20
172.4655840867408
 11
475.8561844018569
 21
84.46558408674082
  0
LINE
  5
32F
100
AcDbEntity
  8
Sichtbar (ISO)
  6
ByLayer
 62
  256
370
   -1
100
AcDbLine
 10
396.4161844018568
 20
172.4655840867408
 11
475.8561844018569
 21
172.4655840867408
  0
LINE
  5
330
100
AcDbEntity
  8
Mittelpunktmarkierung (ISO)
  6
CONTINUOUS
 62
  256
370
   -1
100
AcDbLine
 10
444.0561844018566
 20
142.8655840867408
 11
435.2561844018566
 21
142.8655840867408
  0
LINE
  5
331
100
AcDbEntity
  8
Mittelpunktmarkierung (ISO)
  6
CONTINUOUS
 62
  256
370
   -1
100
AcDbLine
 10
435.8561844018566
 20
151.0655840867408
 11
435.8561844018566
 21
142.2655840867408
  0
LINE
  5
332
100
AcDbEntity
  8
Mittelpunktmarkierung (ISO)
  6
CONTINUOUS
 62
  256
370
   -1
100
AcDbLine
 10
444.0561844018566
 20
114.0655840867408
 11
435.2561844018566
 21
114.0655840867408
  0
LINE
  5
333
100
AcDbEntity
  8
Mittelpunktmarkierung (ISO)
  6
CONTINUOUS
 62
  256
370
   -1
100
AcDbLine
 10
435.8561844018566
 20
114.6655840867408
 11
435.8561844018566
 21
105.8655840867408
  0
LINE
  5
334
100
AcDbEntity
  8
Mittellinie (ISO)
  6
CONTINUOUS
 62
  256
370
   -1
100
AcDbLine
 10
395.8161844018568
 20
128.4655840867408
 11
431.4601860031379
 21
128.4655840867408
  0
DIMENSION
  5
335
100
AcDbEntity
  8
Bemaßung (ISO)
  6
ByLayer
 62
  256
370
   -1
100
AcDbDimension
  2
*D1
 10
435.8561844018565
 20
142.8655840867408
 30
0
 11
445.2537589352426
 21
155.7869813840625
 31
0
 70
   36
  1
<>
 71
    5
 72
    0
  3
Standard (DIN)
 53
0
210
0
220
0
230
1
100
AcDbRadialDimension
 15
440.381667801451
 25
147.3910674863339
 35
0
 40
0
  0
DIMENSION
  5
336
100
AcDbEntity
  8
Bemaßung (ISO)
  6
ByLayer
 62
  256
370
   -1
100
AcDbDimension
  2
*D2
 10
374.2561844018569
 20
110.0655840867409
 30
0
 11
374.2561844018568
 21
128.4535840867409
 31
0
 70
   32
  1
<>
 71
    5
 72
    0
  3
Standard (DIN)
 53
0
210
0
220
0
230
1
100
AcDbAlignedDimension
 13
396.4161844018568
 23
146.8655840867408
 33
0
 14
396.4161844018568
 24
110.0655840867408
 34
0
 50
270
100
AcDbRotatedDimension
  0
DIMENSION
  5
337
100
AcDbEntity
  8
Bemaßung (ISO)
  6
ByLayer
 62
  256
370
   -1
100
AcDbDimension
  2
*D3
 10
383.8561844018569
 20
114.0655840867408
 30
0
 11
383.8561844018568
 21
128.4535840867408
 31
0
 70
   32
  1
<>
 71
    5
 72
    0
  3
Standard (DIN)
 53
0
210
0
220
0
230
1
100
AcDbAlignedDimension
 13
435.8561844018566
 23
142.8655840867408
 33
0
 14
435.8561844018566
 24
114.0655840867408
 34
0
 50
90
100
AcDbRotatedDimension
  0
DIMENSION
  5
338
100
AcDbEntity
  8
Bemaßung (ISO)
  6
ByLayer
 62
  256
370
   -1
100
AcDbDimension
  2
*D4
 10
435.8561844018566
 20
72.46558408674083
 30
0
 11
415.8561844018566
 21
72.46558408674083
 31
0
 70
   32
  1
<>
 71
    5
 72
    0
  3
Standard (DIN)
 53
0
210
0
220
0
230
1
100
AcDbAlignedDimension
 13
395.8561844018568
 23
84.46558408674083
 33
0
 14
435.8561844018566
 24
105.8655840867408
 34
0
 50
180
100
AcDbRotatedDimension
  0
DIMENSION
  5
339
100
AcDbEntity
  8
Bemaßung (ISO)
  6
ByLayer
 62
  256
370
   -1
100
AcDbDimension
  2
*D5
 10
344.585020931075
 20
90.88932116713173
 30
0
 11
281.3612838506859
 21
90.88932116713173
 31
0
 70
   32
  1
<>
 71
    5
 72
    0
  3
Standard (DIN)
 53
0
210
0
220
0
230
1
100
AcDbAlignedDimension
 13
218.1375467702968
 23
102.8893211671317
 33
0
 14
344.585020931075
 24
102.8418470063499
 34
0
100
AcDbRotatedDimension
  0
DIMENSION
  5
33A
100
AcDbEntity
  8
Bemaßung (ISO)
  6
ByLayer
 62
  256
370
   -1
100
AcDbDimension
  2
*D6
 10
206.1375467702969
 20
102.8893211671318
 30
0
 11
206.1375467702968
 21
128.4893211671317
 31
0
 70
   32
  1
<>
 71
    5
 72
    0
  3
Standard (DIN)
 53
0
210
0
220
0
230
1
100
AcDbAlignedDimension
 13
218.1375467702968
 23
154.0893211671317
 33
0
 14
218.1375467702968
 24
102.8893211671317
 34
0
 50
270
100
AcDbRotatedDimension
  0
DIMENSION
  5
33B
100
AcDbEntity
  8
Bemaßung (ISO)
  6
ByLayer
 62
  256
370
   -1
100
AcDbDimension
  2
*D7
 10
383.7470549780732
 20
295.2498677532477
 30
0
 11
383.7470549780732
 21
298.0498677532476
 31
0
 70
   32
  1
<>
 71
    5
 72
    0
  3
Standard (DIN)
 53
0
210
0
220
0
230
1
100
AcDbAlignedDimension
 13
346.9470549780719
 23
300.8498677532475
 33
0
 14
371.7470549780732
 24
295.2498677532476
 34
0
 50
270
100
AcDbRotatedDimension
  0
DIMENSION
  5
33C
100
AcDbEntity
  8
Bemaßung (ISO)
  6
ByLayer
 62
  256
370
   -1
100
AcDbDimension
  2
*D8
 10
393.3470549780731
 20
283.2498677532484
 30
0
 11
393.347054978073
 21
286.0498677532479
 31
0
 70
   32
  1
<>
 71
    5
 72
    0
  3
Standard (DIN)
 53
0
210
0
220
0
230
1
100
AcDbAlignedDimension
 13
371.7470549780732
 23
288.8498677532476
 33
0
 14
346.9470549780718
 24
283.2498677532483
 34
0
 50
270
100
AcDbRotatedDimension
  0
DIMENSION
  5
33D
100
AcDbEntity
  8
Bemaßung (ISO)
  6
ByLayer
 62
  256
370
   -1
100
AcDbDimension
  2
*D9
 10
416.5470549780717
 20
283.2498677532484
 30
0
 11
416.5470549780717
 21
292.0498677532479
 31
0
 70
   32
  1
<>
 71
    5
 72
    0
  3
Standard (DIN)
 53
0
210
0
220
0
230
1
100
AcDbAlignedDimension
 13
346.9470549780719
 23
300.8498677532475
 33
0
 14
346.9470549780718
 24
283.2498677532483
 34
0
 50
270
100
AcDbRotatedDimension
  0
DIMENSION
  5
33E
100
AcDbEntity
  8
Bemaßung (ISO)
  6
ByLayer
 62
  256
370
   -1
100
AcDbDimension
  2
*D10
 10
200.5470549780731
 20
283.2498677532477
 30
0
 11
200.5470549780731
 21
285.9698677532476
 31
0
 70
   32
  1
<>
 71
    5
 72
    0
  3
Standard (DIN)
 53
0
210
0
220
0
230
1
100
AcDbAlignedDimension
 13
212.5470549780731
 23
288.6898677532477
 33
0
 14
220.5470549780754
 24
283.2498677532476
 34
0
 50
270
100
AcDbRotatedDimension
  0
DIMENSION
  5
33F
100
AcDbEntity
  8
Bemaßung (ISO)
  6
ByLayer
 62
  256
370
   -1
100
AcDbDimension
  2
*D11
 10
284.5470549780731
 20
316.6898677532476
 30
0
 11
288.1470549780731
 21
316.6898677532476
 31
0
 70
   32
  1
<>
 71
    5
 72
    0
  3
Standard (DIN)
 53
0
210
0
220
0
230
1
100
AcDbAlignedDimension
 13
291.7470549780731
 23
294.6898677532477
 33
0
 14
284.5470549780731
 24
304.6898677532476
 34
0
 50
180
100
AcDbRotatedDimension
  0
LINE
  5
340
100
AcDbEntity
  8
Mittelpunktmarkierung (ISO)
  6
CONTINUOUS
 62
  256
370
   -1
100
AcDbLine
 10
305.5470549780755
 20
292.0498677532476
 11
293.9470549780754
 21
292.0498677532476
  0
LINE
  5
341
100
AcDbEntity
  8
Mittelpunktmarkierung (ISO)
  6
CONTINUOUS
 62
  256
370
   -1
100
AcDbLine
 10
299.7470549780754
 20
297.8498677532476
 11
299.7470549780754
 21
286.2498677532475
  0
DIMENSION
  5
342
100
AcDbEntity
  8
Bemaßung (ISO)
  6
ByLayer
 62
  256
370
   -1
100
AcDbDimension
  2
*D12
 10
299.7470549780754
 20
274.2498677532475
 30
0
 11
292.1470549780742
 21
274.2498677532475
 31
0
 70
   32
  1
<>
 71
    5
 72
    0
  3
Standard (DIN)
 53
0
210
0
220
0
230
1
100
AcDbAlignedDimension
 13
284.5470549780731
 23
288.6898677532477
 33
0
 14
299.7470549780754
 24
286.2498677532475
 34
0
 50
180
100
AcDbRotatedDimension
  0
DIMENSION
  5
343
100
AcDbEntity
  8
Bemaßung (ISO)
  6
ByLayer
 62
  256
370
   -1
100
AcDbDimension
  2
*D13
 10
346.9470549780718
 20
267.0054641440482
 30
0
 11
315.7470549780724
 21
267.0054641440482
 31
0
 70
   32
  1
<>
 71
    5
 72
    0
  3
Standard (DIN)
 53
0
210
0
220
0
230
1
100
AcDbAlignedDimension
 13
284.5470549780731
 23
288.6898677532477
 33
0
 14
346.9470549780718
 24
283.2498677532483
 34
0
 50
180
100
AcDbRotatedDimension
  0
DIMENSION
  5
344
100
AcDbEntity
  8
Bemaßung (ISO)
  6
ByLayer
 62
  256
370
   -1
100
AcDbDimension
  2
*D14
 10
220.4995808172937
 20
267.0054641440482
 30
0
 11
252.5233178976834
 21
267.0054641440482
 31
0
 70
   32
  1
<>
 71
    5
 72
    0
  3
Standard (DIN)
 53
0
210
0
220
0
230
1
100
AcDbAlignedDimension
 13
284.5470549780731
 23
288.6898677532477
 33
0
 14
220.4995808172937
 24
288.6898677532477
 34
0
 50
180
100
AcDbRotatedDimension
  0
DIMENSION
  5
345
100
AcDbEntity
  8
Bemaßung (ISO)
  6
ByLayer
 62
  256
370
   -1
100
AcDbDimension
  2
*D15
 10
273.1079387813043
 20
292.0498677532478
 30
0
 11
273.1079387813043
 21
302.9041378986983
 31
0
 70
   32
  1
<>
 71
    5
 72
    0
  3
Standard (DIN)
 53
0
210
0
220
0
230
1
100
AcDbAlignedDimension
 13
284.5470549780754
 23
288.6898677532477
 33
0
 14
293.9470549780754
 24
292.0498677532476
 34
0
 50
90
100
AcDbRotatedDimension
  0
LINE
  5
346
100
AcDbEntity
  8
Sichtbar (ISO)
  6
ByLayer
 62
  256
370
   -1
100
AcDbLine
 10
133.2630305667068
 20
144.4820091429953
 11
94.65352653485797
 21
166.7478326832888
  0
LINE
  5
347
100
AcDbEntity
  8
Sichtbar (ISO)
  6
ByLayer
 62
  256
370
   -1
100
AcDbLine
 10
129.3739432701812
 20
142.1982204660304
 11
129.3739432701812
 21
89.95547836029726
  0
LINE
  5
348
100
AcDbEntity
  8
Sichtbar (ISO)
  6
ByLayer
 62
  256
370
   -1
100
AcDbLine
 10
133.2630305667068
 20
92.20084395784832
 11
133.2630305667068
 21
144.4820091429953
  0
LINE
  5
349
100
AcDbEntity
  8
Sichtbar (ISO)
  6
ByLayer
 62
  256
370
   -1
100
AcDbLine
 10
133.2630305667068
 20
144.4820091429953
 11
129.3739432701812
 21
142.1982204660304
  0
LINE
  5
34A
100
AcDbEntity
  8
Sichtbar (ISO)
  6
ByLayer
 62
  256
370
   -1
100
AcDbLine
 10
129.3739432701812
 20
142.1982204660304
 11
81.4484863382671
 21
169.8810350003525
  0
LINE
  5
34B
100
AcDbEntity
  8
Sichtbar (ISO)
  6
ByLayer
 62
  256
370
   -1
100
AcDbLine
 10
92.47510132659991
 20
187.9140547717197
 11
92.47510132659991
 21
169.1224570079607
  0
ELLIPSE
  5
34C
100
AcDbEntity
  8
Sichtbar (ISO)
  6
ByLayer
 62
  256
370
   -1
100
AcDbEllipse
 10
85.21616554909041
 20
177.8660918955337
 30
0
 11
-5.5
 21
-3.287e-013
 31
0
 40
0.5773502691896255
 41
6.281972511657542
 42
0.7853981633972079
  0
LINE
  5
34D
100
AcDbEntity
  8
Sichtbar (ISO)
  6
ByLayer
 62
  256
370
   -1
100
AcDbLine
 10
79.71616554909041
 20
195.4666481453012
 11
79.71616554909039
 21
177.2280615174003
  0
LINE
  5
34E
100
AcDbEntity
  8
Sichtbar (ISO)
  6
ByLayer
 62
  256
370
   -1
100
AcDbLine
 10
81.3270782525636
 20
175.6207262979828
 11
92.47510132659991
 21
169.1224570079607
  0
ENDSEC
  0
SECTION
  2
OBJECTS
  0
DICTIONARY
  5
C
330
0
100
AcDbDictionary
281
    1
  3
ACAD_GROUP
350
D
  0
DICTIONARY
  5
D
330
C
100
AcDbDictionary
281
    1
  0
ENDSEC
  0
EOF
