999
dxfrw 0.6.3
  0
SECTION
  2
HEADER
  9
$ACADVER
  1
AC1021
  9
$DWGCODEPAGE
  3
ANSI_1252
  9
$INSBASE
 10
0
 20
0
 30
0
  9
$EXTMIN
 10
17.85860131222914
 20
15.25670288090218
 30
0
  9
$EXTMAX
 10
405.9706975770653
 20
330.7203773267761
 30
0
  9
$LIMMIN
 10
0
 20
0
  9
$LIMMAX
 10
420
 20
297
  9
$ORTHOMODE
 70
    0
  9
$REGENMODE
 70
    1
  9
$FILLMODE
 70
    1
  9
$QTEXTMODE
 70
    0
  9
$MIRRTEXT
 70
    0
  9
$LTSCALE
 40
1
  9
$ATTMODE
 70
    1
  9
$TEXTSIZE
 40
0.2
  9
$TRACEWID
 40
0.05
  9
$TEXTSTYLE
  7
Standard
  9
$CLAYER
  8
0
  9
$CELTYPE
  6
ByLayer
  9
$CECOLOR
 62
  256
  9
$CELTSCALE
 40
1
  9
$DISPSILH
 70
    0
  9
$DIMSCALE
 40
1
  9
$DIMASZ
 40
0.18
  9
$DIMEXO
 40
0.0625
  9
$DIMDLI
 40
0.38
  9
$DIMRND
 40
0
  9
$DIMDLE
 40
0
  9
$DIMEXE
 40
0.18
  9
$DIMTP
 40
0
  9
$DIMTM
 40
0
  9
$DIMTXT
 40
0.18
  9
$DIMCEN
 40
0.09
  9
$DIMTSZ
 40
0
  9
$DIMTOL
 70
    0
  9
$DIMLIM
 70
    0
  9
$DIMTIH
 70
    1
  9
$DIMTOH
 70
    1
  9
$DIMSE1
 70
    0
  9
$DIMSE2
 70
    0
  9
$DIMTAD
 70
    0
  9
$DIMZIN
 70
    0
  9
$DIMBLK
  1

  9
$DIMASO
 70
    1
  9
$DIMSHO
 70
    1
  9
$DIMPOST
  1

  9
$DIMAPOST
  1

  9
$DIMALT
 70
    0
  9
$DIMALTD
 70
    2
  9
$DIMALTF
 40
25.4
  9
$DIMLFAC
 40
1
  9
$DIMTOFL
 70
    0
  9
$DIMTVP
 40
0
  9
$DIMTIX
 70
    0
  9
$DIMSOXD
 70
    0
  9
$DIMSAH
 70
    0
  9
$DIMBLK1
  1

  9
$DIMBLK2
  1

  9
$DIMSTYLE
  2
Standard
  9
$DIMCLRD
 70
    0
  9
$DIMCLRE
 70
    0
  9
$DIMCLRT
 70
    0
  9
$DIMTFAC
 40
1
  9
$DIMGAP
 40
0.09
  9
$DIMJUST
 70
    0
  9
$DIMSD1
 70
    0
  9
$DIMSD2
 70
    0
  9
$DIMTOLJ
 70
    1
  9
$DIMTZIN
 70
    0
  9
$DIMALTZ
 70
    0
  9
$DIMALTTZ
 70
    0
  9
$DIMUPT
 70
    0
  9
$DIMDEC
 70
    4
  9
$DIMTDEC
 70
    4
  9
$DIMALTU
 70
    2
  9
$DIMALTTD
 70
    2
  9
$DIMTXSTY
  7
Standard
  9
$DIMAUNIT
 70
    0
  9
$DIMADEC
 70
    0
  9
$DIMALTRND
 40
0
  9
$DIMAZIN
 70
    0
  9
$DIMDSEP
 70
   46
  9
$DIMATFIT
 70
    3
  9
$DIMFRAC
 70
    0
  9
$DIMLDRBLK
  1

  9
$DIMLUNIT
 70
    2
  9
$DIMLWD
 70
   -2
  9
$DIMLWE
 70
   -2
  9
$DIMTMOVE
 70
    0
  9
$DIMFXL
 40
1
  9
$DIMFXLON
 70
    0
  9
$DIMJOGANG
 40
0.7853981633974483
  9
$DIMTFILL
 70
    0
  9
$DIMTFILLCLR
 70
    0
  9
$DIMARCSYM
 70
    0
  9
$DIMLTYPE
  6

  9
$DIMLTEX1
  6

  9
$DIMLTEX2
  6

  9
$LUNITS
 70
    2
  9
$LUPREC
 70
    4
  9
$SKETCHINC
 40
0.1
  9
$FILLETRAD
 40
0
  9
$AUNITS
 70
    0
  9
$AUPREC
 70
    0
  9
$MENU
  1
.
  9
$ELEVATION
 40
0
  9
$PELEVATION
 40
0
  9
$THICKNESS
 40
0
  9
$LIMCHECK
 70
    0
  9
$CHAMFERA
 40
0
  9
$CHAMFERB
 40
0
  9
$CHAMFERC
 40
0
  9
$CHAMFERD
 40
0
  9
$SKPOLY
 70
    0
  9
$USRTIMER
 70
    1
  9
$ANGBASE
 50
0
  9
$ANGDIR
 70
    0
  9
$PDMODE
 70
    0
  9
$PDSIZE
 40
0
  9
$PLINEWID
 40
0
  9
$SPLFRAME
 70
    0
  9
$SPLINETYPE
 70
    6
  9
$SPLINESEGS
 70
    8
  9
$HANDSEED
  5
20000
  9
$SURFTAB1
 70
    6
  9
$SURFTAB2
 70
    6
  9
$SURFTYPE
 70
    6
  9
$SURFU
 70
    6
  9
$SURFV
 70
    6
  9
$UCSBASE
  2

  9
$UCSNAME
  2

  9
$UCSORG
 10
0
 20
0
 30
0
  9
$UCSXDIR
 10
1
 20
0
 30
0
  9
$UCSYDIR
 10
0
 20
1
 30
0
  9
$UCSORTHOREF
  2

  9
$UCSORTHOVIEW
 70
    0
  9
$UCSORGTOP
 10
0
 20
0
 30
0
  9
$UCSORGBOTTOM
 10
0
 20
0
 30
0
  9
$UCSORGLEFT
 10
0
 20
0
 30
0
  9
$UCSORGRIGHT
 10
0
 20
0
 30
0
  9
$UCSORGFRONT
 10
0
 20
0
 30
0
  9
$UCSORGBACK
 10
0
 20
0
 30
0
  9
$PUCSBASE
  2

  9
$PUCSNAME
  2

  9
$PUCSORG
 10
0
 20
0
 30
0
  9
$PUCSXDIR
 10
1
 20
0
 30
0
  9
$PUCSYDIR
 10
0
 20
1
 30
0
  9
$PUCSORTHOREF
  2

  9
$PUCSORTHOVIEW
 70
    0
  9
$PUCSORGTOP
 10
0
 20
0
 30
0
  9
$PUCSORGBOTTOM
 10
0
 20
0
 30
0
  9
$PUCSORGLEFT
 10
0
 20
0
 30
0
  9
$PUCSORGRIGHT
 10
0
 20
0
 30
0
  9
$PUCSORGFRONT
 10
0
 20
0
 30
0
  9
$PUCSORGBACK
 10
0
 20
0
 30
0
  9
$USERI1
 70
    0
  9
$USERI2
 70
    0
  9
$USERI3
 70
    0
  9
$USERI4
 70
    0
  9
$USERI5
 70
    0
  9
$USERR1
 40
0
  9
$USERR2
 40
0
  9
$USERR3
 40
0
  9
$USERR4
 40
0
  9
$USERR5
 40
0
  9
$WORLDVIEW
 70
    1
  9
$SHADEDGE
 70
    3
  9
$SHADEDIF
 70
   70
  9
$TILEMODE
 70
    1
  9
$MAXACTVP
 70
   64
  9
$PINSBASE
 10
27.28233924177586
 20
-0.654678398058806
 30
0
  9
$PLIMCHECK
 70
    0
  9
$PEXTMIN
 10
0
 20
0
 30
0
  9
$PEXTMAX
 10
420
 20
297
 30
0
  9
$GRIDMODE
 70
    0
  9
$SNAPSTYLE
 70
    0
  9
$PLIMMIN
 10
0
 20
0
  9
$PLIMMAX
 10
420
 20
297
  9
$UNITMODE
 70
    0
  9
$VISRETAIN
 70
    1
  9
$PLINEGEN
 70
    0
  9
$PSLTSCALE
 70
    1
  9
$TREEDEPTH
 70
 3020
  9
$CMLSTYLE
  2
Standard
  9
$CMLJUST
 70
    0
  9
$CMLSCALE
 40
1
  9
$PROXYGRAPHICS
 70
    1
  9
$MEASUREMENT
 70
    1
  9
$CELWEIGHT
370
   -1
  9
$ENDCAPS
280
    0
  9
$JOINSTYLE
280
    0
  9
$LWDISPLAY
290
    0
  9
$INSUNITS
 70
    4
  9
$HYPERLINKBASE
  1

  9
$STYLESHEET
  1

  9
$XEDIT
290
    1
  9
$CEPSNTYPE
380
    0
  9
$PSTYLEMODE
290
    1
  9
$EXTNAMES
290
    1
  9
$PSVPSCALE
 40
0.8622250579846351
  9
$OLESTARTUP
290
    0
  9
$SORTENTS
280
  127
  9
$INDEXCTL
280
    0
  9
$HIDETEXT
280
    1
  9
$XCLIPFRAME
290
    2
  9
$HALOGAP
280
    0
  9
$OBSCOLOR
 70
  257
  9
$OBSLTYPE
280
    0
  9
$INTERSECTIONDISPLAY
280
    0
  9
$INTERSECTIONCOLOR
 70
  257
  9
$DIMASSOC
280
    1
  9
$PROJECTNAME
  1

  9
$CAMERADISPLAY
290
    0
  9
$LENSLENGTH
 40
50
  9
$CAMERAHEIGHT
 40
0
  9
$STEPSPERSEC
 40
2
  9
$STEPSIZE
 40
6
  9
$3DDWFPREC
 40
2
  9
$PSOLWIDTH
 40
0.25
  9
$PSOLHEIGHT
 40
4
  9
$LOFTANG1
 40
1.570796326794896
  9
$LOFTANG2
 40
1.570796326794896
  9
$LOFTMAG1
 40
0
  9
$LOFTMAG2
 40
0
  9
$LOFTPARAM
 70
    7
  9
$LOFTNORMALS
280
    1
  9
$LATITUDE
 40
37.795
  9
$LONGITUDE
 40
-122.394
  9
$NORTHDIRECTION
 40
0
  9
$TIMEZONE
 70
-8000
  9
$LIGHTGLYPHDISPLAY
280
    1
  9
$TILEMODELIGHTSYNCH
280
    1
  9
$SOLIDHIST
280
    0
  9
$SHOWHIST
280
    1
  9
$DWFFRAME
280
    2
  9
$DGNFRAME
280
    0
  9
$REALWORLDSCALE
290
    1
  9
$INTERFERECOLOR
 62
    1
  9
$CSHADOW
280
    0
  9
$SHADOWPLANELOCATION
 40
0
  0
ENDSEC
  0
SECTION
  2
CLASSES
  0
ENDSEC
  0
SECTION
  2
TABLES
  0
TABLE
  2
VPORT
  5
8
330
0
100
AcDbSymbolTable
 70
    1
  0
VPORT
  5
31
330
2
100
AcDbSymbolTableRecord
100
AcDbViewportTableRecord
  2
*ACTIVE
 70
    0
 10
0
 20
0
 11
1
 21
1
 12
312.6404803850271
 22
173.4124605176906
 13
0
 23
0
 14
10
 24
10
 15
10
 25
10
 16
0
 26
0
 36
1
 17
0
 27
0
 37
0
 40
383.9523930000043
 41
2.200471698113208
 42
50
 43
0
 44
0
 50
0
 51
0
 71
    0
 72
  100
 73
    1
 74
    3
 75
    0
 76
    0
 77
    0
 78
    0
281
    0
 65
    1
110
0
120
0
130
0
111
1
121
0
131
0
112
0
122
1
132
0
 79
    0
146
0
348
10020
 60
    7
 61
    5
292
1
282
    1
141
0
142
0
 63
  250
421
3358443
  0
ENDTAB
  0
TABLE
  2
LTYPE
  5
5
330
0
100
AcDbSymbolTable
 70
    4
  0
LTYPE
  5
14
330
5
100
AcDbSymbolTableRecord
100
AcDbLinetypeTableRecord
  2
ByBlock
 70
    0
  3

 72
   65
 73
    0
 40
0
  0
LTYPE
  5
15
330
5
100
AcDbSymbolTableRecord
100
AcDbLinetypeTableRecord
  2
ByLayer
 70
    0
  3

 72
   65
 73
    0
 40
0
  0
LTYPE
  5
16
330
5
100
AcDbSymbolTableRecord
100
AcDbLinetypeTableRecord
  2
Continuous
 70
    0
  3
Solid line
 72
   65
 73
    0
 40
0
  0
LTYPE
  5
32
330
5
100
AcDbSymbolTableRecord
100
AcDbLinetypeTableRecord
  2
DOT
 70
    0
  3
Dot . . . . . . . . . . . . . . . . . . . . . .
 72
   65
 73
    2
 40
6.35
 49
0
 74
    0
 49
-6.35
 74
    0
  0
LTYPE
  5
33
330
5
100
AcDbSymbolTableRecord
100
AcDbLinetypeTableRecord
  2
DOTTINY
 70
    0
  3
Dot (.15x) .....................................
 72
   65
 73
    2
 40
0.9525
 49
0
 74
    0
 49
-0.9525
 74
    0
  0
LTYPE
  5
34
330
5
100
AcDbSymbolTableRecord
100
AcDbLinetypeTableRecord
  2
DOT2
 70
    0
  3
Dot (.5x) .....................................
 72
   65
 73
    2
 40
3.175
 49
0
 74
    0
 49
-3.175
 74
    0
  0
LTYPE
  5
35
330
5
100
AcDbSymbolTableRecord
100
AcDbLinetypeTableRecord
  2
DOTX2
 70
    0
  3
Dot (2x) .  .  .  .  .  .  .  .  .  .  .  .  .
 72
   65
 73
    2
 40
12.7
 49
0
 74
    0
 49
-12.7
 74
    0
  0
LTYPE
  5
36
330
5
100
AcDbSymbolTableRecord
100
AcDbLinetypeTableRecord
  2
DASHED
 70
    0
  3
Dashed _ _ _ _ _ _ _ _ _ _ _ _ _ _ _ _ _
 72
   65
 73
    2
 40
19.05
 49
12.7
 74
    0
 49
-6.35
 74
    0
  0
LTYPE
  5
37
330
5
100
AcDbSymbolTableRecord
100
AcDbLinetypeTableRecord
  2
DASHEDTINY
 70
    0
  3
Dashed (.15x) _ _ _ _ _ _ _ _ _ _ _ _ _ _ _ _ _
 72
   65
 73
    2
 40
2.8575
 49
1.905
 74
    0
 49
-0.9525
 74
    0
  0
LTYPE
  5
38
330
5
100
AcDbSymbolTableRecord
100
AcDbLinetypeTableRecord
  2
DASHED2
 70
    0
  3
Dashed (.5x) _ _ _ _ _ _ _ _ _ _ _ _ _ _ _ _ _
 72
   65
 73
    2
 40
9.524999999999999
 49
6.35
 74
    0
 49
-3.175
 74
    0
  0
LTYPE
  5
39
330
5
100
AcDbSymbolTableRecord
100
AcDbLinetypeTableRecord
  2
DASHEDX2
 70
    0
  3
Dashed (2x) ____  ____  ____  ____  ____  ___
 72
   65
 73
    2
 40
38.09999999999999
 49
25.4
 74
    0
 49
-12.7
 74
    0
  0
LTYPE
  5
3A
330
5
100
AcDbSymbolTableRecord
100
AcDbLinetypeTableRecord
  2
DASHDOT
 70
    0
  3
Dash dot __ . __ . __ . __ . __ . __ . __ . __
 72
   65
 73
    4
 40
25.4
 49
12.7
 74
    0
 49
-6.35
 74
    0
 49
0
 74
    0
 49
-6.35
 74
    0
  0
LTYPE
  5
3B
330
5
100
AcDbSymbolTableRecord
100
AcDbLinetypeTableRecord
  2
DASHDOTTINY
 70
    0
  3
Dash dot (.15x) _._._._._._._._._._._._._._._.
 72
   65
 73
    4
 40
3.81
 49
1.905
 74
    0
 49
-0.9525
 74
    0
 49
0
 74
    0
 49
-0.9525
 74
    0
  0
LTYPE
  5
3C
330
5
100
AcDbSymbolTableRecord
100
AcDbLinetypeTableRecord
  2
DASHDOT2
 70
    0
  3
Dash dot (.5x) _._._._._._._._._._._._._._._.
 72
   65
 73
    4
 40
12.7
 49
6.35
 74
    0
 49
-3.175
 74
    0
 49
0
 74
    0
 49
-3.175
 74
    0
  0
LTYPE
  5
3D
330
5
100
AcDbSymbolTableRecord
100
AcDbLinetypeTableRecord
  2
DASHDOTX2
 70
    0
  3
Dash dot (2x) ____  .  ____  .  ____  .  ___
 72
   65
 73
    4
 40
50.8
 49
25.4
 74
    0
 49
-12.7
 74
    0
 49
0
 74
    0
 49
-12.7
 74
    0
  0
LTYPE
  5
3E
330
5
100
AcDbSymbolTableRecord
100
AcDbLinetypeTableRecord
  2
DIVIDE
 70
    0
  3
Divide ____ . . ____ . . ____ . . ____ . . ____
 72
   65
 73
    6
 40
31.75
 49
12.7
 74
    0
 49
-6.35
 74
    0
 49
0
 74
    0
 49
-6.35
 74
    0
 49
0
 74
    0
 49
-6.35
 74
    0
  0
LTYPE
  5
3F
330
5
100
AcDbSymbolTableRecord
100
AcDbLinetypeTableRecord
  2
DIVIDETINY
 70
    0
  3
Divide (.15x) __..__..__..__..__..__..__..__.._
 72
   65
 73
    6
 40
4.7625
 49
1.905
 74
    0
 49
-0.9525
 74
    0
 49
0
 74
    0
 49
-0.9525
 74
    0
 49
0
 74
    0
 49
-0.9525
 74
    0
  0
LTYPE
  5
40
330
5
100
AcDbSymbolTableRecord
100
AcDbLinetypeTableRecord
  2
DIVIDE2
 70
    0
  3
Divide (.5x) __..__..__..__..__..__..__..__.._
 72
   65
 73
    6
 40
15.875
 49
6.35
 74
    0
 49
-3.175
 74
    0
 49
0
 74
    0
 49
-3.175
 74
    0
 49
0
 74
    0
 49
-3.175
 74
    0
  0
LTYPE
  5
41
330
5
100
AcDbSymbolTableRecord
100
AcDbLinetypeTableRecord
  2
DIVIDEX2
 70
    0
  3
Divide (2x) ________  .  .  ________  .  .  _
 72
   65
 73
    6
 40
63.5
 49
25.4
 74
    0
 49
-12.7
 74
    0
 49
0
 74
    0
 49
-12.7
 74
    0
 49
0
 74
    0
 49
-12.7
 74
    0
  0
LTYPE
  5
42
330
5
100
AcDbSymbolTableRecord
100
AcDbLinetypeTableRecord
  2
BORDER
 70
    0
  3
Border __ __ . __ __ . __ __ . __ __ . __ __ .
 72
   65
 73
    6
 40
44.45
 49
12.7
 74
    0
 49
-6.35
 74
    0
 49
12.7
 74
    0
 49
-6.35
 74
    0
 49
0
 74
    0
 49
-6.35
 74
    0
  0
LTYPE
  5
43
330
5
100
AcDbSymbolTableRecord
100
AcDbLinetypeTableRecord
  2
BORDERTINY
 70
    0
  3
Border (.15x) __.__.__.__.__.__.__.__.__.__.__.
 72
   65
 73
    6
 40
6.6675
 49
1.905
 74
    0
 49
-0.9525
 74
    0
 49
1.905
 74
    0
 49
-0.9525
 74
    0
 49
0
 74
    0
 49
-0.9525
 74
    0
  0
LTYPE
  5
44
330
5
100
AcDbSymbolTableRecord
100
AcDbLinetypeTableRecord
  2
BORDER2
 70
    0
  3
Border (.5x) __.__.__.__.__.__.__.__.__.__.__.
 72
   65
 73
    6
 40
22.225
 49
6.35
 74
    0
 49
-3.175
 74
    0
 49
6.35
 74
    0
 49
-3.175
 74
    0
 49
0
 74
    0
 49
-3.175
 74
    0
  0
LTYPE
  5
45
330
5
100
AcDbSymbolTableRecord
100
AcDbLinetypeTableRecord
  2
BORDERX2
 70
    0
  3
Border (2x) ____  ____  .  ____  ____  .  ___
 72
   65
 73
    6
 40
88.89999999999999
 49
25.4
 74
    0
 49
-12.7
 74
    0
 49
25.4
 74
    0
 49
-12.7
 74
    0
 49
0
 74
    0
 49
-12.7
 74
    0
  0
LTYPE
  5
46
330
5
100
AcDbSymbolTableRecord
100
AcDbLinetypeTableRecord
  2
CENTER
 70
    0
  3
Center ____ _ ____ _ ____ _ ____ _ ____ _ ____
 72
   65
 73
    4
 40
50.8
 49
31.75
 74
    0
 49
-6.35
 74
    0
 49
6.35
 74
    0
 49
-6.35
 74
    0
  0
LTYPE
  5
47
330
5
100
AcDbSymbolTableRecord
100
AcDbLinetypeTableRecord
  2
CENTERTINY
 70
    0
  3
Center (.15x) ___ _ ___ _ ___ _ ___ _ ___ _ ___
 72
   65
 73
    4
 40
7.62
 49
4.7625
 74
    0
 49
-0.9525
 74
    0
 49
0.9525
 74
    0
 49
-0.9525
 74
    0
  0
LTYPE
  5
48
330
5
100
AcDbSymbolTableRecord
100
AcDbLinetypeTableRecord
  2
CENTER2
 70
    0
  3
Center (.5x) ___ _ ___ _ ___ _ ___ _ ___ _ ___
 72
   65
 73
    4
 40
28.575
 49
19.05
 74
    0
 49
-3.175
 74
    0
 49
3.175
 74
    0
 49
-3.175
 74
    0
  0
LTYPE
  5
49
330
5
100
AcDbSymbolTableRecord
100
AcDbLinetypeTableRecord
  2
CENTERX2
 70
    0
  3
Center (2x) ________  __  ________  __  _____
 72
   65
 73
    4
 40
101.6
 49
63.5
 74
    0
 49
-12.7
 74
    0
 49
12.7
 74
    0
 49
-12.7
 74
    0
  0
ENDTAB
  0
TABLE
  2
LAYER
  5
2
330
0
100
AcDbSymbolTable
 70
    1
  0
LAYER
  5
10
330
2
100
AcDbSymbolTableRecord
100
AcDbLayerTableRecord
  2
0
 70
    0
 62
    7
  6
CONTINUOUS
370
   -3
390
F
  0
LAYER
  5
4A
330
2
100
AcDbSymbolTableRecord
100
AcDbLayerTableRecord
  2
Bemaßung (ISO)
 70
    0
 62
    7
  6
CONTINUOUS
370
    9
390
F
  0
LAYER
  5
4B
330
2
100
AcDbSymbolTableRecord
100
AcDbLayerTableRecord
  2
Defpoints
 70
    0
 62
    7
  6
CONTINUOUS
290
0
370
   -3
390
F
  0
LAYER
  5
4C
330
2
100
AcDbSymbolTableRecord
100
AcDbLayerTableRecord
  2
Mittelpunktmarkierung (ISO)
 70
    0
 62
    1
  6
CONTINUOUS
370
    9
390
F
  0
LAYER
  5
4D
330
2
100
AcDbSymbolTableRecord
100
AcDbLayerTableRecord
  2
Schnittlinie (ISO)
 70
    0
 62
    5
  6
CONTINUOUS
370
   50
390
F
  0
LAYER
  5
4E
330
2
100
AcDbSymbolTableRecord
100
AcDbLayerTableRecord
  2
Schraffur
 70
    0
 62
    1
  6
CONTINUOUS
370
    9
390
F
  0
LAYER
  5
4F
330
2
100
AcDbSymbolTableRecord
100
AcDbLayerTableRecord
  2
Schraffur (ISO)
 70
    0
 62
    6
  6
CONTINUOUS
370
    9
390
F
  0
LAYER
  5
50
330
2
100
AcDbSymbolTableRecord
100
AcDbLayerTableRecord
  2
Sichtbar (ISO)
 70
    0
 62
    7
  6
CONTINUOUS
370
   25
390
F
  0
LAYER
  5
51
330
2
100
AcDbSymbolTableRecord
100
AcDbLayerTableRecord
  2
Skizziergeometrie (ISO)
 70
    0
 62
    7
  6
CONTINUOUS
370
   18
390
F
  0
LAYER
  5
52
330
2
100
AcDbSymbolTableRecord
100
AcDbLayerTableRecord
  2
Skizziergeometrie(DIN)
 70
    0
 62
  179
420
2500185
  6
CONTINUOUS
370
   35
390
F
  0
LAYER
  5
53
330
2
100
AcDbSymbolTableRecord
100
AcDbLayerTableRecord
  2
Symbol (ISO)
 70
    0
 62
    5
  6
CONTINUOUS
370
    9
390
F
  0
LAYER
  5
54
330
2
100
AcDbSymbolTableRecord
100
AcDbLayerTableRecord
  2
Symbole(DIN)
 70
    0
 62
    7
  6
CONTINUOUS
370
   18
390
F
  0
LAYER
  5
55
330
2
100
AcDbSymbolTableRecord
100
AcDbLayerTableRecord
  2
Verdeckt (ISO)
 70
    0
 62
    1
  6
CONTINUOUS
370
    9
390
F
  0
ENDTAB
  0
TABLE
  2
STYLE
  5
3
330
0
100
AcDbSymbolTable
 70
    3
  0
STYLE
  5
56
330
2
100
AcDbSymbolTableRecord
100
AcDbTextStyleTableRecord
  2
aktuell-din
 70
    0
 40
0
 41
1
 50
0
 71
    0
 42
1
  3
aktuell-din
  4

  0
STYLE
  5
57
330
2
100
AcDbSymbolTableRecord
100
AcDbTextStyleTableRecord
  2
notiztext (din)
 70
    0
 40
0
 41
1
 50
0
 71
    0
 42
1
  3
notiztext (din)
  4

  0
STYLE
  5
58
330
2
100
AcDbSymbolTableRecord
100
AcDbTextStyleTableRecord
  2
bezeichnungstext (din)
 70
    0
 40
0
 41
1
 50
0
 71
    0
 42
1
  3
bezeichnungstext (din)
  4

  0
STYLE
  5
59
330
2
100
AcDbSymbolTableRecord
100
AcDbTextStyleTableRecord
  2
Standard
 70
    0
 40
0
 41
1
 50
0
 71
    0
 42
1
  3
txt
  4

  0
ENDTAB
  0
TABLE
  2
VIEW
  5
6
330
0
100
AcDbSymbolTable
 70
    0
  0
ENDTAB
  0
TABLE
  2
UCS
  5
7
330
0
100
AcDbSymbolTable
 70
    0
  0
ENDTAB
  0
TABLE
  2
APPID
  5
9
330
0
100
AcDbSymbolTable
 70
    1
  0
APPID
  5
12
330
9
100
AcDbSymbolTableRecord
100
AcDbRegAppTableRecord
  2
ACAD
 70
    0
  0
APPID
  5
5A
330
9
100
AcDbSymbolTableRecord
100
AcDbRegAppTableRecord
  2
LibreCad
 70
    0
  0
ENDTAB
  0
TABLE
  2
DIMSTYLE
  5
A
330
0
100
AcDbSymbolTable
 70
    1
100
AcDbDimStyleTable
 71
    1
  0
DIMSTYLE
105
5B
330
A
100
AcDbSymbolTableRecord
100
AcDbDimStyleTableRecord
  2
Standard
 70
    0
 40
1
 41
0.18
 42
0.0625
 43
0.38
 44
0.18
 45
0
 46
0
 47
0
 48
0
 49
1
140
0.18
141
0.09
142
0
143
25.4
144
1
145
0
146
1
147
0.09
148
0
 71
    0
 72
    0
 73
    1
 74
    1
 75
    0
 76
    0
 77
    0
 78
    0
 79
    0
170
    0
171
    2
172
    0
173
    0
174
    0
175
    0
176
    0
177
    0
178
    0
179
    0
271
    4
272
    4
273
    2
274
    2
275
    0
276
    0
277
    2
278
   46
279
    0
280
    0
281
    0
282
    0
283
    1
284
    0
285
    0
286
    0
288
    0
289
    3
340
Standard
341

371
   -2
372
   -2
  0
ENDTAB
  0
TABLE
  2
BLOCK_RECORD
  5
1
330
0
100
AcDbSymbolTable
 70
    2
  0
BLOCK_RECORD
  5
1F
330
1
100
AcDbSymbolTableRecord
100
AcDbBlockTableRecord
  2
*Model_Space
 70
    0
280
    1
281
    0
  0
BLOCK_RECORD
  5
1E
330
1
100
AcDbSymbolTableRecord
100
AcDbBlockTableRecord
  2
*Paper_Space
 70
    0
280
    1
281
    0
  0
BLOCK_RECORD
  5
5C
330
1
100
AcDbSymbolTableRecord
100
AcDbBlockTableRecord
  2
*D13
 70
    0
280
    1
281
    0
  0
BLOCK_RECORD
  5
5F
330
1
100
AcDbSymbolTableRecord
100
AcDbBlockTableRecord
  2
*D8
 70
    0
280
    1
281
    0
  0
BLOCK_RECORD
  5
62
330
1
100
AcDbSymbolTableRecord
100
AcDbBlockTableRecord
  2
*D16
 70
    0
280
    1
281
    0
  0
BLOCK_RECORD
  5
65
330
1
100
AcDbSymbolTableRecord
100
AcDbBlockTableRecord
  2
*D6
 70
    0
280
    1
281
    0
  0
BLOCK_RECORD
  5
68
330
1
100
AcDbSymbolTableRecord
100
AcDbBlockTableRecord
  2
*D22
 70
    0
280
    1
281
    0
  0
BLOCK_RECORD
  5
6B
330
1
100
AcDbSymbolTableRecord
100
AcDbBlockTableRecord
  2
*D11
 70
    0
280
    1
281
    0
  0
BLOCK_RECORD
  5
6E
330
1
100
AcDbSymbolTableRecord
100
AcDbBlockTableRecord
  2
*D5
 70
    0
280
    1
281
    0
  0
BLOCK_RECORD
  5
71
330
1
100
AcDbSymbolTableRecord
100
AcDbBlockTableRecord
  2
*D7
 70
    0
280
    1
281
    0
  0
BLOCK_RECORD
  5
74
330
1
100
AcDbSymbolTableRecord
100
AcDbBlockTableRecord
  2
*D2
 70
    0
280
    1
281
    0
  0
BLOCK_RECORD
  5
77
330
1
100
AcDbSymbolTableRecord
100
AcDbBlockTableRecord
  2
*D19
 70
    0
280
    1
281
    0
  0
BLOCK_RECORD
  5
7A
330
1
100
AcDbSymbolTableRecord
100
AcDbBlockTableRecord
  2
*D12
 70
    0
280
    1
281
    0
  0
BLOCK_RECORD
  5
7D
330
1
100
AcDbSymbolTableRecord
100
AcDbBlockTableRecord
  2
*D21
 70
    0
280
    1
281
    0
  0
BLOCK_RECORD
  5
80
330
1
100
AcDbSymbolTableRecord
100
AcDbBlockTableRecord
  2
*D20
 70
    0
280
    1
281
    0
  0
BLOCK_RECORD
  5
83
330
1
100
AcDbSymbolTableRecord
100
AcDbBlockTableRecord
  2
*D4
 70
    0
280
    1
281
    0
  0
BLOCK_RECORD
  5
86
330
1
100
AcDbSymbolTableRecord
100
AcDbBlockTableRecord
  2
*D18
 70
    0
280
    1
281
    0
  0
BLOCK_RECORD
  5
89
330
1
100
AcDbSymbolTableRecord
100
AcDbBlockTableRecord
  2
*D1
 70
    0
280
    1
281
    0
  0
BLOCK_RECORD
  5
8C
330
1
100
AcDbSymbolTableRecord
100
AcDbBlockTableRecord
  2
*D3
 70
    0
280
    1
281
    0
  0
BLOCK_RECORD
  5
8F
330
1
100
AcDbSymbolTableRecord
100
AcDbBlockTableRecord
  2
*D10
 70
    0
280
    1
281
    0
  0
BLOCK_RECORD
  5
92
330
1
100
AcDbSymbolTableRecord
100
AcDbBlockTableRecord
  2
*D17
 70
    0
280
    1
281
    0
  0
BLOCK_RECORD
  5
95
330
1
100
AcDbSymbolTableRecord
100
AcDbBlockTableRecord
  2
*D24
 70
    0
280
    1
281
    0
  0
BLOCK_RECORD
  5
98
330
1
100
AcDbSymbolTableRecord
100
AcDbBlockTableRecord
  2
*D9
 70
    0
280
    1
281
    0
  0
BLOCK_RECORD
  5
9B
330
1
100
AcDbSymbolTableRecord
100
AcDbBlockTableRecord
  2
*D14
 70
    0
280
    1
281
    0
  0
BLOCK_RECORD
  5
9E
330
1
100
AcDbSymbolTableRecord
100
AcDbBlockTableRecord
  2
*D15
 70
    0
280
    1
281
    0
  0
BLOCK_RECORD
  5
A1
330
1
100
AcDbSymbolTableRecord
100
AcDbBlockTableRecord
  2
*D23
 70
    0
280
    1
281
    0
  0
BLOCK_RECORD
  5
A4
330
1
100
AcDbSymbolTableRecord
100
AcDbBlockTableRecord
  2
Filled-1
 70
    0
280
    1
281
    0
  0
BLOCK_RECORD
  5
A7
330
1
100
AcDbSymbolTableRecord
100
AcDbBlockTableRecord
  2
DatumFilled45
 70
    0
280
    1
281
    0
  0
BLOCK_RECORD
  5
AA
330
1
100
AcDbSymbolTableRecord
100
AcDbBlockTableRecord
  2
Glasbearbeitung
 70
    0
280
    1
281
    0
  0
BLOCK_RECORD
  5
AD
330
1
100
AcDbSymbolTableRecord
100
AcDbBlockTableRecord
  2
unbemaßte_Kanten
 70
    0
280
    1
281
    0
  0
BLOCK_RECORD
  5
B0
330
1
100
AcDbSymbolTableRecord
100
AcDbBlockTableRecord
  2
Schleifrichtung
 70
    0
280
    1
281
    0
  0
BLOCK_RECORD
  5
B3
330
1
100
AcDbSymbolTableRecord
100
AcDbBlockTableRecord
  2
Senkung DIN 974-1 für Zylinderkopfschrauben
 70
    0
280
    1
281
    0
  0
BLOCK_RECORD
  5
B6
330
1
100
AcDbSymbolTableRecord
100
AcDbBlockTableRecord
  2
Senkung DIN 74-1 B (f) f. Senkschrauben
 70
    0
280
    1
281
    0
  0
BLOCK_RECORD
  5
B9
330
1
100
AcDbSymbolTableRecord
100
AcDbBlockTableRecord
  2
Rz4(Rz16)
 70
    0
280
    1
281
    0
  0
BLOCK_RECORD
  5
BC
330
1
100
AcDbSymbolTableRecord
100
AcDbBlockTableRecord
  2
Rz16(Rz4)
 70
    0
280
    1
281
    0
  0
BLOCK_RECORD
  5
BF
330
1
100
AcDbSymbolTableRecord
100
AcDbBlockTableRecord
  2
unbemaßte_Kanten 0_5
 70
    0
280
    1
281
    0
  0
BLOCK_RECORD
  5
C2
330
1
100
AcDbSymbolTableRecord
100
AcDbBlockTableRecord
  2
unbemaßte_Kanten 1
 70
    0
280
    1
281
    0
  0
BLOCK_RECORD
  5
C5
330
1
100
AcDbSymbolTableRecord
100
AcDbBlockTableRecord
  2
Schleifrichtung rund
 70
    0
280
    1
281
    0
  0
BLOCK_RECORD
  5
C8
330
1
100
AcDbSymbolTableRecord
100
AcDbBlockTableRecord
  2
Prototyp
 70
    0
280
    1
281
    0
  0
BLOCK_RECORD
  5
CB
330
1
100
AcDbSymbolTableRecord
100
AcDbBlockTableRecord
  2
Freigabe
 70
    0
280
    1
281
    0
  0
BLOCK_RECORD
  5
CE
330
1
100
AcDbSymbolTableRecord
100
AcDbBlockTableRecord
  2
Freigabe(Englisch)
 70
    0
280
    1
281
    0
  0
BLOCK_RECORD
  5
D1
330
1
100
AcDbSymbolTableRecord
100
AcDbBlockTableRecord
  2
Freigabe(Französisch)
 70
    0
280
    1
281
    0
  0
BLOCK_RECORD
  5
D4
330
1
100
AcDbSymbolTableRecord
100
AcDbBlockTableRecord
  2
Freigabe(Spanisch)
 70
    0
280
    1
281
    0
  0
BLOCK_RECORD
  5
D7
330
1
100
AcDbSymbolTableRecord
100
AcDbBlockTableRecord
  2
Schleifrichtung 30°
 70
    0
280
    1
281
    0
  0
BLOCK_RECORD
  5
DA
330
1
100
AcDbSymbolTableRecord
100
AcDbBlockTableRecord
  2
Schleifrichtung 60°
 70
    0
280
    1
281
    0
  0
BLOCK_RECORD
  5
DD
330
1
100
AcDbSymbolTableRecord
100
AcDbBlockTableRecord
  2
Schleifrichtung 40°
 70
    0
280
    1
281
    0
  0
BLOCK_RECORD
  5
E0
330
1
100
AcDbSymbolTableRecord
100
AcDbBlockTableRecord
  2
Schleifrichtung 90°
 70
    0
280
    1
281
    0
  0
BLOCK_RECORD
  5
E3
330
1
100
AcDbSymbolTableRecord
100
AcDbBlockTableRecord
  2
Schleifrichtung 20°
 70
    0
280
    1
281
    0
  0
BLOCK_RECORD
  5
E6
330
1
100
AcDbSymbolTableRecord
100
AcDbBlockTableRecord
  2
Schleifrichtung 15°
 70
    0
280
    1
281
    0
  0
BLOCK_RECORD
  5
E9
330
1
100
AcDbSymbolTableRecord
100
AcDbBlockTableRecord
  2
Schleifrichtung -30°
 70
    0
280
    1
281
    0
  0
BLOCK_RECORD
  5
EC
330
1
100
AcDbSymbolTableRecord
100
AcDbBlockTableRecord
  2
Schleifrichtung -15°
 70
    0
280
    1
281
    0
  0
BLOCK_RECORD
  5
EF
330
1
100
AcDbSymbolTableRecord
100
AcDbBlockTableRecord
  2
Schleifrichtung -40°
 70
    0
280
    1
281
    0
  0
BLOCK_RECORD
  5
F2
330
1
100
AcDbSymbolTableRecord
100
AcDbBlockTableRecord
  2
Schleifrichtung -60°
 70
    0
280
    1
281
    0
  0
BLOCK_RECORD
  5
F5
330
1
100
AcDbSymbolTableRecord
100
AcDbBlockTableRecord
  2
Schleifrichtung -50°
 70
    0
280
    1
281
    0
  0
BLOCK_RECORD
  5
F8
330
1
100
AcDbSymbolTableRecord
100
AcDbBlockTableRecord
  2
Flächen Galvanik
 70
    0
280
    1
281
    0
  0
BLOCK_RECORD
  5
FB
330
1
100
AcDbSymbolTableRecord
100
AcDbBlockTableRecord
  2
Duschenglas 8mm
 70
    0
280
    1
281
    0
  0
BLOCK_RECORD
  5
FE
330
1
100
AcDbSymbolTableRecord
100
AcDbBlockTableRecord
  2
Außerhalb der AbZ 85
 70
    0
280
    1
281
    0
  0
BLOCK_RECORD
  5
101
330
1
100
AcDbSymbolTableRecord
100
AcDbBlockTableRecord
  2
Duschenglas 6mm
 70
    0
280
    1
281
    0
  0
BLOCK_RECORD
  5
104
330
1
100
AcDbSymbolTableRecord
100
AcDbBlockTableRecord
  2
unbemaßte Kanten R_0_2 runden
 70
    0
280
    1
281
    0
  0
BLOCK_RECORD
  5
107
330
1
100
AcDbSymbolTableRecord
100
AcDbBlockTableRecord
  2
Prüfzertifikat nach DIN EN 10204 (3.1) erforderlich
 70
    0
280
    1
281
    0
  0
BLOCK_RECORD
  5
10A
330
1
100
AcDbSymbolTableRecord
100
AcDbBlockTableRecord
  2
Reinigen
 70
    0
280
    1
281
    0
  0
BLOCK_RECORD
  5
10D
330
1
100
AcDbSymbolTableRecord
100
AcDbBlockTableRecord
  2
Schleifrichtung rund-2
 70
    0
280
    1
281
    0
  0
BLOCK_RECORD
  5
110
330
1
100
AcDbSymbolTableRecord
100
AcDbBlockTableRecord
  2
EPDM-washer
 70
    0
280
    1
281
    0
  0
BLOCK_RECORD
  5
113
330
1
100
AcDbSymbolTableRecord
100
AcDbBlockTableRecord
  2
isometric view
 70
    0
280
    1
281
    0
  0
BLOCK_RECORD
  5
116
330
1
100
AcDbSymbolTableRecord
100
AcDbBlockTableRecord
  2
glazing
 70
    0
280
    1
281
    0
  0
BLOCK_RECORD
  5
119
330
1
100
AcDbSymbolTableRecord
100
AcDbBlockTableRecord
  2
countersink screw EN ISO A2
 70
    0
280
    1
281
    0
  0
BLOCK_RECORD
  5
11C
330
1
100
AcDbSymbolTableRecord
100
AcDbBlockTableRecord
  2
cylinder head screw EN ISO A2
 70
    0
280
    1
281
    0
  0
BLOCK_RECORD
  5
11F
330
1
100
AcDbSymbolTableRecord
100
AcDbBlockTableRecord
  2
P+S glass clamp
 70
    0
280
    1
281
    0
  0
BLOCK_RECORD
  5
122
330
1
100
AcDbSymbolTableRecord
100
AcDbBlockTableRecord
  2
2DTransSchnitt0
 70
    0
280
    1
281
    0
  0
ENDTAB
  0
ENDSEC
  0
SECTION
  2
BLOCKS
  0
BLOCK
  5
20
330
1F
100
AcDbEntity
  8
0
100
AcDbBlockBegin
  2
*Model_Space
 70
    0
 10
0
 20
0
 30
0
  3
*Model_Space
  1

  0
ENDBLK
  5
21
330
1F
100
AcDbEntity
  8
0
100
AcDbBlockEnd
  0
BLOCK
  5
1C
330
1B
100
AcDbEntity
  8
0
100
AcDbBlockBegin
  2
*Paper_Space
 70
    0
 10
0
 20
0
 30
0
  3
*Paper_Space
  1

  0
ENDBLK
  5
1D
330
1F
100
AcDbEntity
  8
0
100
AcDbBlockEnd
  0
BLOCK
  5
5D
330
5C
100
AcDbEntity
  8
0
100
AcDbBlockBegin
  2
*D13
 70
    1
 10
0
 20
0
  3
*D13
  1

  0
LINE
  5
125
100
AcDbEntity
  8
Bemaßung (ISO)
  6
ByBlock
 62
    0
370
   -2
100
AcDbLine
 10
97.37662438646026
 20
205.4452688413179
 11
97.37662438646026
 21
194.6252688413179
  0
SOLID
  5
126
100
AcDbEntity
  8
Bemaßung (ISO)
  6
ByBlock
 62
    0
370
   -2
100
AcDbTrace
 10
97.37662438646026
 20
205.4452688413179
 30
0
 11
97.40659688181991
 21
205.2652688413179
 31
0
 12
97.34665189110062
 22
205.2652688413179
 32
0
 13
97.34665189110062
 23
205.2652688413179
 33
0
  0
SOLID
  5
127
100
AcDbEntity
  8
Bemaßung (ISO)
  6
ByBlock
 62
    0
370
   -2
100
AcDbTrace
 10
97.37662438646026
 20
183.4452688413178
 30
0
 11
97.34665189110062
 21
183.6252688413178
 31
0
 12
97.40659688181991
 22
183.6252688413178
 32
0
 13
97.40659688181991
 23
183.6252688413178
 33
0
  0
LINE
  5
128
100
AcDbEntity
  8
Bemaßung (ISO)
  6
ByBlock
 62
    0
370
   -2
100
AcDbLine
 10
97.37662438646026
 20
194.2652688413179
 11
97.37662438646026
 21
183.4452688413178
  0
MTEXT
  5
129
100
AcDbEntity
  8
Bemaßung (ISO)
  6
CONTINUOUS
 62
    0
370
   -2
100
AcDbMText
 10
97.37662438646028
 20
194.4452688413179
 30
0
 40
0.18
 41
0.8400000000000001
 71
    5
 72
    1
  1
22.0000
  7
Standard
210
0
220
0
230
1
 50
0
 73
    2
 44
1
  0
LINE
  5
12A
100
AcDbEntity
  8
Bemaßung (ISO)
  6
ByBlock
 62
    0
370
   -2
100
AcDbLine
 10
152.7188473638878
 20
205.4452688413179
 11
97.19662438646026
 21
205.4452688413179
  0
LINE
  5
12B
100
AcDbEntity
  8
Bemaßung (ISO)
  6
ByBlock
 62
    0
370
   -2
100
AcDbLine
 10
152.7188473638878
 20
183.4452688413178
 11
97.19662438646026
 21
183.4452688413178
  0
ENDBLK
  5
5E
330
5C
100
AcDbEntity
  8
0
100
AcDbBlockEnd
  0
BLOCK
  5
60
330
5F
100
AcDbEntity
  8
0
100
AcDbBlockBegin
  2
*D8
 70
    1
 10
0
 20
0
  3
*D8
  1

  0
LINE
  5
12C
100
AcDbEntity
  8
Bemaßung (ISO)
  6
ByBlock
 62
    0
370
   -2
100
AcDbLine
 10
295.6206975770148
 20
122.5973174296605
 11
295.6206975770148
 21
105.7773174296605
  0
SOLID
  5
12D
100
AcDbEntity
  8
Bemaßung (ISO)
  6
ByBlock
 62
    0
370
   -2
100
AcDbTrace
 10
295.6206975770148
 20
122.5973174296605
 30
0
 11
295.6506700723745
 21
122.4173174296605
 31
0
 12
295.5907250816552
 22
122.4173174296605
 32
0
 13
295.5907250816552
 23
122.4173174296605
 33
0
  0
SOLID
  5
12E
100
AcDbEntity
  8
Bemaßung (ISO)
  6
ByBlock
 62
    0
370
   -2
100
AcDbTrace
 10
295.6206975770148
 20
88.59731742966046
 30
0
 11
295.5907250816552
 21
88.77731742966047
 31
0
 12
295.6506700723745
 22
88.77731742966047
 32
0
 13
295.6506700723745
 23
88.77731742966047
 33
0
  0
LINE
  5
12F
100
AcDbEntity
  8
Bemaßung (ISO)
  6
ByBlock
 62
    0
370
   -2
100
AcDbLine
 10
295.6206975770148
 20
105.4173174296605
 11
295.6206975770148
 21
88.59731742966046
  0
MTEXT
  5
130
100
AcDbEntity
  8
Bemaßung (ISO)
  6
CONTINUOUS
 62
    0
370
   -2
100
AcDbMText
 10
295.6206975770147
 20
105.5973174296605
 30
0
 40
0.18
 41
0.8600000000000112
 71
    5
 72
    1
  1
34.0000
  7
Standard
210
0
220
0
230
1
 50
0
 73
    2
 44
1
  0
LINE
  5
131
100
AcDbEntity
  8
Bemaßung (ISO)
  6
ByBlock
 62
    0
370
   -2
100
AcDbLine
 10
278.1831975770148
 20
122.5973174296605
 11
295.8006975770148
 21
122.5973174296605
  0
LINE
  5
132
100
AcDbEntity
  8
Bemaßung (ISO)
  6
ByBlock
 62
    0
370
   -2
100
AcDbLine
 10
278.1831975770148
 20
88.59731742966046
 11
295.8006975770148
 21
88.59731742966046
  0
ENDBLK
  5
61
330
5F
100
AcDbEntity
  8
0
100
AcDbBlockEnd
  0
BLOCK
  5
63
330
62
100
AcDbEntity
  8
0
100
AcDbBlockBegin
  2
*D16
 70
    1
 10
0
 20
0
  3
*D16
  1

  0
LINE
  5
133
100
AcDbEntity
  8
Bemaßung (ISO)
  6
ByBlock
 62
    0
370
   -2
100
AcDbLine
 10
282.4938458084189
 20
287.6577672858459
 11
290.0920204014697
 21
280.0595926927951
  0
SOLID
  5
134
100
AcDbEntity
  8
Bemaßung (ISO)
  6
ByBlock
 62
    0
370
   -2
100
AcDbTrace
 10
282.4938458084189
 20
287.6577672858459
 30
0
 11
282.6423187837504
 21
287.5516818199501
 31
0
 12
282.5999312743147
 22
287.5092943105144
 32
0
 13
282.5999312743147
 23
287.5092943105144
 33
0
  0
SOLID
  5
135
100
AcDbEntity
  8
Bemaßung (ISO)
  6
ByBlock
 62
    0
370
   -2
100
AcDbTrace
 10
298.0501949945204
 20
272.1014180997444
 30
0
 11
297.901722019189
 21
272.2075035656401
 31
0
 12
297.9441095286247
 22
272.2498910750758
 32
0
 13
297.9441095286247
 23
272.2498910750758
 33
0
  0
LINE
  5
136
100
AcDbEntity
  8
Bemaßung (ISO)
  6
ByBlock
 62
    0
370
   -2
100
AcDbLine
 10
290.4520204014697
 20
279.6995926927951
 11
298.0501949945204
 21
272.1014180997444
  0
MTEXT
  5
137
100
AcDbEntity
  8
Bemaßung (ISO)
  6
CONTINUOUS
 62
    0
370
   -2
100
AcDbMText
 10
290.2720204014697
 20
279.8795926927951
 30
0
 40
0.18
 41
0.8400000000000001
 71
    5
 72
    1
  1
22.0000
  7
Standard
210
0
220
0
230
1
 50
0
 73
    2
 44
1
  0
LINE
  5
138
100
AcDbEntity
  8
Bemaßung (ISO)
  6
ByBlock
 62
    0
370
   -2
100
AcDbLine
 10
250.0296179385689
 20
255.1935394159957
 11
282.6211250290325
 21
287.7850465064594
  0
LINE
  5
139
100
AcDbEntity
  8
Bemaßung (ISO)
  6
ByBlock
 62
    0
370
   -2
100
AcDbLine
 10
265.5859671246671
 20
239.637190229891
 11
298.177474215134
 21
272.2286973203579
  0
ENDBLK
  5
64
330
62
100
AcDbEntity
  8
0
100
AcDbBlockEnd
  0
BLOCK
  5
66
330
65
100
AcDbEntity
  8
0
100
AcDbBlockBegin
  2
*D6
 70
    1
 10
0
 20
0
  3
*D6
  1

  0
SOLID
  5
13A
100
AcDbEntity
  8
Bemaßung (ISO)
  6
ByBlock
 62
    0
370
   -2
100
AcDbTrace
 10
271.2567365463349
 20
128.9612784603384
 30
0
 11
271.4052095216663
 21
128.8551929944427
 31
0
 12
271.3628220122306
 22
128.8128054850069
 32
0
 13
271.3628220122306
 23
128.8128054850069
 33
0
  0
LINE
  5
13B
100
AcDbEntity
  8
Bemaßung (ISO)
  6
ByBlock
 62
    0
370
   -2
100
AcDbLine
 10
277.6206975770147
 20
122.5973174296605
 11
271.2567365463349
 21
128.9612784603384
  0
MTEXT
  5
13C
100
AcDbEntity
  8
Bemaßung (ISO)
  6
CONTINUOUS
 62
    0
370
   -2
100
AcDbMText
 10
263.3988556761289
 20
140.6582523605161
 30
0
 40
0.18
 41
0.7000000000000113
 71
    5
 72
    1
  1
9.0000
  7
Standard
210
0
220
0
230
1
 50
315.0000000000087
 73
    2
 44
1
  0
ENDBLK
  5
67
330
65
100
AcDbEntity
  8
0
100
AcDbBlockEnd
  0
BLOCK
  5
69
330
68
100
AcDbEntity
  8
0
100
AcDbBlockBegin
  2
*D22
 70
    1
 10
0
 20
0
  3
*D22
  1

  0
LINE
  5
13D
100
AcDbEntity
  8
Bemaßung (ISO)
  6
ByBlock
 62
    0
370
   -2
100
AcDbLine
 10
278.2696950122007
 20
226.8650739947094
 11
250.382902472639
 21
198.9782814551468
  0
SOLID
  5
13E
100
AcDbEntity
  8
Bemaßung (ISO)
  6
ByBlock
 62
    0
370
   -2
100
AcDbTrace
 10
278.2696950122007
 20
226.8650739947094
 30
0
 11
278.163609546305
 21
226.7166010193779
 31
0
 12
278.1212220368693
 22
226.7589885288137
 32
0
 13
278.1212220368693
 23
226.7589885288137
 33
0
  0
SOLID
  5
13F
100
AcDbEntity
  8
Bemaßung (ISO)
  6
ByBlock
 62
    0
370
   -2
100
AcDbTrace
 10
222.1219677974536
 20
170.7173467799605
 30
0
 11
222.2280532633493
 21
170.8658197552919
 31
0
 12
222.270440772785
 22
170.8234322458562
 32
0
 13
222.270440772785
 23
170.8234322458562
 33
0
  0
LINE
  5
140
100
AcDbEntity
  8
Bemaßung (ISO)
  6
ByBlock
 62
    0
370
   -2
100
AcDbLine
 10
250.022902472639
 20
198.6182814551468
 11
222.1219677974536
 21
170.7173467799605
  0
MTEXT
  5
141
100
AcDbEntity
  8
Bemaßung (ISO)
  6
CONTINUOUS
 62
    0
370
   -2
100
AcDbMText
 10
250.202902472639
 20
198.7982814551468
 30
0
 40
0.18
 41
0.88
 71
    5
 72
    1
  1
79.4049
  7
Standard
210
0
220
0
230
1
 50
0
 73
    2
 44
1
  0
LINE
  5
142
100
AcDbEntity
  8
Bemaßung (ISO)
  6
ByBlock
 62
    0
370
   -2
100
AcDbLine
 10
265.5859671246671
 20
239.5488018822426
 11
278.3969742328143
 21
226.7377947740958
  0
LINE
  5
143
100
AcDbEntity
  8
Bemaßung (ISO)
  6
ByBlock
 62
    0
370
   -2
100
AcDbLine
 10
209.43823990992
 20
183.4010746674937
 11
222.2492470180672
 21
170.5900675593469
  0
ENDBLK
  5
6A
330
68
100
AcDbEntity
  8
0
100
AcDbBlockEnd
  0
BLOCK
  5
6C
330
6B
100
AcDbEntity
  8
0
100
AcDbBlockBegin
  2
*D11
 70
    1
 10
0
 20
0
  3
*D11
  1

  0
LINE
  5
144
100
AcDbEntity
  8
Bemaßung (ISO)
  6
ByBlock
 62
    0
370
   -2
100
AcDbLine
 10
320.6206975770147
 20
162.6485129181791
 11
316.5606975770148
 21
162.6485129181791
  0
SOLID
  5
145
100
AcDbEntity
  8
Bemaßung (ISO)
  6
ByBlock
 62
    0
370
   -2
100
AcDbTrace
 10
320.6206975770147
 20
162.6485129181791
 30
0
 11
320.4406975770147
 21
162.6185404228194
 31
0
 12
320.4406975770147
 22
162.6784854135388
 32
0
 13
320.4406975770147
 23
162.6784854135388
 33
0
  0
SOLID
  5
146
100
AcDbEntity
  8
Bemaßung (ISO)
  6
ByBlock
 62
    0
370
   -2
100
AcDbTrace
 10
311.6206975770148
 20
162.6485129181791
 30
0
 11
311.8006975770148
 21
162.6784854135388
 31
0
 12
311.8006975770148
 22
162.6185404228194
 32
0
 13
311.8006975770148
 23
162.6185404228194
 33
0
  0
LINE
  5
147
100
AcDbEntity
  8
Bemaßung (ISO)
  6
ByBlock
 62
    0
370
   -2
100
AcDbLine
 10
315.6806975770148
 20
162.6485129181791
 11
311.6206975770148
 21
162.6485129181791
  0
MTEXT
  5
148
100
AcDbEntity
  8
Bemaßung (ISO)
  6
CONTINUOUS
 62
    0
370
   -2
100
AcDbMText
 10
316.1206975770148
 20
162.6485129181791
 30
0
 40
0.18
 41
0.7000000000000113
 71
    5
 72
    1
  1
9.0000
  7
Standard
210
0
220
0
230
1
 50
0
 73
    2
 44
1
  0
LINE
  5
149
100
AcDbEntity
  8
Bemaßung (ISO)
  6
ByBlock
 62
    0
370
   -2
100
AcDbLine
 10
320.6206975770147
 20
155.6598174296604
 11
320.6206975770147
 21
162.8285129181791
  0
LINE
  5
14A
100
AcDbEntity
  8
Bemaßung (ISO)
  6
ByBlock
 62
    0
370
   -2
100
AcDbLine
 10
311.6206975770148
 20
155.6598174296604
 11
311.6206975770148
 21
162.8285129181791
  0
ENDBLK
  5
6D
330
6B
100
AcDbEntity
  8
0
100
AcDbBlockEnd
  0
BLOCK
  5
6F
330
6E
100
AcDbEntity
  8
0
100
AcDbBlockBegin
  2
*D5
 70
    1
 10
0
 20
0
  3
*D5
  1

  0
SOLID
  5
14B
100
AcDbEntity
  8
Bemaßung (ISO)
  6
ByBlock
 62
    0
370
   -2
100
AcDbTrace
 10
372.277551826508
 20
129.254171679152
 30
0
 11
372.1714663606123
 21
129.1056987038205
 31
0
 12
372.1290788511765
 22
129.1480862132563
 32
0
 13
372.1290788511765
 23
129.1480862132563
 33
0
  0
LINE
  5
14C
100
AcDbEntity
  8
Bemaßung (ISO)
  6
ByBlock
 62
    0
370
   -2
100
AcDbLine
 10
366.6206975770148
 20
123.5973174296604
 11
372.277551826508
 21
129.254171679152
  0
MTEXT
  5
14D
100
AcDbEntity
  8
Bemaßung (ISO)
  6
CONTINUOUS
 62
    0
370
   -2
100
AcDbMText
 10
380.1354326967139
 20
140.9511455793298
 30
0
 40
0.18
 41
0.7
 71
    5
 72
    1
  1
8.0000
  7
Standard
210
0
220
0
230
1
 50
44.99999999999208
 73
    2
 44
1
  0
ENDBLK
  5
70
330
6E
100
AcDbEntity
  8
0
100
AcDbBlockEnd
  0
BLOCK
  5
72
330
71
100
AcDbEntity
  8
0
100
AcDbBlockBegin
  2
*D7
 70
    1
 10
0
 20
0
  3
*D7
  1

  0
LINE
  5
14E
100
AcDbEntity
  8
Bemaßung (ISO)
  6
ByBlock
 62
    0
370
   -2
100
AcDbLine
 10
307.1384969923292
 20
125.5973174296605
 11
307.1384969923292
 21
105.7773174296602
  0
SOLID
  5
14F
100
AcDbEntity
  8
Bemaßung (ISO)
  6
ByBlock
 62
    0
370
   -2
100
AcDbTrace
 10
307.1384969923292
 20
125.5973174296605
 30
0
 11
307.1684694876888
 21
125.4173174296605
 31
0
 12
307.1085244969696
 22
125.4173174296605
 32
0
 13
307.1085244969696
 23
125.4173174296605
 33
0
  0
SOLID
  5
150
100
AcDbEntity
  8
Bemaßung (ISO)
  6
ByBlock
 62
    0
370
   -2
100
AcDbTrace
 10
307.1384969923292
 20
85.59731742966045
 30
0
 11
307.1085244969696
 21
85.77731742966046
 31
0
 12
307.1684694876888
 22
85.77731742966046
 32
0
 13
307.1684694876888
 23
85.77731742966046
 33
0
  0
LINE
  5
151
100
AcDbEntity
  8
Bemaßung (ISO)
  6
ByBlock
 62
    0
370
   -2
100
AcDbLine
 10
307.1384969923292
 20
105.4173174296602
 11
307.1384969923292
 21
85.59731742966045
  0
MTEXT
  5
152
100
AcDbEntity
  8
Bemaßung (ISO)
  6
CONTINUOUS
 62
    0
370
   -2
100
AcDbMText
 10
307.1384969923292
 20
105.5973174296602
 30
0
 40
0.18
 41
0.8600000000000001
 71
    5
 72
    1
  1
40.0000
  7
Standard
210
0
220
0
230
1
 50
0
 73
    2
 44
1
  0
LINE
  5
153
100
AcDbEntity
  8
Bemaßung (ISO)
  6
ByBlock
 62
    0
370
   -2
100
AcDbLine
 10
307.2009969923291
 20
125.5973174296605
 11
307.3184969923292
 21
125.5973174296605
  0
LINE
  5
154
100
AcDbEntity
  8
Bemaßung (ISO)
  6
ByBlock
 62
    0
370
   -2
100
AcDbLine
 10
307.2009969923292
 20
85.59731742966045
 11
307.3184969923292
 21
85.59731742966045
  0
ENDBLK
  5
73
330
71
100
AcDbEntity
  8
0
100
AcDbBlockEnd
  0
BLOCK
  5
75
330
74
100
AcDbEntity
  8
0
100
AcDbBlockBegin
  2
*D2
 70
    1
 10
0
 20
0
  3
*D2
  1

  0
LINE
  5
155
100
AcDbEntity
  8
Bemaßung (ISO)
  6
ByBlock
 62
    0
370
   -2
100
AcDbLine
 10
320.6206975770148
 20
45.59731742966024
 11
343.1006975770149
 21
45.59731742966024
  0
SOLID
  5
156
100
AcDbEntity
  8
Bemaßung (ISO)
  6
ByBlock
 62
    0
370
   -2
100
AcDbTrace
 10
320.6206975770148
 20
45.59731742966024
 30
0
 11
320.8006975770148
 21
45.62728992501989
 31
0
 12
320.8006975770148
 22
45.5673449343006
 32
0
 13
320.8006975770148
 23
45.5673449343006
 33
0
  0
SOLID
  5
157
100
AcDbEntity
  8
Bemaßung (ISO)
  6
ByBlock
 62
    0
370
   -2
100
AcDbTrace
 10
366.6206975770148
 20
45.59731742966024
 30
0
 11
366.4406975770148
 21
45.56734493430059
 31
0
 12
366.4406975770148
 22
45.62728992501988
 32
0
 13
366.4406975770148
 23
45.62728992501988
 33
0
  0
LINE
  5
158
100
AcDbEntity
  8
Bemaßung (ISO)
  6
ByBlock
 62
    0
370
   -2
100
AcDbLine
 10
344.1406975770149
 20
45.59731742966024
 11
366.6206975770148
 21
45.59731742966024
  0
MTEXT
  5
159
100
AcDbEntity
  8
Bemaßung (ISO)
  6
CONTINUOUS
 62
    0
370
   -2
100
AcDbMText
 10
343.6206975770149
 20
45.59731742966024
 30
0
 40
0.18
 41
0.8600000000000112
 71
    5
 72
    1
  1
46.0000
  7
Standard
210
0
220
0
230
1
 50
0
 73
    2
 44
1
  0
LINE
  5
15A
100
AcDbEntity
  8
Bemaßung (ISO)
  6
ByBlock
 62
    0
370
   -2
100
AcDbLine
 10
320.6206975770148
 20
55.5348174296605
 11
320.6206975770148
 21
45.41731742966024
  0
LINE
  5
15B
100
AcDbEntity
  8
Bemaßung (ISO)
  6
ByBlock
 62
    0
370
   -2
100
AcDbLine
 10
366.6206975770148
 20
78.03481742966049
 11
366.6206975770148
 21
45.41731742966024
  0
ENDBLK
  5
76
330
74
100
AcDbEntity
  8
0
100
AcDbBlockEnd
  0
BLOCK
  5
78
330
77
100
AcDbEntity
  8
0
100
AcDbBlockBegin
  2
*D19
 70
    1
 10
0
 20
0
  3
*D19
  1

  0
LINE
  5
15C
100
AcDbEntity
  8
Bemaßung (ISO)
  6
ByBlock
 62
    0
370
   -2
100
AcDbLine
 10
108.1855495081781
 20
183.4452688413178
 11
108.1855495081781
 21
186.7652688413179
  0
SOLID
  5
15D
100
AcDbEntity
  8
Bemaßung (ISO)
  6
ByBlock
 62
    0
370
   -2
100
AcDbTrace
 10
108.1855495081781
 20
183.4452688413178
 30
0
 11
108.1555770128185
 21
183.6252688413178
 31
0
 12
108.2155220035377
 22
183.6252688413178
 32
0
 13
108.2155220035377
 23
183.6252688413178
 33
0
  0
SOLID
  5
15E
100
AcDbEntity
  8
Bemaßung (ISO)
  6
ByBlock
 62
    0
370
   -2
100
AcDbTrace
 10
108.1855495081781
 20
190.445268841318
 30
0
 11
108.2155220035377
 21
190.265268841318
 31
0
 12
108.1555770128185
 22
190.265268841318
 32
0
 13
108.1555770128185
 23
190.265268841318
 33
0
  0
LINE
  5
15F
100
AcDbEntity
  8
Bemaßung (ISO)
  6
ByBlock
 62
    0
370
   -2
100
AcDbLine
 10
108.1855495081781
 20
187.1252688413179
 11
108.1855495081781
 21
190.445268841318
  0
MTEXT
  5
160
100
AcDbEntity
  8
Bemaßung (ISO)
  6
CONTINUOUS
 62
    0
370
   -2
100
AcDbMText
 10
108.1855495081781
 20
186.9452688413179
 30
0
 40
0.18
 41
0.7
 71
    5
 72
    1
  1
7.0000
  7
Standard
210
0
220
0
230
1
 50
0
 73
    2
 44
1
  0
LINE
  5
161
100
AcDbEntity
  8
Bemaßung (ISO)
  6
ByBlock
 62
    0
370
   -2
100
AcDbLine
 10
152.7188473638878
 20
183.4452688413178
 11
108.0055495081781
 21
183.4452688413178
  0
LINE
  5
162
100
AcDbEntity
  8
Bemaßung (ISO)
  6
ByBlock
 62
    0
370
   -2
100
AcDbLine
 10
137.9688473638873
 20
190.445268841318
 11
108.0055495081781
 21
190.445268841318
  0
ENDBLK
  5
79
330
77
100
AcDbEntity
  8
0
100
AcDbBlockEnd
  0
BLOCK
  5
7B
330
7A
100
AcDbEntity
  8
0
100
AcDbBlockBegin
  2
*D12
 70
    1
 10
0
 20
0
  3
*D12
  1

  0
LINE
  5
163
100
AcDbEntity
  8
Bemaßung (ISO)
  6
ByBlock
 62
    0
370
   -2
100
AcDbLine
 10
128.0313473638873
 20
198.445268841318
 11
128.0313473638873
 21
194.625268841318
  0
SOLID
  5
164
100
AcDbEntity
  8
Bemaßung (ISO)
  6
ByBlock
 62
    0
370
   -2
100
AcDbTrace
 10
128.0313473638873
 20
198.445268841318
 30
0
 11
128.061319859247
 21
198.265268841318
 31
0
 12
128.0013748685276
 22
198.265268841318
 32
0
 13
128.0013748685276
 23
198.265268841318
 33
0
  0
SOLID
  5
165
100
AcDbEntity
  8
Bemaßung (ISO)
  6
ByBlock
 62
    0
370
   -2
100
AcDbTrace
 10
128.0313473638873
 20
190.445268841318
 30
0
 11
128.0013748685276
 21
190.625268841318
 31
0
 12
128.061319859247
 22
190.625268841318
 32
0
 13
128.061319859247
 23
190.625268841318
 33
0
  0
LINE
  5
166
100
AcDbEntity
  8
Bemaßung (ISO)
  6
ByBlock
 62
    0
370
   -2
100
AcDbLine
 10
128.0313473638873
 20
194.265268841318
 11
128.0313473638873
 21
190.445268841318
  0
MTEXT
  5
167
100
AcDbEntity
  8
Bemaßung (ISO)
  6
CONTINUOUS
 62
    0
370
   -2
100
AcDbMText
 10
128.0313473638873
 20
194.445268841318
 30
0
 40
0.18
 41
0.7
 71
    5
 72
    1
  1
8.0000
  7
Standard
210
0
220
0
230
1
 50
0
 73
    2
 44
1
  0
LINE
  5
168
100
AcDbEntity
  8
Bemaßung (ISO)
  6
ByBlock
 62
    0
370
   -2
100
AcDbLine
 10
137.9688473638873
 20
198.445268841318
 11
127.8513473638873
 21
198.445268841318
  0
LINE
  5
169
100
AcDbEntity
  8
Bemaßung (ISO)
  6
ByBlock
 62
    0
370
   -2
100
AcDbLine
 10
137.9688473638873
 20
190.445268841318
 11
127.8513473638873
 21
190.445268841318
  0
ENDBLK
  5
7C
330
7A
100
AcDbEntity
  8
0
100
AcDbBlockEnd
  0
BLOCK
  5
7E
330
7D
100
AcDbEntity
  8
0
100
AcDbBlockBegin
  2
*D21
 70
    1
 10
0
 20
0
  3
*D21
  1

  0
LINE
  5
16A
100
AcDbEntity
  8
Bemaßung (ISO)
  6
ByBlock
 62
    0
370
   -2
100
AcDbLine
 10
209.3940457360958
 20
173.4452688413179
 11
181.5776965499918
 21
173.4452688413179
  0
SOLID
  5
16B
100
AcDbEntity
  8
Bemaßung (ISO)
  6
ByBlock
 62
    0
370
   -2
100
AcDbTrace
 10
209.3940457360958
 20
173.4452688413179
 30
0
 11
209.2140457360958
 21
173.4152963459582
 31
0
 12
209.2140457360958
 22
173.4752413366776
 32
0
 13
209.2140457360958
 23
173.4752413366776
 33
0
  0
SOLID
  5
16C
100
AcDbEntity
  8
Bemaßung (ISO)
  6
ByBlock
 62
    0
370
   -2
100
AcDbTrace
 10
152.7813473638878
 20
173.4452688413179
 30
0
 11
152.9613473638878
 21
173.4752413366776
 31
0
 12
152.9613473638878
 22
173.4152963459582
 32
0
 13
152.9613473638878
 23
173.4152963459582
 33
0
  0
LINE
  5
16D
100
AcDbEntity
  8
Bemaßung (ISO)
  6
ByBlock
 62
    0
370
   -2
100
AcDbLine
 10
180.5976965499918
 20
173.4452688413179
 11
152.7813473638878
 21
173.4452688413179
  0
MTEXT
  5
16E
100
AcDbEntity
  8
Bemaßung (ISO)
  6
CONTINUOUS
 62
    0
370
   -2
100
AcDbMText
 10
181.0876965499918
 20
173.4452688413179
 30
0
 40
0.18
 41
0.8000000000000336
 71
    5
 72
    1
  1
56.6127
  7
Standard
210
0
220
0
230
1
 50
0
 73
    2
 44
1
  0
LINE
  5
16F
100
AcDbEntity
  8
Bemaßung (ISO)
  6
ByBlock
 62
    0
370
   -2
100
AcDbLine
 10
209.3940457360958
 20
183.3827688413179
 11
209.3940457360958
 21
173.2652688413179
  0
LINE
  5
170
100
AcDbEntity
  8
Bemaßung (ISO)
  6
ByBlock
 62
    0
370
   -2
100
AcDbLine
 10
152.7813473638878
 20
183.3827688413178
 11
152.7813473638878
 21
173.2652688413179
  0
ENDBLK
  5
7F
330
7D
100
AcDbEntity
  8
0
100
AcDbBlockEnd
  0
BLOCK
  5
81
330
80
100
AcDbEntity
  8
0
100
AcDbBlockBegin
  2
*D20
 70
    1
 10
0
 20
0
  3
*D20
  1

  0
LINE
  5
171
100
AcDbEntity
  8
Bemaßung (ISO)
  6
ByBlock
 62
    0
370
   -2
100
AcDbLine
 10
117.037686461309
 20
198.4452688413181
 11
117.037686461309
 21
201.765268841318
  0
SOLID
  5
172
100
AcDbEntity
  8
Bemaßung (ISO)
  6
ByBlock
 62
    0
370
   -2
100
AcDbTrace
 10
117.037686461309
 20
198.4452688413181
 30
0
 11
117.0077139659493
 21
198.6252688413181
 31
0
 12
117.0676589566686
 22
198.6252688413181
 32
0
 13
117.0676589566686
 23
198.6252688413181
 33
0
  0
SOLID
  5
173
100
AcDbEntity
  8
Bemaßung (ISO)
  6
ByBlock
 62
    0
370
   -2
100
AcDbTrace
 10
117.037686461309
 20
205.4452688413179
 30
0
 11
117.0676589566686
 21
205.2652688413179
 31
0
 12
117.0077139659493
 22
205.2652688413179
 32
0
 13
117.0077139659493
 23
205.2652688413179
 33
0
  0
LINE
  5
174
100
AcDbEntity
  8
Bemaßung (ISO)
  6
ByBlock
 62
    0
370
   -2
100
AcDbLine
 10
117.037686461309
 20
202.125268841318
 11
117.037686461309
 21
205.4452688413179
  0
MTEXT
  5
175
100
AcDbEntity
  8
Bemaßung (ISO)
  6
CONTINUOUS
 62
    0
370
   -2
100
AcDbMText
 10
117.0376864613091
 20
201.945268841318
 30
0
 40
0.18
 41
0.7
 71
    5
 72
    1
  1
7.0000
  7
Standard
210
0
220
0
230
1
 50
0
 73
    2
 44
1
  0
LINE
  5
176
100
AcDbEntity
  8
Bemaßung (ISO)
  6
ByBlock
 62
    0
370
   -2
100
AcDbLine
 10
137.9688473638873
 20
198.4452688413181
 11
116.857686461309
 21
198.4452688413181
  0
LINE
  5
177
100
AcDbEntity
  8
Bemaßung (ISO)
  6
ByBlock
 62
    0
370
   -2
100
AcDbLine
 10
152.7188473638878
 20
205.4452688413179
 11
116.857686461309
 21
205.4452688413179
  0
ENDBLK
  5
82
330
80
100
AcDbEntity
  8
0
100
AcDbBlockEnd
  0
BLOCK
  5
84
330
83
100
AcDbEntity
  8
0
100
AcDbBlockBegin
  2
*D4
 70
    1
 10
0
 20
0
  3
*D4
  1

  0
LINE
  5
178
100
AcDbEntity
  8
Bemaßung (ISO)
  6
ByBlock
 62
    0
370
   -2
100
AcDbLine
 10
339.2864171399113
 20
128.5973174296604
 11
339.2864171399113
 21
105.7773174296603
  0
SOLID
  5
179
100
AcDbEntity
  8
Bemaßung (ISO)
  6
ByBlock
 62
    0
370
   -2
100
AcDbTrace
 10
339.2864171399113
 20
128.5973174296604
 30
0
 11
339.3163896352709
 21
128.4173174296604
 31
0
 12
339.2564446445517
 22
128.4173174296604
 32
0
 13
339.2564446445517
 23
128.4173174296604
 33
0
  0
SOLID
  5
17A
100
AcDbEntity
  8
Bemaßung (ISO)
  6
ByBlock
 62
    0
370
   -2
100
AcDbTrace
 10
339.2864171399113
 20
82.59731742966051
 30
0
 11
339.2564446445517
 21
82.77731742966051
 31
0
 12
339.3163896352709
 22
82.77731742966051
 32
0
 13
339.3163896352709
 23
82.77731742966051
 33
0
  0
LINE
  5
17B
100
AcDbEntity
  8
Bemaßung (ISO)
  6
ByBlock
 62
    0
370
   -2
100
AcDbLine
 10
339.2864171399113
 20
105.4173174296603
 11
339.2864171399113
 21
82.59731742966051
  0
MTEXT
  5
17C
100
AcDbEntity
  8
Bemaßung (ISO)
  6
CONTINUOUS
 62
    0
370
   -2
100
AcDbMText
 10
339.2864171399112
 20
105.5973174296603
 30
0
 40
0.18
 41
0.8600000000000112
 71
    5
 72
    1
  1
46.0000
  7
Standard
210
0
220
0
230
1
 50
0
 73
    2
 44
1
  0
LINE
  5
17D
100
AcDbEntity
  8
Bemaßung (ISO)
  6
ByBlock
 62
    0
370
   -2
100
AcDbLine
 10
339.3489171399111
 20
128.5973174296604
 11
339.4664171399113
 21
128.5973174296604
  0
LINE
  5
17E
100
AcDbEntity
  8
Bemaßung (ISO)
  6
ByBlock
 62
    0
370
   -2
100
AcDbLine
 10
339.3489171399112
 20
82.59731742966051
 11
339.4664171399113
 21
82.59731742966051
  0
ENDBLK
  5
85
330
83
100
AcDbEntity
  8
0
100
AcDbBlockEnd
  0
BLOCK
  5
87
330
86
100
AcDbEntity
  8
0
100
AcDbBlockBegin
  2
*D18
 70
    1
 10
0
 20
0
  3
*D18
  1

  0
LINE
  5
17F
100
AcDbEntity
  8
Bemaßung (ISO)
  6
ByBlock
 62
    0
370
   -2
100
AcDbLine
 10
285.5046760989756
 20
269.4553941408034
 11
287.7995498331267
 21
267.1605204066524
  0
SOLID
  5
180
100
AcDbEntity
  8
Bemaßung (ISO)
  6
ByBlock
 62
    0
370
   -2
100
AcDbTrace
 10
285.5046760989756
 20
269.4553941408034
 30
0
 11
285.6531490743071
 21
269.3493086749077
 31
0
 12
285.6107615648713
 22
269.306921165472
 32
0
 13
285.6107615648713
 23
269.306921165472
 33
0
  0
SOLID
  5
181
100
AcDbEntity
  8
Bemaßung (ISO)
  6
ByBlock
 62
    0
370
   -2
100
AcDbTrace
 10
290.4544235672775
 20
264.5056466725016
 30
0
 11
290.305950591946
 21
264.6117321383973
 31
0
 12
290.3483381013818
 22
264.6541196478331
 32
0
 13
290.3483381013818
 23
264.6541196478331
 33
0
  0
LINE
  5
182
100
AcDbEntity
  8
Bemaßung (ISO)
  6
ByBlock
 62
    0
370
   -2
100
AcDbLine
 10
288.1595498331267
 20
266.8005204066524
 11
290.4544235672775
 21
264.5056466725016
  0
MTEXT
  5
183
100
AcDbEntity
  8
Bemaßung (ISO)
  6
CONTINUOUS
 62
    0
370
   -2
100
AcDbMText
 10
287.9795498331267
 20
266.9805204066524
 30
0
 40
0.18
 41
0.7
 71
    5
 72
    1
  1
7.0000
  7
Standard
210
0
220
0
230
1
 50
0
 73
    2
 44
1
  0
LINE
  5
184
100
AcDbEntity
  8
Bemaßung (ISO)
  6
ByBlock
 62
    0
370
   -2
100
AcDbLine
 10
267.7072874682318
 20
251.6580055100595
 11
285.6319553195892
 21
269.582673361417
  0
LINE
  5
185
100
AcDbEntity
  8
Bemaßung (ISO)
  6
ByBlock
 62
    0
370
   -2
100
AcDbLine
 10
265.5859671246671
 20
239.637190229891
 11
290.5817027878911
 21
264.6329258931152
  0
ENDBLK
  5
88
330
86
100
AcDbEntity
  8
0
100
AcDbBlockEnd
  0
BLOCK
  5
8A
330
89
100
AcDbEntity
  8
0
100
AcDbBlockBegin
  2
*D1
 70
    1
 10
0
 20
0
  3
*D1
  1

  0
LINE
  5
186
100
AcDbEntity
  8
Bemaßung (ISO)
  6
ByBlock
 62
    0
370
   -2
100
AcDbLine
 10
311.6206975770148
 20
45.59731742966023
 11
295.1406975770146
 21
45.59731742966024
  0
SOLID
  5
187
100
AcDbEntity
  8
Bemaßung (ISO)
  6
ByBlock
 62
    0
370
   -2
100
AcDbTrace
 10
311.6206975770148
 20
45.59731742966023
 30
0
 11
311.4406975770148
 21
45.56734493430059
 31
0
 12
311.4406975770148
 22
45.62728992501987
 32
0
 13
311.4406975770148
 23
45.62728992501987
 33
0
  0
SOLID
  5
188
100
AcDbEntity
  8
Bemaßung (ISO)
  6
ByBlock
 62
    0
370
   -2
100
AcDbTrace
 10
277.6206975770147
 20
45.59731742966024
 30
0
 11
277.8006975770147
 21
45.62728992501988
 31
0
 12
277.8006975770147
 22
45.56734493430059
 32
0
 13
277.8006975770147
 23
45.56734493430059
 33
0
  0
LINE
  5
189
100
AcDbEntity
  8
Bemaßung (ISO)
  6
ByBlock
 62
    0
370
   -2
100
AcDbLine
 10
294.1006975770146
 20
45.59731742966024
 11
277.6206975770147
 21
45.59731742966024
  0
MTEXT
  5
18A
100
AcDbEntity
  8
Bemaßung (ISO)
  6
CONTINUOUS
 62
    0
370
   -2
100
AcDbMText
 10
294.6206975770146
 20
45.59731742966024
 30
0
 40
0.18
 41
0.8600000000000112
 71
    5
 72
    1
  1
34.0000
  7
Standard
210
0
220
0
230
1
 50
0
 73
    2
 44
1
  0
LINE
  5
18B
100
AcDbEntity
  8
Bemaßung (ISO)
  6
ByBlock
 62
    0
370
   -2
100
AcDbLine
 10
311.6206975770148
 20
55.53481742966047
 11
311.6206975770148
 21
45.41731742966023
  0
LINE
  5
18C
100
AcDbEntity
  8
Bemaßung (ISO)
  6
ByBlock
 62
    0
370
   -2
100
AcDbLine
 10
277.6206975770147
 20
78.03481742966046
 11
277.6206975770147
 21
45.41731742966024
  0
ENDBLK
  5
8B
330
89
100
AcDbEntity
  8
0
100
AcDbBlockEnd
  0
BLOCK
  5
8D
330
8C
100
AcDbEntity
  8
0
100
AcDbBlockBegin
  2
*D3
 70
    1
 10
0
 20
0
  3
*D3
  1

  0
LINE
  5
18D
100
AcDbEntity
  8
Bemaßung (ISO)
  6
ByBlock
 62
    0
370
   -2
100
AcDbLine
 10
348.6206975770148
 20
123.5973174296605
 11
348.6206975770148
 21
105.7773174296605
  0
SOLID
  5
18E
100
AcDbEntity
  8
Bemaßung (ISO)
  6
ByBlock
 62
    0
370
   -2
100
AcDbTrace
 10
348.6206975770148
 20
123.5973174296605
 30
0
 11
348.6506700723745
 21
123.4173174296605
 31
0
 12
348.5907250816552
 22
123.4173174296605
 32
0
 13
348.5907250816552
 23
123.4173174296605
 33
0
  0
SOLID
  5
18F
100
AcDbEntity
  8
Bemaßung (ISO)
  6
ByBlock
 62
    0
370
   -2
100
AcDbTrace
 10
348.6206975770148
 20
87.59731742966051
 30
0
 11
348.5907250816552
 21
87.77731742966051
 31
0
 12
348.6506700723745
 22
87.77731742966051
 32
0
 13
348.6506700723745
 23
87.77731742966051
 33
0
  0
LINE
  5
190
100
AcDbEntity
  8
Bemaßung (ISO)
  6
ByBlock
 62
    0
370
   -2
100
AcDbLine
 10
348.6206975770148
 20
105.4173174296605
 11
348.6206975770148
 21
87.59731742966051
  0
MTEXT
  5
191
100
AcDbEntity
  8
Bemaßung (ISO)
  6
CONTINUOUS
 62
    0
370
   -2
100
AcDbMText
 10
348.6206975770148
 20
105.5973174296605
 30
0
 40
0.18
 41
0.8400000000000223
 71
    5
 72
    1
  1
36.0000
  7
Standard
210
0
220
0
230
1
 50
0
 73
    2
 44
1
  0
LINE
  5
192
100
AcDbEntity
  8
Bemaßung (ISO)
  6
ByBlock
 62
    0
370
   -2
100
AcDbLine
 10
366.0581975770148
 20
123.5973174296605
 11
348.4406975770148
 21
123.5973174296605
  0
LINE
  5
193
100
AcDbEntity
  8
Bemaßung (ISO)
  6
ByBlock
 62
    0
370
   -2
100
AcDbLine
 10
366.0581975770148
 20
87.59731742966051
 11
348.4406975770148
 21
87.59731742966051
  0
ENDBLK
  5
8E
330
8C
100
AcDbEntity
  8
0
100
AcDbBlockEnd
  0
BLOCK
  5
90
330
8F
100
AcDbEntity
  8
0
100
AcDbBlockBegin
  2
*D10
 70
    1
 10
0
 20
0
  3
*D10
  1

  0
LINE
  5
194
100
AcDbEntity
  8
Bemaßung (ISO)
  6
ByBlock
 62
    0
370
   -2
100
AcDbLine
 10
405.6206975770654
 20
15.25670288091472
 11
405.6206975770654
 21
19.07670288091462
  0
SOLID
  5
195
100
AcDbEntity
  8
Bemaßung (ISO)
  6
ByBlock
 62
    0
370
   -2
100
AcDbTrace
 10
405.6206975770654
 20
15.25670288091472
 30
0
 11
405.5907250817058
 21
15.43670288091472
 31
0
 12
405.650670072425
 22
15.43670288091472
 32
0
 13
405.650670072425
 23
15.43670288091472
 33
0
  0
SOLID
  5
196
100
AcDbEntity
  8
Bemaßung (ISO)
  6
ByBlock
 62
    0
370
   -2
100
AcDbTrace
 10
405.6206975770654
 20
23.25670288091473
 30
0
 11
405.650670072425
 21
23.07670288091473
 31
0
 12
405.5907250817058
 22
23.07670288091473
 32
0
 13
405.5907250817058
 23
23.07670288091473
 33
0
  0
LINE
  5
197
100
AcDbEntity
  8
Bemaßung (ISO)
  6
ByBlock
 62
    0
370
   -2
100
AcDbLine
 10
405.6206975770654
 20
19.43670288091462
 11
405.6206975770654
 21
23.25670288091473
  0
MTEXT
  5
198
100
AcDbEntity
  8
Bemaßung (ISO)
  6
CONTINUOUS
 62
    0
370
   -2
100
AcDbMText
 10
405.6206975770653
 20
19.25670288091462
 30
0
 40
0.18
 41
0.7
 71
    5
 72
    1
  1
8.0000
  7
Standard
210
0
220
0
230
1
 50
0
 73
    2
 44
1
  0
LINE
  5
199
100
AcDbEntity
  8
Bemaßung (ISO)
  6
ByBlock
 62
    0
370
   -2
100
AcDbLine
 10
395.6831975770653
 20
15.25670288091472
 11
405.8006975770654
 21
15.25670288091472
  0
LINE
  5
19A
100
AcDbEntity
  8
Bemaßung (ISO)
  6
ByBlock
 62
    0
370
   -2
100
AcDbLine
 10
395.6831975770653
 20
23.25670288091473
 11
405.8006975770654
 21
23.25670288091473
  0
ENDBLK
  5
91
330
8F
100
AcDbEntity
  8
0
100
AcDbBlockEnd
  0
BLOCK
  5
93
330
92
100
AcDbEntity
  8
0
100
AcDbBlockBegin
  2
*D17
 70
    1
 10
0
 20
0
  3
*D17
  1

  0
LINE
  5
19B
100
AcDbEntity
  8
Bemaßung (ISO)
  6
ByBlock
 62
    0
370
   -2
100
AcDbLine
 10
273.9150626476438
 20
269.1794891884564
 11
271.6201889134902
 21
271.47436292261
  0
SOLID
  5
19C
100
AcDbEntity
  8
Bemaßung (ISO)
  6
ByBlock
 62
    0
370
   -2
100
AcDbTrace
 10
273.9150626476438
 20
269.1794891884564
 30
0
 11
273.7665896723124
 21
269.2855746543521
 31
0
 12
273.8089771817481
 22
269.3279621637878
 32
0
 13
273.8089771817481
 23
269.3279621637878
 33
0
  0
SOLID
  5
19D
100
AcDbEntity
  8
Bemaßung (ISO)
  6
ByBlock
 62
    0
370
   -2
100
AcDbTrace
 10
268.9653151793366
 20
274.1292366567636
 30
0
 11
269.1137881546681
 21
274.0231511908678
 31
0
 12
269.0714006452324
 22
273.9807636814321
 32
0
 13
269.0714006452324
 23
273.9807636814321
 33
0
  0
LINE
  5
19E
100
AcDbEntity
  8
Bemaßung (ISO)
  6
ByBlock
 62
    0
370
   -2
100
AcDbLine
 10
271.2601889134902
 20
271.83436292261
 11
268.9653151793366
 21
274.1292366567636
  0
MTEXT
  5
19F
100
AcDbEntity
  8
Bemaßung (ISO)
  6
CONTINUOUS
 62
    0
370
   -2
100
AcDbMText
 10
271.4401889134902
 20
271.65436292261
 30
0
 40
0.18
 41
0.7
 71
    5
 72
    1
  1
7.0000
  7
Standard
210
0
220
0
230
1
 50
0
 73
    2
 44
1
  0
LINE
  5
1A0
100
AcDbEntity
  8
Bemaßung (ISO)
  6
ByBlock
 62
    0
370
   -2
100
AcDbLine
 10
262.0504332187394
 20
257.3148597595519
 11
274.0423418682574
 21
269.3067684090699
  0
LINE
  5
1A1
100
AcDbEntity
  8
Bemaßung (ISO)
  6
ByBlock
 62
    0
370
   -2
100
AcDbLine
 10
250.0296179385689
 20
255.1935394159957
 11
269.0925943999502
 21
274.2565158773771
  0
ENDBLK
  5
94
330
92
100
AcDbEntity
  8
0
100
AcDbBlockEnd
  0
BLOCK
  5
96
330
95
100
AcDbEntity
  8
0
100
AcDbBlockBegin
  2
*D24
 70
    1
 10
0
 20
0
  3
*D24
  1

  0
LINE
  5
1A2
100
AcDbEntity
  8
Bemaßung (ISO)
  6
ByBlock
 62
    0
370
   -2
100
AcDbLine
 10
107.0646216313778
 20
116.6314540265301
 11
107.0646216313778
 21
84.8014540265301
  0
SOLID
  5
1A3
100
AcDbEntity
  8
Bemaßung (ISO)
  6
ByBlock
 62
    0
370
   -2
100
AcDbTrace
 10
107.0646216313778
 20
116.6314540265301
 30
0
 11
107.0945941267374
 21
116.4514540265301
 31
0
 12
107.0346491360182
 22
116.4514540265301
 32
0
 13
107.0346491360182
 23
116.4514540265301
 33
0
  0
SOLID
  5
1A4
100
AcDbEntity
  8
Bemaßung (ISO)
  6
ByBlock
 62
    0
370
   -2
100
AcDbTrace
 10
107.0646216313778
 20
52.6314540265301
 30
0
 11
107.0346491360182
 21
52.8114540265301
 31
0
 12
107.0945941267374
 22
52.8114540265301
 32
0
 13
107.0945941267374
 23
52.8114540265301
 33
0
  0
LINE
  5
1A5
100
AcDbEntity
  8
Bemaßung (ISO)
  6
ByBlock
 62
    0
370
   -2
100
AcDbLine
 10
107.0646216313778
 20
84.44145402653008
 11
107.0646216313778
 21
52.6314540265301
  0
MTEXT
  5
1A6
100
AcDbEntity
  8
Bemaßung (ISO)
  6
CONTINUOUS
 62
    0
370
   -2
100
AcDbMText
 10
107.0646216313777
 20
84.62145402653009
 30
0
 40
0.18
 41
0.8600000000000112
 71
    5
 72
    1
  1
64.0000
  7
Standard
210
0
220
0
230
1
 50
0
 73
    2
 44
1
  0
LINE
  5
1A7
100
AcDbEntity
  8
Bemaßung (ISO)
  6
ByBlock
 62
    0
370
   -2
100
AcDbLine
 10
117.0021216313778
 20
116.6314540265301
 11
106.8846216313778
 21
116.6314540265301
  0
LINE
  5
1A8
100
AcDbEntity
  8
Bemaßung (ISO)
  6
ByBlock
 62
    0
370
   -2
100
AcDbLine
 10
117.0021216313778
 20
52.6314540265301
 11
106.8846216313778
 21
52.6314540265301
  0
ENDBLK
  5
97
330
95
100
AcDbEntity
  8
0
100
AcDbBlockEnd
  0
BLOCK
  5
99
330
98
100
AcDbEntity
  8
0
100
AcDbBlockBegin
  2
*D9
 70
    1
 10
0
 20
0
  3
*D9
  1

  0
LINE
  5
1A9
100
AcDbEntity
  8
Bemaßung (ISO)
  6
ByBlock
 62
    0
370
   -2
100
AcDbLine
 10
241.6206937623682
 20
23.25670288091466
 11
241.6206937623682
 21
19.43670288091459
  0
SOLID
  5
1AA
100
AcDbEntity
  8
Bemaßung (ISO)
  6
ByBlock
 62
    0
370
   -2
100
AcDbTrace
 10
241.6206937623682
 20
23.25670288091466
 30
0
 11
241.6506662577279
 21
23.07670288091466
 31
0
 12
241.5907212670085
 22
23.07670288091466
 32
0
 13
241.5907212670085
 23
23.07670288091466
 33
0
  0
SOLID
  5
1AB
100
AcDbEntity
  8
Bemaßung (ISO)
  6
ByBlock
 62
    0
370
   -2
100
AcDbTrace
 10
241.6206937623682
 20
15.25670288091465
 30
0
 11
241.5907212670085
 21
15.43670288091465
 31
0
 12
241.6506662577279
 22
15.43670288091465
 32
0
 13
241.6506662577279
 23
15.43670288091465
 33
0
  0
LINE
  5
1AC
100
AcDbEntity
  8
Bemaßung (ISO)
  6
ByBlock
 62
    0
370
   -2
100
AcDbLine
 10
241.6206937623682
 20
19.07670288091459
 11
241.6206937623682
 21
15.25670288091465
  0
MTEXT
  5
1AD
100
AcDbEntity
  8
Bemaßung (ISO)
  6
CONTINUOUS
 62
    0
370
   -2
100
AcDbMText
 10
241.6206937623681
 20
19.25670288091459
 30
0
 40
0.18
 41
0.7
 71
    5
 72
    1
  1
8.0000
  7
Standard
210
0
220
0
230
1
 50
0
 73
    2
 44
1
  0
LINE
  5
1AE
100
AcDbEntity
  8
Bemaßung (ISO)
  6
ByBlock
 62
    0
370
   -2
100
AcDbLine
 10
251.5581975770653
 20
23.25670288091466
 11
241.4406937623682
 21
23.25670288091466
  0
LINE
  5
1AF
100
AcDbEntity
  8
Bemaßung (ISO)
  6
ByBlock
 62
    0
370
   -2
100
AcDbLine
 10
251.5581975770653
 20
15.25670288091465
 11
241.4406937623682
 21
15.25670288091465
  0
ENDBLK
  5
9A
330
98
100
AcDbEntity
  8
0
100
AcDbBlockEnd
  0
BLOCK
  5
9C
330
9B
100
AcDbEntity
  8
0
100
AcDbBlockBegin
  2
*D14
 70
    1
 10
0
 20
0
  3
*D14
  1

  0
LINE
  5
1B0
100
AcDbEntity
  8
Bemaßung (ISO)
  6
ByBlock
 62
    0
370
   -2
100
AcDbLine
 10
226.6508999855841
 20
186.5599874670769
 11
223.59733217372
 21
183.5064196552129
  0
SOLID
  5
1B1
100
AcDbEntity
  8
Bemaßung (ISO)
  6
ByBlock
 62
    0
370
   -2
100
AcDbTrace
 10
226.6508999855841
 20
186.5599874670769
 30
0
 11
226.5448145196884
 21
186.4115144917454
 31
0
 12
226.5024270102526
 22
186.4539020011812
 32
0
 13
226.5024270102526
 23
186.4539020011812
 33
0
  0
SOLID
  5
1B2
100
AcDbEntity
  8
Bemaßung (ISO)
  6
ByBlock
 62
    0
370
   -2
100
AcDbTrace
 10
220.183764361856
 20
180.0928518433489
 30
0
 11
220.2898498277517
 21
180.2413248186804
 31
0
 12
220.3322373371875
 22
180.1989373092446
 32
0
 13
220.3322373371875
 23
180.1989373092446
 33
0
  0
LINE
  5
1B3
100
AcDbEntity
  8
Bemaßung (ISO)
  6
ByBlock
 62
    0
370
   -2
100
AcDbLine
 10
223.23733217372
 20
183.1464196552129
 11
220.183764361856
 21
180.0928518433489
  0
MTEXT
  5
1B4
100
AcDbEntity
  8
Bemaßung (ISO)
  6
CONTINUOUS
 62
    0
370
   -2
100
AcDbMText
 10
223.4173321737201
 20
183.3264196552129
 30
0
 40
0.18
 41
0.6800000000000224
 71
    5
 72
    1
  1
9.1459
  7
Standard
210
0
220
0
230
1
 50
0
 73
    2
 44
1
  0
LINE
  5
1B5
100
AcDbEntity
  8
Bemaßung (ISO)
  6
ByBlock
 62
    0
370
   -2
100
AcDbLine
 10
214.1085934542918
 20
199.1022939983693
 11
226.7781792061976
 21
186.4327082464633
  0
LINE
  5
1B6
100
AcDbEntity
  8
Bemaßung (ISO)
  6
ByBlock
 62
    0
370
   -2
100
AcDbLine
 10
208.0755415377113
 20
192.2010746674937
 11
220.3110435824696
 21
179.9655726227353
  0
ENDBLK
  5
9D
330
9B
100
AcDbEntity
  8
0
100
AcDbBlockEnd
  0
BLOCK
  5
9F
330
9E
100
AcDbEntity
  8
0
100
AcDbBlockBegin
  2
*D15
 70
    1
 10
0
 20
0
  3
*D15
  1

  0
LINE
  5
1B7
100
AcDbEntity
  8
Bemaßung (ISO)
  6
ByBlock
 62
    0
370
   -2
100
AcDbLine
 10
273.494169598723
 20
257.4448876405508
 11
270.8457424739768
 21
260.093314765297
  0
SOLID
  5
1B8
100
AcDbEntity
  8
Bemaßung (ISO)
  6
ByBlock
 62
    0
370
   -2
100
AcDbTrace
 10
273.494169598723
 20
257.4448876405508
 30
0
 11
273.3456966233916
 21
257.5509731064465
 31
0
 12
273.3880841328273
 22
257.5933606158823
 32
0
 13
273.3880841328273
 23
257.5933606158823
 33
0
  0
SOLID
  5
1B9
100
AcDbEntity
  8
Bemaßung (ISO)
  6
ByBlock
 62
    0
370
   -2
100
AcDbTrace
 10
267.8373153492306
 20
263.1017418900432
 30
0
 11
267.9857883245621
 21
262.9956564241475
 31
0
 12
267.9434008151263
 22
262.9532689147117
 32
0
 13
267.9434008151263
 23
262.9532689147117
 33
0
  0
LINE
  5
1BA
100
AcDbEntity
  8
Bemaßung (ISO)
  6
ByBlock
 62
    0
370
   -2
100
AcDbLine
 10
270.4857424739768
 20
260.453314765297
 11
267.8373153492306
 21
263.1017418900432
  0
MTEXT
  5
1BB
100
AcDbEntity
  8
Bemaßung (ISO)
  6
CONTINUOUS
 62
    0
370
   -2
100
AcDbMText
 10
270.6657424739768
 20
260.273314765297
 30
0
 40
0.18
 41
0.7
 71
    5
 72
    1
  1
8.0000
  7
Standard
210
0
220
0
230
1
 50
0
 73
    2
 44
1
  0
LINE
  5
1BC
100
AcDbEntity
  8
Bemaßung (ISO)
  6
ByBlock
 62
    0
370
   -2
100
AcDbLine
 10
267.7072874682318
 20
251.6580055100595
 11
273.6214488193366
 21
257.5721668611644
  0
LINE
  5
1BD
100
AcDbEntity
  8
Bemaßung (ISO)
  6
ByBlock
 62
    0
370
   -2
100
AcDbLine
 10
262.0504332187394
 20
257.3148597595519
 11
267.9645945698442
 21
263.2290211106567
  0
ENDBLK
  5
A0
330
9E
100
AcDbEntity
  8
0
100
AcDbBlockEnd
  0
BLOCK
  5
A2
330
A1
100
AcDbEntity
  8
0
100
AcDbBlockBegin
  2
*D23
 70
    1
 10
0
 20
0
  3
*D23
  1

  0
LINE
  5
1BE
100
AcDbEntity
  8
Symbol (ISO)
  6
CONTINUOUS
 62
    7
370
    0
100
AcDbLine
 10
207.9125702841445
 20
205.2983171685165
 11
200.5029984717483
 21
218.0952358715722
  0
LINE
  5
1BF
100
AcDbEntity
  8
Symbol (ISO)
  6
CONTINUOUS
 62
    7
370
    0
100
AcDbLine
 10
200.5029984717483
 20
218.0952358715722
 11
195.5029984717483
 21
218.0952358715722
  0
SOLID
  5
1C0
100
AcDbEntity
  8
Symbol (ISO)
  6
CONTINUOUS
 62
    7
370
    0
100
AcDbTrace
 10
207.9125702841445
 20
205.2983171685165
 30
0
 11
207.7964379376444
 21
205.4390709555862
 31
0
 12
207.8483144503222
 22
205.4691080883509
 32
0
 13
207.8483144503222
 23
205.4691080883509
 33
0
  0
ENDBLK
  5
A3
330
A1
100
AcDbEntity
  8
0
100
AcDbBlockEnd
  0
BLOCK
  5
A5
330
A4
100
AcDbEntity
  8
0
100
AcDbBlockBegin
  2
Filled-1
 70
    0
 10
0
 20
0
  3
Filled-1
  1

  0
LINE
  5
1C1
100
AcDbEntity
  8
0
  6
ByLayer
 62
    0
370
   -1
100
AcDbLine
 10
-1
 20
0
 11
0
 21
0
  0
LWPOLYLINE
  5
1C2
100
AcDbEntity
  8
0
  6
ByLayer
 62
    0
370
   -1
100
AcDbPolyline
 90
    4
 70
    0
 43
0
 10
-1
 20
-0.1
 10
0
 20
0
 10
-1
 20
0.1
 10
-1
 20
-0.1
  0
SOLID
  5
1C3
100
AcDbEntity
  8
0
  6
ByLayer
 62
    0
370
   -1
100
AcDbTrace
 10
-1
 20
-0.1
 30
0
 11
0
 21
0
 31
0
 12
-1
 22
0.1
 32
0
 13
-1
 23
-0.1
 33
0
  0
LINE
  5
1C4
100
AcDbEntity
  8
0
  6
ByLayer
 62
    0
370
   -1
100
AcDbLine
 10
-1
 20
-0.1
 11
0
 21
0
  0
LINE
  5
1C5
100
AcDbEntity
  8
0
  6
ByLayer
 62
    0
370
   -1
100
AcDbLine
 10
0
 20
0
 11
-1
 21
0.1
  0
LINE
  5
1C6
100
AcDbEntity
  8
0
  6
ByLayer
 62
    0
370
   -1
100
AcDbLine
 10
-1
 20
0.1
 11
-1
 21
-0.1
  0
ENDBLK
  5
A6
330
A4
100
AcDbEntity
  8
0
100
AcDbBlockEnd
  0
BLOCK
  5
A8
330
A7
100
AcDbEntity
  8
0
100
AcDbBlockBegin
  2
DatumFilled45
 70
    0
 10
0
 20
0
  3
DatumFilled45
  1

  0
LWPOLYLINE
  5
1C7
100
AcDbEntity
  8
0
  6
ByLayer
 62
    0
370
   -1
100
AcDbPolyline
 90
    4
 70
    0
 43
0
 10
0
 20
1
 10
0
 20
-1
 10
-1
 20
0
 10
0
 20
1
  0
SOLID
  5
1C8
100
AcDbEntity
  8
0
  6
ByLayer
 62
    0
370
   -1
100
AcDbTrace
 10
0
 20
1
 30
0
 11
0
 21
-1
 31
0
 12
-1
 22
0
 32
0
 13
0
 23
1
 33
0
  0
ENDBLK
  5
A9
330
A7
100
AcDbEntity
  8
0
100
AcDbBlockEnd
  0
BLOCK
  5
AB
330
AA
100
AcDbEntity
  8
0
100
AcDbBlockBegin
  2
Glasbearbeitung
 70
    0
 10
0
 20
0
  3
Glasbearbeitung
  1

  0
MTEXT
  5
1C9
100
AcDbEntity
  8
Symbole(DIN)
  6
ByLayer
 62
    7
370
   -1
100
AcDbMText
 10
-36.95807933807373
 20
2.29287352412939
 30
0
 40
3.499999940395355
 41
131.0555551236998
 71
    1
 72
    1
  1
\fArial|b0|i0;\H3.5000;Alle Kanten geschliffen und poliert
  7
aktuell-din
210
0
220
0
230
1
 50
0
 73
    1
 44
1
  0
ENDBLK
  5
AC
330
AA
100
AcDbEntity
  8
0
100
AcDbBlockEnd
  0
BLOCK
  5
AE
330
AD
100
AcDbEntity
  8
0
100
AcDbBlockBegin
  2
unbemaßte_Kanten
 70
    0
 10
0
 20
0
  3
unbemaßte_Kanten
  1

  0
MTEXT
  5
1CA
100
AcDbEntity
  8
Symbole(DIN)
  6
ByLayer
 62
    7
370
   -1
100
AcDbMText
 10
-25.81729110330343
 20
1.518673673272132
 30
0
 40
2.5
 41
124.9305568412757
 71
    1
 72
    1
  1
unbemaßte Kanten 0,2x45\fAIGDT|b0|i0;\H2.5000;~\fArial|b0|i0;\H2.5000; fasen
  7
aktuell-din
210
0
220
0
230
1
 50
0
 73
    1
 44
1
  0
ENDBLK
  5
AF
330
AD
100
AcDbEntity
  8
0
100
AcDbBlockEnd
  0
BLOCK
  5
B1
330
B0
100
AcDbEntity
  8
0
100
AcDbBlockBegin
  2
Schleifrichtung
 70
    0
 10
0
 20
0
  3
Schleifrichtung
  1

  0
HATCH
  5
1CB
100
AcDbEntity
  8
Schraffur
  6
ByLayer
 62
  179
420
2500185
370
   -1
100
AcDbHatch
 10
0
 20
0
 30
0
210
0
220
0
230
1
  2
SOLID
 70
    1
 71
    0
 91
    1
 92
    0
 93
    3
 72
    1
 10
0
 20
5
 11
-0.4999999999999983
 21
2.78774508444858
 72
    1
 10
-0.4999999999999983
 20
2.78774508444858
 11
0.4999999999999983
 21
2.78774508444858
 72
    1
 10
0.4999999999999983
 20
2.78774508444858
 11
0
 21
5
 97
    0
 75
    0
 76
    1
 98
    0
  0
HATCH
  5
1CC
100
AcDbEntity
  8
Schraffur
  6
ByLayer
 62
  179
420
2500185
370
   -1
100
AcDbHatch
 10
0
 20
0
 30
0
210
0
220
0
230
1
  2
SOLID
 70
    1
 71
    0
 91
    1
 92
    0
 93
    3
 72
    1
 10
0
 20
-5
 11
0.4999999999999983
 21
-2.78774508444858
 72
    1
 10
0.4999999999999983
 20
-2.78774508444858
 11
-0.4999999999999983
 21
-2.78774508444858
 72
    1
 10
-0.4999999999999983
 20
-2.78774508444858
 11
0
 21
-5
 97
    0
 75
    0
 76
    1
 98
    0
  0
LINE
  5
1CD
100
AcDbEntity
  8
Skizziergeometrie(DIN)
  6
ByLayer
 62
  256
370
   -1
100
AcDbLine
 10
0
 20
5
 11
0
 21
-5
  0
LINE
  5
1CE
100
AcDbEntity
  8
Skizziergeometrie(DIN)
  6
ByLayer
 62
  256
370
   -1
100
AcDbLine
 10
0
 20
5
 11
-0.4999999999999983
 21
2.78774508444858
  0
LINE
  5
1CF
100
AcDbEntity
  8
Skizziergeometrie(DIN)
  6
ByLayer
 62
  256
370
   -1
100
AcDbLine
 10
-0.4999999999999983
 20
2.78774508444858
 11
0.4999999999999983
 21
2.78774508444858
  0
LINE
  5
1D0
100
AcDbEntity
  8
Skizziergeometrie(DIN)
  6
ByLayer
 62
  256
370
   -1
100
AcDbLine
 10
0.4999999999999983
 20
2.78774508444858
 11
0
 21
5
  0
LINE
  5
1D1
100
AcDbEntity
  8
Skizziergeometrie(DIN)
  6
ByLayer
 62
  256
370
   -1
100
AcDbLine
 10
0
 20
-5
 11
-0.4999999999999983
 21
-2.78774508444858
  0
LINE
  5
1D2
100
AcDbEntity
  8
Skizziergeometrie(DIN)
  6
ByLayer
 62
  256
370
   -1
100
AcDbLine
 10
-0.4999999999999983
 20
-2.78774508444858
 11
0.4999999999999983
 21
-2.78774508444858
  0
LINE
  5
1D3
100
AcDbEntity
  8
Skizziergeometrie(DIN)
  6
ByLayer
 62
  256
370
   -1
100
AcDbLine
 10
0.4999999999999983
 20
-2.78774508444858
 11
0
 21
-5
  0
ENDBLK
  5
B2
330
B0
100
AcDbEntity
  8
0
100
AcDbBlockEnd
  0
BLOCK
  5
B4
330
B3
100
AcDbEntity
  8
0
100
AcDbBlockBegin
  2
Senkung DIN 974-1 für Zylinderkopfschrauben
 70
    0
 10
0
 20
0
  3
Senkung DIN 974-1 für Zylinderkopfschrauben
  1

  0
MTEXT
  5
1D4
100
AcDbEntity
  8
Symbole(DIN)
  6
ByLayer
 62
    7
370
   -1
100
AcDbMText
 10
-22.51524209976196
 20
1.639672182500362
 30
0
 40
2.5
 41
45.90277696999526
 71
    1
 72
    1
  1
Senkung DIN 974-1 (Reihe1)
  7
aktuell-din
210
0
220
0
230
1
 50
0
 73
    1
 44
1
  0
ENDBLK
  5
B5
330
B3
100
AcDbEntity
  8
0
100
AcDbBlockEnd
  0
BLOCK
  5
B7
330
B6
100
AcDbEntity
  8
0
100
AcDbBlockBegin
  2
Senkung DIN 74-1 B (f) f. Senkschrauben
 70
    0
 10
0
 20
0
  3
Senkung DIN 74-1 B (f) f. Senkschrauben
  1

  0
MTEXT
  5
1D5
100
AcDbEntity
  8
Symbole(DIN)
  6
ByLayer
 62
    7
370
   -1
100
AcDbMText
 10
-18.14691185951233
 20
1.639672182500362
 30
0
 40
2.5
 41
39.4444436366618
 71
    1
 72
    1
  1
Senkung DIN 74-1 B (f)
  7
aktuell-din
210
0
220
0
230
1
 50
0
 73
    1
 44
1
  0
ENDBLK
  5
B8
330
B6
100
AcDbEntity
  8
0
100
AcDbBlockEnd
  0
BLOCK
  5
BA
330
B9
100
AcDbEntity
  8
0
100
AcDbBlockBegin
  2
Rz4(Rz16)
 70
    0
 10
0
 20
0
  3
Rz4(Rz16)
  1

  0
LINE
  5
1D6
100
AcDbEntity
  8
Skizziergeometrie(DIN)
  6
ByLayer
 62
  256
370
   -1
100
AcDbLine
 10
-13.35665995719496
 20
-0.624154925091176
 11
-11.35665995719495
 21
-4.124154925091172
  0
LINE
  5
1D7
100
AcDbEntity
  8
Skizziergeometrie(DIN)
  6
ByLayer
 62
  256
370
   -1
100
AcDbLine
 10
-11.35665995719495
 20
-4.124154925091172
 11
-9.356659957194953
 21
-0.624154925091176
  0
LINE
  5
1D8
100
AcDbEntity
  8
Skizziergeometrie(DIN)
  6
ByLayer
 62
  256
370
   -1
100
AcDbLine
 10
-9.356659957194953
 20
-0.624154925091176
 11
-13.35665995719496
 21
-0.624154925091176
  0
LINE
  5
1D9
100
AcDbEntity
  8
Skizziergeometrie(DIN)
  6
ByLayer
 62
  256
370
   -1
100
AcDbLine
 10
-9.356659957194953
 20
-0.624154925091176
 11
-6.643340042805041
 21
4.12415492509119
  0
LINE
  5
1DA
100
AcDbEntity
  8
Skizziergeometrie(DIN)
  6
ByLayer
 62
  256
370
   -1
100
AcDbLine
 10
-6.643340042805041
 20
4.12415492509119
 11
13.35665995719496
 21
4.124154925091172
  0
MTEXT
  5
1DB
100
AcDbEntity
  8
Symbole(DIN)
  6
ByLayer
 62
    7
370
   -1
100
AcDbMText
 10
-6.476606384140213
 20
3.265635088166192
 30
0
 40
2.5
 41
20.90277750000016
 71
    1
 72
    1
  1
Rz 4 (Rz 16)
  7
aktuell-din
210
0
220
0
230
1
 50
0
 73
    1
 44
1
  0
ENDBLK
  5
BB
330
B9
100
AcDbEntity
  8
0
100
AcDbBlockEnd
  0
BLOCK
  5
BD
330
BC
100
AcDbEntity
  8
0
100
AcDbBlockBegin
  2
Rz16(Rz4)
 70
    0
 10
0
 20
0
  3
Rz16(Rz4)
  1

  0
LINE
  5
1DC
100
AcDbEntity
  8
Skizziergeometrie(DIN)
  6
ByLayer
 62
  256
370
   -1
100
AcDbLine
 10
-13.35665995719496
 20
-0.624154925091176
 11
-11.35665995719495
 21
-4.124154925091172
  0
LINE
  5
1DD
100
AcDbEntity
  8
Skizziergeometrie(DIN)
  6
ByLayer
 62
  256
370
   -1
100
AcDbLine
 10
-11.35665995719495
 20
-4.124154925091172
 11
-9.356659957194953
 21
-0.624154925091176
  0
LINE
  5
1DE
100
AcDbEntity
  8
Skizziergeometrie(DIN)
  6
ByLayer
 62
  256
370
   -1
100
AcDbLine
 10
-9.356659957194953
 20
-0.624154925091176
 11
-13.35665995719496
 21
-0.624154925091176
  0
LINE
  5
1DF
100
AcDbEntity
  8
Skizziergeometrie(DIN)
  6
ByLayer
 62
  256
370
   -1
100
AcDbLine
 10
-9.356659957194953
 20
-0.624154925091176
 11
-6.643340042805041
 21
4.12415492509119
  0
LINE
  5
1E0
100
AcDbEntity
  8
Skizziergeometrie(DIN)
  6
ByLayer
 62
  256
370
   -1
100
AcDbLine
 10
-6.643340042805041
 20
4.12415492509119
 11
13.35665995719496
 21
4.124154925091172
  0
MTEXT
  5
1E1
100
AcDbEntity
  8
Symbole(DIN)
  6
ByLayer
 62
    7
370
   -1
100
AcDbMText
 10
-6.476606384140213
 20
3.265635088166192
 30
0
 40
2.5
 41
20.90277750000016
 71
    1
 72
    1
  1
Rz 16 (Rz 4)
  7
aktuell-din
210
0
220
0
230
1
 50
0
 73
    1
 44
1
  0
ENDBLK
  5
BE
330
BC
100
AcDbEntity
  8
0
100
AcDbBlockEnd
  0
BLOCK
  5
C0
330
BF
100
AcDbEntity
  8
0
100
AcDbBlockBegin
  2
unbemaßte_Kanten 0_5
 70
    0
 10
0
 20
0
  3
unbemaßte_Kanten 0_5
  1

  0
MTEXT
  5
1E2
100
AcDbEntity
  8
Symbole(DIN)
  6
ByLayer
 62
    7
370
   -1
100
AcDbMText
 10
-25.81729110330343
 20
1.518673673272132
 30
0
 40
2.5
 41
124.9305568412758
 71
    1
 72
    1
  1
unbemaßte Kanten 0,5x45\fAIGDT|b0|i0;\H2.5000;~\fArial|b0|i0;\H2.5000; fasen
  7
aktuell-din
210
0
220
0
230
1
 50
0
 73
    1
 44
1
  0
ENDBLK
  5
C1
330
BF
100
AcDbEntity
  8
0
100
AcDbBlockEnd
  0
BLOCK
  5
C3
330
C2
100
AcDbEntity
  8
0
100
AcDbBlockBegin
  2
unbemaßte_Kanten 1
 70
    0
 10
0
 20
0
  3
unbemaßte_Kanten 1
  1

  0
MTEXT
  5
1E3
100
AcDbEntity
  8
Symbole(DIN)
  6
ByLayer
 62
    7
370
   -1
100
AcDbMText
 10
-24.36149891465902
 20
1.291920635849237
 30
0
 40
2.5
 41
121.4583346190534
 71
    1
 72
    1
  1
unbemaßte Kanten 1x45\fAIGDT|b0|i0;\H2.5000;~\fArial|b0|i0;\H2.5000; fasen
  7
aktuell-din
210
0
220
0
230
1
 50
0
 73
    1
 44
1
  0
ENDBLK
  5
C4
330
C2
100
AcDbEntity
  8
0
100
AcDbBlockEnd
  0
BLOCK
  5
C6
330
C5
100
AcDbEntity
  8
0
100
AcDbBlockBegin
  2
Schleifrichtung rund
 70
    0
 10
0
 20
0
  3
Schleifrichtung rund
  1

  0
HATCH
  5
1E4
100
AcDbEntity
  8
Schraffur
  6
ByLayer
 62
  179
420
2500185
370
   -1
100
AcDbHatch
 10
0
 20
0
 30
0
210
0
220
0
230
1
  2
SOLID
 70
    1
 71
    0
 91
    1
 92
    0
 93
    3
 72
    1
 10
2.685970543868814
 20
1.033598154028645
 11
1.500695516670456
 21
2.910062754248521
 72
    1
 10
1.500695516670456
 20
2.910062754248521
 11
0.8087002570814227
 21
2.218067494659514
 72
    1
 10
0.8087002570814227
 20
2.218067494659514
 11
2.685970543868814
 21
1.033598154028645
 97
    0
 75
    0
 76
    1
 98
    0
  0
HATCH
  5
1E5
100
AcDbEntity
  8
Schraffur
  6
ByLayer
 62
  179
420
2500185
370
   -1
100
AcDbHatch
 10
0
 20
0
 30
0
210
0
220
0
230
1
  2
SOLID
 70
    1
 71
    0
 91
    1
 92
    0
 93
    3
 72
    1
 10
2.746159792612967
 20
-0.9654959543953012
 11
0.9437208322689283
 21
-2.260567411965119
 72
    1
 10
0.9437208322689283
 20
-2.260567411965119
 11
1.675752716096035
 21
-2.910062754248556
 72
    1
 10
1.675752716096035
 20
-2.910062754248556
 11
2.746159792612967
 21
-0.9654959543953012
 97
    0
 75
    0
 76
    1
 98
    0
  0
LINE
  5
1E6
100
AcDbEntity
  8
Skizziergeometrie(DIN)
  6
ByLayer
 62
  256
370
   -1
100
AcDbLine
 10
2.685970543868814
 20
1.033598154028645
 11
1.500695516670456
 21
2.910062754248521
  0
LINE
  5
1E7
100
AcDbEntity
  8
Skizziergeometrie(DIN)
  6
ByLayer
 62
  256
370
   -1
100
AcDbLine
 10
1.500695516670456
 20
2.910062754248521
 11
0.8087002570814227
 21
2.218067494659514
  0
LINE
  5
1E8
100
AcDbEntity
  8
Skizziergeometrie(DIN)
  6
ByLayer
 62
  256
370
   -1
100
AcDbLine
 10
0.8087002570814227
 20
2.218067494659514
 11
2.685970543868814
 21
1.033598154028645
  0
LINE
  5
1E9
100
AcDbEntity
  8
Skizziergeometrie(DIN)
  6
ByLayer
 62
  256
370
   -1
100
AcDbLine
 10
2.746159792612967
 20
-0.9654959543953012
 11
1.675752716096035
 21
-2.910062754248556
  0
LINE
  5
1EA
100
AcDbEntity
  8
Skizziergeometrie(DIN)
  6
ByLayer
 62
  256
370
   -1
100
AcDbLine
 10
1.675752716096035
 20
-2.910062754248556
 11
0.9437208322689283
 21
-2.260567411965119
  0
LINE
  5
1EB
100
AcDbEntity
  8
Skizziergeometrie(DIN)
  6
ByLayer
 62
  256
370
   -1
100
AcDbLine
 10
0.9437208322689283
 20
-2.260567411965119
 11
2.746159792612967
 21
-0.9654959543953012
  0
ARC
  5
1EC
100
AcDbEntity
  8
Skizziergeometrie (ISO)
  6
ByLayer
 62
  256
370
   -1
100
AcDbCircle
 10
0.07706842498974351
 20
-0.0454045049720975
 40
2.823228117602702
100
AcDbArc
 50
67.56090338518598
 51
295.8882073090315
  0
ENDBLK
  5
C7
330
C5
100
AcDbEntity
  8
0
100
AcDbBlockEnd
  0
BLOCK
  5
C9
330
C8
100
AcDbEntity
  8
0
100
AcDbBlockBegin
  2
Prototyp
 70
    0
 10
0
 20
0
  3
Prototyp
  1

  0
MTEXT
  5
1ED
100
AcDbEntity
  8
Symbol (ISO)
  6
ByLayer
 62
    1
370
   -1
100
AcDbMText
 10
-38.43368768692016
 20
5.167682543396949
 30
0
 40
10
 41
232.2222222222232
 71
    1
 72
    1
  1
\fArial|b1|i0;\H10.0000;\LPROTOTYP\l
  7
notiztext (din)
210
0
220
0
230
1
 50
0
 73
    1
 44
1
  0
ENDBLK
  5
CA
330
C8
100
AcDbEntity
  8
0
100
AcDbBlockEnd
  0
BLOCK
  5
CC
330
CB
100
AcDbEntity
  8
0
100
AcDbBlockBegin
  2
Freigabe
 70
    0
 10
0
 20
0
  3
Freigabe
  1

  0
MTEXT
  5
1EE
100
AcDbEntity
  8
Symbole(DIN)
  6
ByLayer
 62
    7
370
   -1
100
AcDbMText
 10
-44.64234352111816
 20
18.7593937292695
 30
0
 40
3.499999940395355
 41
191.6249967366486
 71
    1
 72
    1
  1
\fArial|b1|i0;\H3.5000;\LWir bitten um Freigabe zur Fertigung:\l\fArial|b1|i0;\H3.5000;\P\fArial|b0|i0;\H3.5000; \PDatum:___________________________\P \PName: ___________________________\P \PUnterschrift:_______________________
  7
aktuell-din
210
0
220
0
230
1
 50
0
 73
    2
 44
0.9442214965820312
  0
ENDBLK
  5
CD
330
CB
100
AcDbEntity
  8
0
100
AcDbBlockEnd
  0
BLOCK
  5
CF
330
CE
100
AcDbEntity
  8
0
100
AcDbBlockBegin
  2
Freigabe(Englisch)
 70
    0
 10
0
 20
0
  3
Freigabe(Englisch)
  1

  0
MTEXT
  5
1EF
100
AcDbEntity
  8
Symbole(DIN)
  6
ByLayer
 62
    7
370
   -1
100
AcDbMText
 10
-44.64234352111816
 20
18.75806000083685
 30
0
 40
3.499999940395355
 41
161.6805528021524
 71
    1
 72
    1
  1
\fArial|b1|i0;\H3.5000;\LWe ask for release for our production:\P\l\fArial|b0|i0;\H3.5000; \PDate:___________________________\P \PName: ___________________________\P \PSignature:_______________________
  7
aktuell-din
210
0
220
0
230
1
 50
0
 73
    2
 44
0.9442214965820312
  0
ENDBLK
  5
D0
330
CE
100
AcDbEntity
  8
0
100
AcDbBlockEnd
  0
BLOCK
  5
D2
330
D1
100
AcDbEntity
  8
0
100
AcDbBlockBegin
  2
Freigabe(Französisch)
 70
    0
 10
0
 20
0
  3
Freigabe(Französisch)
  1

  0
MTEXT
  5
1F0
100
AcDbEntity
  8
Symbole(DIN)
  6
ByLayer
 62
    7
370
   -1
100
AcDbMText
 10
-59.52934741973876
 20
18.78740441054105
 30
0
 40
3.499999940395355
 41
171.4027802588235
 71
    1
 72
    1
  1
\fArial|b1|i0;\H3.5000;\LNous demandons l'autorisation pour la production:\P\l\fArial|b0|i0;\H3.5000; \PDate:___________________________\P \PNom: ___________________________\P \PSignature:_______________________
  7
aktuell-din
210
0
220
0
230
1
 50
0
 73
    2
 44
0.9442214965820312
  0
ENDBLK
  5
D3
330
D1
100
AcDbEntity
  8
0
100
AcDbBlockEnd
  0
BLOCK
  5
D5
330
D4
100
AcDbEntity
  8
0
100
AcDbBlockBegin
  2
Freigabe(Spanisch)
 70
    0
 10
0
 20
0
  3
Freigabe(Spanisch)
  1

  0
MTEXT
  5
1F1
100
AcDbEntity
  8
Symbole(DIN)
  6
ByLayer
 62
    7
370
   -1
100
AcDbMText
 10
-46.81517124176025
 20
18.71937859803438
 30
0
 40
3.499999940395355
 41
166.7361082716124
 71
    1
 72
    1
  1
\fArial|b1|i0;\H3.5000;\LPor favor, dénos permiso para producir:\P\l\fArial|b0|i0;\H3.5000; \PFecha:___________________________\P \PNombre: ___________________________\P \PFirma:_______________________
  7
aktuell-din
210
0
220
0
230
1
 50
0
 73
    2
 44
0.9442214965820312
  0
ENDBLK
  5
D6
330
D4
100
AcDbEntity
  8
0
100
AcDbBlockEnd
  0
BLOCK
  5
D8
330
D7
100
AcDbEntity
  8
0
100
AcDbBlockBegin
  2
Schleifrichtung 30°
 70
    0
 10
0
 20
0
  3
Schleifrichtung 30°
  1

  0
MTEXT
  5
1F2
100
AcDbEntity
  8
Symbol (ISO)
  6
ByLayer
 62
  256
370
   -1
100
AcDbMText
 10
-1.291992841288447
 20
2.237797244126866
 30
0
 40
2.000000029802322
 41
45.77777803591607
 71
    2
 72
    1
  1
\fAIGDT|b0|i0;\H2.0000;#\P\fArial|b0|i0;\H2.0000;Schleifrichtung
  7
notiztext (din)
210
0
220
0
230
1
 50
29.99999999999999
 73
    2
 44
0.75
  0
ENDBLK
  5
D9
330
D7
100
AcDbEntity
  8
0
100
AcDbBlockEnd
  0
BLOCK
  5
DB
330
DA
100
AcDbEntity
  8
0
100
AcDbBlockBegin
  2
Schleifrichtung 60°
 70
    0
 10
0
 20
0
  3
Schleifrichtung 60°
  1

  0
MTEXT
  5
1F3
100
AcDbEntity
  8
Symbol (ISO)
  6
ByLayer
 62
  256
370
   -1
100
AcDbMText
 10
-2.237797244126848
 20
1.291992841288447
 30
0
 40
2.000000029802322
 41
45.77777803591607
 71
    2
 72
    1
  1
\fAIGDT|b0|i0;\H2.0000;#\P\fArial|b0|i0;\H2.0000;Schleifrichtung
  7
notiztext (din)
210
0
220
0
230
1
 50
60.00000000000004
 73
    2
 44
0.75
  0
ENDBLK
  5
DC
330
DA
100
AcDbEntity
  8
0
100
AcDbBlockEnd
  0
BLOCK
  5
DE
330
DD
100
AcDbEntity
  8
0
100
AcDbBlockBegin
  2
Schleifrichtung 40°
 70
    0
 10
0
 20
0
  3
Schleifrichtung 40°
  1

  0
MTEXT
  5
1F4
100
AcDbEntity
  8
Symbol (ISO)
  6
ByLayer
 62
  256
370
   -1
100
AcDbMText
 10
-1.660953980367843
 20
1.979447873236992
 30
0
 40
2.000000029802322
 41
45.77777803591607
 71
    2
 72
    1
  1
\fAIGDT|b0|i0;\H2.0000;#\P\fArial|b0|i0;\H2.0000;Schleifrichtung
  7
notiztext (din)
210
0
220
0
230
1
 50
39.99999999999999
 73
    2
 44
0.75
  0
ENDBLK
  5
DF
330
DD
100
AcDbEntity
  8
0
100
AcDbBlockEnd
  0
BLOCK
  5
E1
330
E0
100
AcDbEntity
  8
0
100
AcDbBlockBegin
  2
Schleifrichtung 90°
 70
    0
 10
0
 20
0
  3
Schleifrichtung 90°
  1

  0
MTEXT
  5
1F5
100
AcDbEntity
  8
Symbol (ISO)
  6
ByLayer
 62
  256
370
   -1
100
AcDbMText
 10
-2.583985682576894
 20
0
 30
0
 40
2.000000029802322
 41
45.77777803591607
 71
    2
 72
    1
  1
\fAIGDT|b0|i0;\H2.0000;#\P\fArial|b0|i0;\H2.0000;Schleifrichtung
  7
notiztext (din)
210
0
220
0
230
1
 50
89.99999999999991
 73
    2
 44
0.75
  0
ENDBLK
  5
E2
330
E0
100
AcDbEntity
  8
0
100
AcDbBlockEnd
  0
BLOCK
  5
E4
330
E3
100
AcDbEntity
  8
0
100
AcDbBlockBegin
  2
Schleifrichtung 20°
 70
    0
 10
0
 20
0
  3
Schleifrichtung 20°
  1

  0
MTEXT
  5
1F6
100
AcDbEntity
  8
Symbol (ISO)
  6
ByLayer
 62
  256
370
   -1
100
AcDbMText
 10
-0.8837751535064342
 20
2.428152278134021
 30
0
 40
2.000000029802322
 41
45.77777803591607
 71
    2
 72
    1
  1
\fAIGDT|b0|i0;\H2.0000;#\P\fArial|b0|i0;\H2.0000;Schleifrichtung
  7
notiztext (din)
210
0
220
0
230
1
 50
20.00000000000012
 73
    2
 44
0.75
  0
ENDBLK
  5
E5
330
E3
100
AcDbEntity
  8
0
100
AcDbBlockEnd
  0
BLOCK
  5
E7
330
E6
100
AcDbEntity
  8
0
100
AcDbBlockBegin
  2
Schleifrichtung 15°
 70
    0
 10
0
 20
0
  3
Schleifrichtung 15°
  1

  0
MTEXT
  5
1F7
100
AcDbEntity
  8
Symbol (ISO)
  6
ByLayer
 62
  256
370
   -1
100
AcDbMText
 10
-0.6687847069231267
 20
2.495938505562165
 30
0
 40
2.000000029802322
 41
45.77777803591607
 71
    2
 72
    1
  1
\fAIGDT|b0|i0;\H2.0000;#\P\fArial|b0|i0;\H2.0000;Schleifrichtung
  7
notiztext (din)
210
0
220
0
230
1
 50
15.00000000000012
 73
    2
 44
0.75
  0
ENDBLK
  5
E8
330
E6
100
AcDbEntity
  8
0
100
AcDbBlockEnd
  0
BLOCK
  5
EA
330
E9
100
AcDbEntity
  8
0
100
AcDbBlockBegin
  2
Schleifrichtung -30°
 70
    0
 10
0
 20
0
  3
Schleifrichtung -30°
  1

  0
MTEXT
  5
1F8
100
AcDbEntity
  8
Symbol (ISO)
  6
ByLayer
 62
  256
370
   -1
100
AcDbMText
 10
1.291992841288447
 20
2.237797244126795
 30
0
 40
2.000000029802322
 41
45.77777803591607
 71
    2
 72
    1
  1
\fAIGDT|b0|i0;\H2.0000;#\P\fArial|b0|i0;\H2.0000;Schleifrichtung
  7
notiztext (din)
210
0
220
0
230
1
 50
-30.00000000000004
 73
    2
 44
0.75
  0
ENDBLK
  5
EB
330
E9
100
AcDbEntity
  8
0
100
AcDbBlockEnd
  0
BLOCK
  5
ED
330
EC
100
AcDbEntity
  8
0
100
AcDbBlockBegin
  2
Schleifrichtung -15°
 70
    0
 10
0
 20
0
  3
Schleifrichtung -15°
  1

  0
MTEXT
  5
1F9
100
AcDbEntity
  8
Symbol (ISO)
  6
ByLayer
 62
  256
370
   -1
100
AcDbMText
 10
0.6687847069231267
 20
2.495938505562236
 30
0
 40
2.000000029802322
 41
45.77777803591607
 71
    2
 72
    1
  1
\fAIGDT|b0|i0;\H2.0000;#\P\fArial|b0|i0;\H2.0000;Schleifrichtung
  7
notiztext (din)
210
0
220
0
230
1
 50
-14.9999999999998
 73
    2
 44
0.75
  0
ENDBLK
  5
EE
330
EC
100
AcDbEntity
  8
0
100
AcDbBlockEnd
  0
BLOCK
  5
F0
330
EF
100
AcDbEntity
  8
0
100
AcDbBlockBegin
  2
Schleifrichtung -40°
 70
    0
 10
0
 20
0
  3
Schleifrichtung -40°
  1

  0
MTEXT
  5
1FA
100
AcDbEntity
  8
Symbol (ISO)
  6
ByLayer
 62
  256
370
   -1
100
AcDbMText
 10
1.660953980367843
 20
1.979447873236992
 30
0
 40
2.000000029802322
 41
45.77777803591607
 71
    2
 72
    1
  1
\fAIGDT|b0|i0;\H2.0000;#\P\fArial|b0|i0;\H2.0000;Schleifrichtung
  7
notiztext (din)
210
0
220
0
230
1
 50
-40.00000000000016
 73
    2
 44
0.75
  0
ENDBLK
  5
F1
330
EF
100
AcDbEntity
  8
0
100
AcDbBlockEnd
  0
BLOCK
  5
F3
330
F2
100
AcDbEntity
  8
0
100
AcDbBlockBegin
  2
Schleifrichtung -60°
 70
    0
 10
0
 20
0
  3
Schleifrichtung -60°
  1

  0
MTEXT
  5
1FB
100
AcDbEntity
  8
Symbol (ISO)
  6
ByLayer
 62
  256
370
   -1
100
AcDbMText
 10
2.237797244126848
 20
1.291992841288447
 30
0
 40
2.000000029802322
 41
45.77777803591607
 71
    2
 72
    1
  1
\fAIGDT|b0|i0;\H2.0000;#\P\fArial|b0|i0;\H2.0000;Schleifrichtung
  7
notiztext (din)
210
0
220
0
230
1
 50
-59.99999999999974
 73
    2
 44
0.75
  0
ENDBLK
  5
F4
330
F2
100
AcDbEntity
  8
0
100
AcDbBlockEnd
  0
BLOCK
  5
F6
330
F5
100
AcDbEntity
  8
0
100
AcDbBlockBegin
  2
Schleifrichtung -50°
 70
    0
 10
0
 20
0
  3
Schleifrichtung -50°
  1

  0
MTEXT
  5
1FC
100
AcDbEntity
  8
Symbol (ISO)
  6
ByLayer
 62
  256
370
   -1
100
AcDbMText
 10
1.979447873237027
 20
1.660953980367807
 30
0
 40
2.000000029802322
 41
45.77777803591607
 71
    2
 72
    1
  1
\fAIGDT|b0|i0;\H2.0000;#\P\fArial|b0|i0;\H2.0000;Schleifrichtung
  7
notiztext (din)
210
0
220
0
230
1
 50
-49.99999999999986
 73
    2
 44
0.75
  0
ENDBLK
  5
F7
330
F5
100
AcDbEntity
  8
0
100
AcDbBlockEnd
  0
BLOCK
  5
F9
330
F8
100
AcDbEntity
  8
0
100
AcDbBlockBegin
  2
Flächen Galvanik
 70
    0
 10
0
 20
0
  3
Flächen Galvanik
  1

  0
MTEXT
  5
1FD
100
AcDbEntity
  8
Symbol (ISO)
  6
ByLayer
 62
    8
370
   -1
100
AcDbMText
 10
-70.91235160827635
 20
11.89210736808782
 30
0
 40
6.99999988079071
 41
179.4722176818141
 71
    1
 72
    1
  1
\fArial|b1|i0;\H7.0000;FLÄCHE SCHLEIFEN!\P
  7
notiztext (din)
210
0
220
0
230
1
 50
0
 73
    2
 44
0.8571428656578063
  0
MTEXT
  5
1FE
100
AcDbEntity
  8
Symbol (ISO)
  6
ByLayer
 62
    1
370
   -1
100
AcDbMText
 10
-70.91235160827635
 20
3.200806027419123
 30
0
 40
6.99999988079071
 41
219.7222184803757
 71
    1
 72
    1
  1
\fArial|b1|i0;\H7.0000;FLÄCHE NICHT BEARBEITEN!
  7
notiztext (din)
210
0
220
0
230
1
 50
0
 73
    1
 44
1
  0
MTEXT
  5
1FF
100
AcDbEntity
  8
Symbol (ISO)
  6
ByLayer
 62
    5
370
   -1
100
AcDbMText
 10
-70.91235160827635
 20
-8.518632516837172
 30
0
 40
5
 41
185.6944444444452
 71
    1
 72
    1
  1
\fArial|b0|i0;\H5.0000;ACHTUNG! ALLE KANTEN GRATFREI!
  7
notiztext (din)
210
0
220
0
230
1
 50
0
 73
    1
 44
1
  0
ENDBLK
  5
FA
330
F8
100
AcDbEntity
  8
0
100
AcDbBlockEnd
  0
BLOCK
  5
FC
330
FB
100
AcDbEntity
  8
0
100
AcDbBlockBegin
  2
Duschenglas 8mm
 70
    0
 10
0
 20
0
  3
Duschenglas 8mm
  1

  0
MTEXT
  5
200
100
AcDbEntity
  8
Symbol (ISO)
  6
ByLayer
 62
    5
370
   -1
100
AcDbMText
 10
-45.90224742889404
 20
7.150431517511606
 30
0
 40
2.5
 41
97.84722398587674
 71
    1
 72
    1
  1
ESG 8mm klar gefertigt nach DIN EN14428 (Duschenglas).\PEin entsprechender Nachweis (Stempel) ist erforderlich.\PKanten umlaufend geschliffen und poliert.\PAlle Ecken stoßen oder leicht runden.
  7
notiztext (din)
210
0
220
0
230
1
 50
0
 73
    2
 44
0.9442214965820312
  0
ENDBLK
  5
FD
330
FB
100
AcDbEntity
  8
0
100
AcDbBlockEnd
  0
BLOCK
  5
FF
330
FE
100
AcDbEntity
  8
0
100
AcDbBlockBegin
  2
Außerhalb der AbZ 85
 70
    0
 10
0
 20
0
  3
Außerhalb der AbZ 85
  1

  0
MTEXT
  5
201
100
AcDbEntity
  8
Symbol (ISO)
  6
ByLayer
 62
  256
370
   -1
100
AcDbMText
 10
-61.90739154815673
 20
2.585746762342751
 30
0
 40
5
 41
204.4444444444475
 71
    1
 72
    1
  1
\fArial|b1|i0;\H5.0000;\LVordach außerhalb der AbZ Z-70.3-85
  7
notiztext (din)
210
0
220
0
230
1
 50
0
 73
    1
 44
1
  0
ENDBLK
  5
100
330
FE
100
AcDbEntity
  8
0
100
AcDbBlockEnd
  0
BLOCK
  5
102
330
101
100
AcDbEntity
  8
0
100
AcDbBlockBegin
  2
Duschenglas 6mm
 70
    0
 10
0
 20
0
  3
Duschenglas 6mm
  1

  0
MTEXT
  5
202
100
AcDbEntity
  8
Symbol (ISO)
  6
ByLayer
 62
    5
370
   -1
100
AcDbMText
 10
-45.90224742889404
 20
7.150431517511606
 30
0
 40
2.5
 41
97.84722398587689
 71
    1
 72
    1
  1
ESG 6mm klar gefertigt nach DIN EN14428 (Duschenglas).\PEin entsprechender Nachweis (Stempel) ist erforderlich.\PKanten umlaufend geschliffen und poliert.\PAlle Ecken stoßen oder leicht runden.
  7
notiztext (din)
210
0
220
0
230
1
 50
0
 73
    2
 44
0.9442214965820312
  0
ENDBLK
  5
103
330
101
100
AcDbEntity
  8
0
100
AcDbBlockEnd
  0
BLOCK
  5
105
330
104
100
AcDbEntity
  8
0
100
AcDbBlockBegin
  2
unbemaßte Kanten R_0_2 runden
 70
    0
 10
0
 20
0
  3
unbemaßte Kanten R_0_2 runden
  1

  0
MTEXT
  5
203
100
AcDbEntity
  8
Symbol (ISO)
  6
ByLayer
 62
  256
370
   -1
100
AcDbMText
 10
-25.96322298049927
 20
1.518673673272132
 30
0
 40
2.5
 41
54.93055555555673
 71
    1
 72
    1
  1
unbemaßte Kanten R=0,2 runden
  7
notiztext (din)
210
0
220
0
230
1
 50
0
 73
    1
 44
1
  0
ENDBLK
  5
106
330
104
100
AcDbEntity
  8
0
100
AcDbBlockEnd
  0
BLOCK
  5
108
330
107
100
AcDbEntity
  8
0
100
AcDbBlockBegin
  2
Prüfzertifikat nach DIN EN 10204 (3.1) erforderlich
 70
    0
 10
0
 20
0
  3
Prüfzertifikat nach DIN EN 10204 (3.1) erforderlich
  1

  0
MTEXT
  5
204
100
AcDbEntity
  8
Symbol (ISO)
  6
ByLayer
 62
  256
370
   -1
100
AcDbMText
 10
-39.00819301605224
 20
1.638719402253627
 30
0
 40
2.5
 41
86.80555527777867
 71
    1
 72
    1
  1
Prüfzertifikat nach DIN EN 10204 (3.1) erforderlich
  7
notiztext (din)
210
0
220
0
230
1
 50
0
 73
    1
 44
1
  0
ENDBLK
  5
109
330
107
100
AcDbEntity
  8
0
100
AcDbBlockEnd
  0
BLOCK
  5
10B
330
10A
100
AcDbEntity
  8
0
100
AcDbBlockBegin
  2
Reinigen
 70
    0
 10
0
 20
0
  3
Reinigen
  1

  0
MTEXT
  5
205
100
AcDbEntity
  8
Symbol (ISO)
  6
ByLayer
 62
  256
370
   -1
100
AcDbMText
 10
-53.57374191284179
 20
3.583934530615806
 30
0
 40
2.5
 41
119.5138914603266
 71
    1
 72
    1
  1
Nach der Bearbeitung von Dreh- und Frästeilen müssen \PBearbeitungsöle und -emulsionen von den Bauteilen entfernt werden.
  7
notiztext (din)
210
0
220
0
230
1
 50
0
 73
    2
 44
0.9442214965820312
  0
ENDBLK
  5
10C
330
10A
100
AcDbEntity
  8
0
100
AcDbBlockEnd
  0
BLOCK
  5
10E
330
10D
100
AcDbEntity
  8
0
100
AcDbBlockBegin
  2
Schleifrichtung rund-2
 70
    0
 10
0
 20
0
  3
Schleifrichtung rund-2
  1

  0
HATCH
  5
206
100
AcDbEntity
  8
Schraffur (ISO)
  6
ByLayer
 62
  156
420
16512
370
   -1
100
AcDbHatch
 10
0
 20
0
 30
0
210
0
220
0
230
1
  2
SOLID
 70
    1
 71
    0
 91
    1
 92
    0
 93
    3
 72
    1
 10
-10.47794571960972
 20
20.90644694881277
 11
-6.849893015193186
 21
13.46116476233097
 72
    1
 10
-6.849893015193186
 20
13.46116476233097
 11
-3.613318818075255
 21
16.27266978918406
 72
    1
 10
-3.613318818075255
 20
16.27266978918406
 11
-10.47794571960972
 21
20.90644694881277
 97
    0
 75
    0
 76
    1
 98
    0
  0
HATCH
  5
207
100
AcDbEntity
  8
Schraffur (ISO)
  6
ByLayer
 62
    7
370
   -1
100
AcDbHatch
 10
0
 20
0
 30
0
210
0
220
0
230
1
  2
SOLID
 70
    1
 71
    0
 91
    1
 92
    0
 93
    3
 72
    1
 10
8.373591724927785
 20
-13.05289092354922
 11
9.897290434662391
 21
-20.90644694881275
 72
    1
 10
9.897290434662391
 20
-20.90644694881275
 11
10.47794571960972
 21
-12.6446170847675
 72
    1
 10
10.47794571960972
 20
-12.6446170847675
 11
8.373591724927785
 21
-13.05289092354922
 97
    0
 75
    0
 76
    1
 98
    0
  0
HATCH
  5
208
100
AcDbEntity
  8
Schraffur (ISO)
  6
ByLayer
 62
    7
370
   -1
100
AcDbHatch
 10
0
 20
0
 30
0
210
0
220
0
230
1
  2
SOLID
 70
    1
 71
    0
 91
    1
 92
    0
 93
    3
 72
    1
 10
8.373591724927785
 20
-13.05289092354922
 11
6.269237730245844
 21
-13.46116476233096
 72
    1
 10
6.269237730245844
 20
-13.46116476233096
 11
9.897290434662391
 21
-20.90644694881275
 72
    1
 10
9.897290434662391
 20
-20.90644694881275
 11
8.373591724927785
 21
-13.05289092354922
 97
    0
 75
    0
 76
    1
 98
    0
  0
HATCH
  5
209
100
AcDbEntity
  8
Schraffur (ISO)
  6
ByLayer
 62
    7
370
   -1
100
AcDbHatch
 10
0
 20
0
 30
0
210
0
220
0
230
1
  2
SOLID
 70
    1
 71
    0
 91
    1
 92
    0
 93
    3
 72
    1
 10
-5.231605916634229
 20
14.86691727575753
 11
-10.47794571960972
 21
20.90644694881277
 72
    1
 10
-10.47794571960972
 20
20.90644694881277
 11
-6.849893015193186
 21
13.46116476233097
 72
    1
 10
-6.849893015193186
 20
13.46116476233097
 11
-5.231605916634229
 21
14.86691727575753
 97
    0
 75
    0
 76
    1
 98
    0
  0
HATCH
  5
20A
100
AcDbEntity
  8
Schraffur (ISO)
  6
ByLayer
 62
    7
370
   -1
100
AcDbHatch
 10
0
 20
0
 30
0
210
0
220
0
230
1
  2
SOLID
 70
    1
 71
    0
 91
    1
 92
    0
 93
    3
 72
    1
 10
-5.231605916634229
 20
14.86691727575753
 11
-3.613318818075255
 21
16.27266978918406
 72
    1
 10
-3.613318818075255
 20
16.27266978918406
 11
-10.47794571960972
 21
20.90644694881277
 72
    1
 10
-10.47794571960972
 20
20.90644694881277
 11
-5.231605916634229
 21
14.86691727575753
 97
    0
 75
    0
 76
    1
 98
    0
  0
ARC
  5
20B
100
AcDbEntity
  8
Skizziergeometrie (ISO)
  6
ByLayer
 62
  256
370
   -1
100
AcDbCircle
 10
-50.5280784645487
 20
-24.48063124655874
 40
60
100
AcDbArc
 50
10.97976698014274
 51
40.9797669801427
  0
LINE
  5
20C
100
AcDbEntity
  8
Skizziergeometrie (ISO)
  6
ByLayer
 62
  256
370
   -1
100
AcDbLine
 10
-5.231605916634229
 20
14.86691727575753
 11
-10.47794571960972
 21
20.90644694881277
  0
LINE
  5
20D
100
AcDbEntity
  8
Skizziergeometrie (ISO)
  6
ByLayer
 62
  256
370
   -1
100
AcDbLine
 10
-10.47794571960972
 20
20.90644694881277
 11
-6.849893015193186
 21
13.46116476233097
  0
LINE
  5
20E
100
AcDbEntity
  8
Skizziergeometrie (ISO)
  6
ByLayer
 62
  256
370
   -1
100
AcDbLine
 10
-6.849893015193186
 20
13.46116476233097
 11
-3.613318818075255
 21
16.27266978918406
  0
LINE
  5
20F
100
AcDbEntity
  8
Skizziergeometrie (ISO)
  6
ByLayer
 62
  256
370
   -1
100
AcDbLine
 10
-3.613318818075255
 20
16.27266978918406
 11
-10.47794571960972
 21
20.90644694881277
  0
LINE
  5
210
100
AcDbEntity
  8
Skizziergeometrie (ISO)
  6
ByLayer
 62
  256
370
   -1
100
AcDbLine
 10
8.373591724927785
 20
-13.05289092354922
 11
9.897290434662391
 21
-20.90644694881275
  0
LINE
  5
211
100
AcDbEntity
  8
Skizziergeometrie (ISO)
  6
ByLayer
 62
  256
370
   -1
100
AcDbLine
 10
9.897290434662391
 20
-20.90644694881275
 11
6.269237730245844
 21
-13.46116476233096
  0
LINE
  5
212
100
AcDbEntity
  8
Skizziergeometrie (ISO)
  6
ByLayer
 62
  256
370
   -1
100
AcDbLine
 10
6.269237730245844
 20
-13.46116476233096
 11
10.47794571960972
 21
-12.6446170847675
  0
LINE
  5
213
100
AcDbEntity
  8
Skizziergeometrie (ISO)
  6
ByLayer
 62
  256
370
   -1
100
AcDbLine
 10
10.47794571960972
 20
-12.6446170847675
 11
9.897290434662391
 21
-20.90644694881275
  0
ENDBLK
  5
10F
330
10D
100
AcDbEntity
  8
0
100
AcDbBlockEnd
  0
BLOCK
  5
111
330
110
100
AcDbEntity
  8
0
100
AcDbBlockBegin
  2
EPDM-washer
 70
    0
 10
0
 20
0
  3
EPDM-washer
  1

  0
MTEXT
  5
214
100
AcDbEntity
  8
Symbole(DIN)
  6
ByLayer
 62
    7
370
   -1
100
AcDbMText
 10
-11.25666856765747
 20
1.270007696002721
 30
0
 40
2.5
 41
21.94444573016283
 71
    1
 72
    1
  1
EPDM-washer
  7
aktuell-din
210
0
220
0
230
1
 50
0
 73
    1
 44
1
  0
ENDBLK
  5
112
330
110
100
AcDbEntity
  8
0
100
AcDbBlockEnd
  0
BLOCK
  5
114
330
113
100
AcDbEntity
  8
0
100
AcDbBlockBegin
  2
isometric view
 70
    0
 10
0
 20
0
  3
isometric view
  1

  0
MTEXT
  5
215
100
AcDbEntity
  8
Symbole(DIN)
  6
ByLayer
 62
    7
370
   -1
100
AcDbMText
 10
-10.96417665481567
 20
1.270007696002721
 30
0
 40
2.5
 41
23.263890174607
 71
    1
 72
    1
  1
isometric view
  7
aktuell-din
210
0
220
0
230
1
 50
0
 73
    1
 44
1
  0
ENDBLK
  5
115
330
113
100
AcDbEntity
  8
0
100
AcDbBlockEnd
  0
BLOCK
  5
117
330
116
100
AcDbEntity
  8
0
100
AcDbBlockBegin
  2
glazing
 70
    0
 10
0
 20
0
  3
glazing
  1

  0
MTEXT
  5
216
100
AcDbEntity
  8
Symbole(DIN)
  6
ByLayer
 62
    7
370
   -1
100
AcDbMText
 10
-5.532583594322204
 20
1.616806462407112
 30
0
 40
2.5
 41
10.83333333333391
 71
    1
 72
    1
  1
glazing
  7
aktuell-din
210
0
220
0
230
1
 50
0
 73
    1
 44
1
  0
ENDBLK
  5
118
330
116
100
AcDbEntity
  8
0
100
AcDbBlockEnd
  0
BLOCK
  5
11A
330
119
100
AcDbEntity
  8
0
100
AcDbBlockBegin
  2
countersink screw EN ISO A2
 70
    0
 10
0
 20
0
  3
countersink screw EN ISO A2
  1

  0
MTEXT
  5
217
100
AcDbEntity
  8
Symbole(DIN)
  6
ByLayer
 62
    7
370
   -1
100
AcDbMText
 10
-16.98551774024963
 20
5.20426383242011
 30
0
 40
2.5
 41
33.40277724777287
 71
    1
 72
    1
  1
countersink screw\PEN ISO 10642 M6x16\Pmaterial: A2
  7
aktuell-din
210
0
220
0
230
1
 50
0
 73
    2
 44
0.9442214965820312
  0
ENDBLK
  5
11B
330
119
100
AcDbEntity
  8
0
100
AcDbBlockEnd
  0
BLOCK
  5
11D
330
11C
100
AcDbEntity
  8
0
100
AcDbBlockBegin
  2
cylinder head screw EN ISO A2
 70
    0
 10
0
 20
0
  3
cylinder head screw EN ISO A2
  1

  0
MTEXT
  5
218
100
AcDbEntity
  8
Symbole(DIN)
  6
ByLayer
 62
    7
370
   -1
100
AcDbMText
 10
-16.01467132568359
 20
5.20426383242011
 30
0
 40
2.5
 41
33.47222350794068
 71
    1
 72
    1
  1
cylinder head screw\PEN ISO 4762 M8x20\Pmaterial: A2
  7
aktuell-din
210
0
220
0
230
1
 50
0
 73
    2
 44
0.9442214965820312
  0
ENDBLK
  5
11E
330
11C
100
AcDbEntity
  8
0
100
AcDbBlockEnd
  0
BLOCK
  5
120
330
11F
100
AcDbEntity
  8
0
100
AcDbBlockBegin
  2
P+S glass clamp
 70
    0
 10
0
 20
0
  3
P+S glass clamp
  1

  0
MTEXT
  5
219
100
AcDbEntity
  8
Symbole(DIN)
  6
ByLayer
 62
    7
370
   -1
100
AcDbMText
 10
-26.10899209976196
 20
3.277438879013061
 30
0
 40
5
 41
120.8333374161963
 71
    1
 72
    1
  1
\fArial|b0|i0;\H5.0000;P+S glass clamp
  7
aktuell-din
210
0
220
0
230
1
 50
0
 73
    1
 44
1
  0
ENDBLK
  5
121
330
11F
100
AcDbEntity
  8
0
100
AcDbBlockEnd
  0
BLOCK
  5
123
330
122
100
AcDbEntity
  8
0
100
AcDbBlockBegin
  2
2DTransSchnitt0
 70
    0
 10
0
 20
0
  3
2DTransSchnitt0
  1

  0
LINE
  5
21A
100
AcDbEntity
  8
Schnittlinie (ISO)
  6
CONTINUOUS
 62
  256
370
   -1
100
AcDbLine
 10
209.0255741969609
 20
168.4452688413178
 11
209.0255741969623
 21
173.4452688413178
  0
LWPOLYLINE
  5
21B
100
AcDbEntity
  8
Schnittlinie (ISO)
  6
CONTINUOUS
 62
  256
370
   -1
100
AcDbPolyline
 90
    4
 70
    0
 43
0
 10
210.0255741761825
 20
168.4452686475745
 10
209.0255739377639
 20
173.4452686475745
 10
208.0255742953918
 20
168.4452686475745
 10
210.0255741761825
 20
168.4452686475745
  0
SOLID
  5
21C
100
AcDbEntity
  8
Schnittlinie (ISO)
  6
ByLayer
 62
  256
370
   -1
100
AcDbTrace
 10
210.0255741761825
 20
168.4452686475745
 30
0
 11
209.0255739377639
 21
173.4452686475745
 31
0
 12
208.0255742953918
 22
168.4452686475745
 32
0
 13
210.0255741761825
 23
168.4452686475745
 33
0
  0
LINE
  5
21D
100
AcDbEntity
  8
Schnittlinie (ISO)
  6
CONTINUOUS
 62
  256
370
   -1
100
AcDbLine
 10
210.0255741969609
 20
168.4452688413175
 11
209.0255741969623
 21
173.4452688413178
  0
LINE
  5
21E
100
AcDbEntity
  8
Schnittlinie (ISO)
  6
CONTINUOUS
 62
  256
370
   -1
100
AcDbLine
 10
209.0255741969623
 20
173.4452688413178
 11
208.0255741969609
 21
168.4452688413181
  0
LINE
  5
21F
100
AcDbEntity
  8
Schnittlinie (ISO)
  6
CONTINUOUS
 62
  256
370
   -1
100
AcDbLine
 10
208.0255741969609
 20
168.4452688413181
 11
210.0255741969609
 21
168.4452688413175
  0
LINE
  5
220
100
AcDbEntity
  8
Schnittlinie (ISO)
  6
CONTINUOUS
 62
  256
370
   -1
100
AcDbLine
 10
209.0255741969594
 20
163.4452688413178
 11
209.0255741969609
 21
168.4452688413178
  0
MTEXT
  5
221
100
AcDbEntity
  8
Schnittlinie (ISO)
  6
ByLayer
 62
  256
370
   -1
100
AcDbMText
 10
201.9401899681895
 20
161.9452688413188
 30
0
 40
4.000000059604644
 41
2.222222255336161
 71
    7
 72
    1
  1
D
  7
bezeichnungstext (din)
210
0
220
0
230
1
 50
0
 73
    1
 44
1
  0
ENDBLK
  5
124
330
122
100
AcDbEntity
  8
0
100
AcDbBlockEnd
  0
ENDSEC
  0
SECTION
  2
ENTITIES
  0
LINE
  5
222
100
AcDbEntity
  8
Sichtbar (ISO)
  6
ByLayer
 62
  256
370
   -1
100
AcDbLine
 10
321.4206975770147
 20
155.5973174296604
 11
320.6206975770147
 21
155.5973174296604
  0
LINE
  5
223
100
AcDbEntity
  8
Sichtbar (ISO)
  6
ByLayer
 62
  256
370
   -1
100
AcDbLine
 10
320.6206975770147
 20
155.5973174296604
 11
320.6206975770148
 21
128.5973174296605
  0
LINE
  5
224
100
AcDbEntity
  8
Sichtbar (ISO)
  6
ByLayer
 62
  256
370
   -1
100
AcDbLine
 10
320.6206975770148
 20
128.5973174296605
 11
321.4206975770148
 21
128.5973174296604
  0
LINE
  5
225
100
AcDbEntity
  8
Sichtbar (ISO)
  6
ByLayer
 62
  256
370
   -1
100
AcDbLine
 10
321.4206975770148
 20
128.5973174296604
 11
321.4206975770147
 21
155.5973174296604
  0
LINE
  5
226
100
AcDbEntity
  8
Sichtbar (ISO)
  6
ByLayer
 62
  256
370
   -1
100
AcDbLine
 10
321.4206975770147
 20
82.59731742966048
 11
320.6206975770147
 21
82.59731742966048
  0
LINE
  5
227
100
AcDbEntity
  8
Sichtbar (ISO)
  6
ByLayer
 62
  256
370
   -1
100
AcDbLine
 10
320.6206975770147
 20
82.59731742966048
 11
320.6206975770148
 21
55.5973174296605
  0
LINE
  5
228
100
AcDbEntity
  8
Sichtbar (ISO)
  6
ByLayer
 62
  256
370
   -1
100
AcDbLine
 10
320.6206975770148
 20
55.5973174296605
 11
321.4206975770148
 21
55.5973174296605
  0
LINE
  5
229
100
AcDbEntity
  8
Sichtbar (ISO)
  6
ByLayer
 62
  256
370
   -1
100
AcDbLine
 10
321.4206975770148
 20
55.5973174296605
 11
321.4206975770148
 21
82.59731742966048
  0
LINE
  5
22A
100
AcDbEntity
  8
Sichtbar (ISO)
  6
ByLayer
 62
  256
370
   -1
100
AcDbLine
 10
311.6206975770148
 20
55.59731742966047
 11
311.6206975770148
 21
85.59731742966045
  0
LINE
  5
22B
100
AcDbEntity
  8
Sichtbar (ISO)
  6
ByLayer
 62
  256
370
   -1
100
AcDbLine
 10
311.6206975770148
 20
85.59731742966045
 11
310.8206975770148
 21
85.59731742966045
  0
LINE
  5
22C
100
AcDbEntity
  8
Sichtbar (ISO)
  6
ByLayer
 62
  256
370
   -1
100
AcDbLine
 10
310.8206975770147
 20
125.5973174296605
 11
311.6206975770148
 21
125.5973174296604
  0
LINE
  5
22D
100
AcDbEntity
  8
Sichtbar (ISO)
  6
ByLayer
 62
  256
370
   -1
100
AcDbLine
 10
311.6206975770148
 20
125.5973174296604
 11
311.6206975770147
 21
155.5973174296604
  0
LINE
  5
22E
100
AcDbEntity
  8
Sichtbar (ISO)
  6
ByLayer
 62
  256
370
   -1
100
AcDbLine
 10
310.8206975770148
 20
55.59731742966047
 11
311.6206975770148
 21
55.59731742966047
  0
LINE
  5
22F
100
AcDbEntity
  8
Sichtbar (ISO)
  6
ByLayer
 62
  256
370
   -1
100
AcDbLine
 10
310.8206975770148
 20
85.59731742966045
 11
310.8206975770148
 21
55.59731742966047
  0
LINE
  5
230
100
AcDbEntity
  8
Sichtbar (ISO)
  6
ByLayer
 62
  256
370
   -1
100
AcDbLine
 10
310.8206975770147
 20
155.5973174296604
 11
310.8206975770147
 21
125.5973174296605
  0
LINE
  5
231
100
AcDbEntity
  8
Sichtbar (ISO)
  6
ByLayer
 62
  256
370
   -1
100
AcDbLine
 10
311.6206975770147
 20
155.5973174296604
 11
310.8206975770147
 21
155.5973174296604
  0
LINE
  5
232
100
AcDbEntity
  8
Sichtbar (ISO)
  6
ByLayer
 62
  256
370
   -1
100
AcDbLine
 10
321.4206975770148
 20
128.5973174296604
 11
360.3756995786164
 21
128.5973174296605
  0
LINE
  5
233
100
AcDbEntity
  8
Sichtbar (ISO)
  6
ByLayer
 62
  256
370
   -1
100
AcDbLine
 10
360.3756995786164
 20
82.59731742966054
 11
321.4206975770148
 21
82.59731742966048
  0
ARC
  5
234
100
AcDbEntity
  8
Sichtbar (ISO)
  6
ByLayer
 62
  256
370
   -1
100
AcDbCircle
 10
366.6206975770148
 20
123.5973174296605
 40
7.999999999999998
100
AcDbArc
 50
0
 51
141.3178125465111
  0
ARC
  5
235
100
AcDbEntity
  8
Sichtbar (ISO)
  6
ByLayer
 62
  256
370
   -1
100
AcDbCircle
 10
366.6206975770148
 20
87.59731742966051
 40
7.999999999999971
100
AcDbArc
 50
218.6821874534892
 51
0
  0
LINE
  5
236
100
AcDbEntity
  8
Sichtbar (ISO)
  6
ByLayer
 62
  256
370
   -1
100
AcDbLine
 10
374.6206975770147
 20
123.5973174296605
 11
374.6206975770147
 21
87.59731742966051
  0
LINE
  5
237
100
AcDbEntity
  8
Sichtbar (ISO)
  6
ByLayer
 62
  256
370
   -1
100
AcDbLine
 10
395.6206975770148
 20
55.59731742966054
 11
321.4206975770148
 21
55.5973174296605
  0
LINE
  5
238
100
AcDbEntity
  8
Sichtbar (ISO)
  6
ByLayer
 62
  256
370
   -1
100
AcDbLine
 10
395.6206975770147
 20
155.5973174296605
 11
395.6206975770148
 21
55.59731742966056
  0
LINE
  5
239
100
AcDbEntity
  8
Sichtbar (ISO)
  6
ByLayer
 62
  256
370
   -1
100
AcDbLine
 10
321.4206975770147
 20
155.5973174296604
 11
395.6206975770147
 21
155.5973174296605
  0
LINE
  5
23A
100
AcDbEntity
  8
Sichtbar (ISO)
  6
ByLayer
 62
  256
370
   -1
100
AcDbLine
 10
310.8206975770148
 20
85.59731742966045
 11
286.1059789512533
 21
85.59731742966051
  0
LINE
  5
23B
100
AcDbEntity
  8
Sichtbar (ISO)
  6
ByLayer
 62
  256
370
   -1
100
AcDbLine
 10
286.1059789512533
 20
125.5973174296604
 11
310.8206975770147
 21
125.5973174296605
  0
ARC
  5
23C
100
AcDbEntity
  8
Sichtbar (ISO)
  6
ByLayer
 62
  256
370
   -1
100
AcDbCircle
 10
277.6206975770147
 20
88.59731742966046
 40
8.999999999999991
100
AcDbArc
 50
90.00000000000021
 51
340.5287793655095
  0
LINE
  5
23D
100
AcDbEntity
  8
Sichtbar (ISO)
  6
ByLayer
 62
  256
370
   -1
100
AcDbLine
 10
277.6206975770147
 20
97.59731742966048
 11
277.6206975770147
 21
113.5973174296605
  0
ARC
  5
23E
100
AcDbEntity
  8
Sichtbar (ISO)
  6
ByLayer
 62
  256
370
   -1
100
AcDbCircle
 10
277.6206975770147
 20
122.5973174296604
 40
8.999999999999968
100
AcDbArc
 50
19.47122063449085
 51
270
  0
LINE
  5
23F
100
AcDbEntity
  8
Sichtbar (ISO)
  6
ByLayer
 62
  256
370
   -1
100
AcDbLine
 10
251.6206975770147
 20
155.5973174296604
 11
310.8206975770147
 21
155.5973174296604
  0
LINE
  5
240
100
AcDbEntity
  8
Sichtbar (ISO)
  6
ByLayer
 62
  256
370
   -1
100
AcDbLine
 10
251.6206975770148
 20
55.59731742966047
 11
251.6206975770147
 21
155.5973174296604
  0
LINE
  5
241
100
AcDbEntity
  8
Sichtbar (ISO)
  6
ByLayer
 62
  256
370
   -1
100
AcDbLine
 10
310.8206975770148
 20
55.59731742966047
 11
251.6206975770148
 21
55.59731742966047
  0
LINE
  5
242
100
AcDbEntity
  8
Verdeckt (ISO)
  6
ByLayer
 62
  256
370
   -1
100
AcDbLine
 10
305.4206975770148
 20
55.59731742966047
 11
305.4206975770148
 21
85.59731742966048
  0
LINE
  5
243
100
AcDbEntity
  8
Verdeckt (ISO)
  6
ByLayer
 62
  256
370
   -1
100
AcDbLine
 10
305.4206975770147
 20
125.5973174296604
 11
305.4206975770147
 21
155.5973174296604
  0
LINE
  5
244
100
AcDbEntity
  8
Mittelpunktmarkierung (ISO)
  6
CONTINUOUS
 62
  256
370
   -1
100
AcDbLine
 10
278.1206975770148
 20
122.5973174296605
 11
267.1206975770147
 21
122.5973174296605
  0
LINE
  5
245
100
AcDbEntity
  8
Mittelpunktmarkierung (ISO)
  6
CONTINUOUS
 62
  256
370
   -1
100
AcDbLine
 10
277.6206975770147
 20
133.0973174296605
 11
277.6206975770147
 21
112.0973174296605
  0
LINE
  5
246
100
AcDbEntity
  8
Mittelpunktmarkierung (ISO)
  6
CONTINUOUS
 62
  256
370
   -1
100
AcDbLine
 10
278.1206975770148
 20
88.59731742966046
 11
267.1206975770147
 21
88.59731742966046
  0
LINE
  5
247
100
AcDbEntity
  8
Mittelpunktmarkierung (ISO)
  6
CONTINUOUS
 62
  256
370
   -1
100
AcDbLine
 10
277.6206975770147
 20
99.09731742966048
 11
277.6206975770147
 21
78.09731742966046
  0
LINE
  5
248
100
AcDbEntity
  8
Mittelpunktmarkierung (ISO)
  6
CONTINUOUS
 62
  256
370
   -1
100
AcDbLine
 10
376.1206975770148
 20
123.5973174296605
 11
366.1206975770148
 21
123.5973174296605
  0
LINE
  5
249
100
AcDbEntity
  8
Mittelpunktmarkierung (ISO)
  6
CONTINUOUS
 62
  256
370
   -1
100
AcDbLine
 10
366.6206975770148
 20
133.0973174296605
 11
366.6206975770148
 21
123.0973174296605
  0
LINE
  5
24A
100
AcDbEntity
  8
Mittelpunktmarkierung (ISO)
  6
CONTINUOUS
 62
  256
370
   -1
100
AcDbLine
 10
376.1206975770148
 20
87.59731742966051
 11
366.1206975770148
 21
87.59731742966051
  0
LINE
  5
24B
100
AcDbEntity
  8
Mittelpunktmarkierung (ISO)
  6
CONTINUOUS
 62
  256
370
   -1
100
AcDbLine
 10
366.6206975770148
 20
88.09731742966051
 11
366.6206975770148
 21
78.09731742966049
  0
DIMENSION
  5
24C
100
AcDbEntity
  8
Bemaßung (ISO)
  6
CONTINUOUS
 62
    7
370
   18
100
AcDbDimension
  2
*D1
 10
277.6206975770147
 20
45.59731742966024
 30
0
 11
294.6206975770146
 21
45.59731742966024
 31
0
 70
   32
  1
<>
 71
    5
 72
    0
  3
Pauli_DINGroßer Text
 53
0
210
0
220
0
230
1
100
AcDbAlignedDimension
 13
311.6206975770148
 23
55.59731742966047
 33
0
 14
277.6206975770147
 24
78.09731742966046
 34
0
 50
180
100
AcDbRotatedDimension
  0
DIMENSION
  5
24D
100
AcDbEntity
  8
Bemaßung (ISO)
  6
CONTINUOUS
 62
    7
370
   18
100
AcDbDimension
  2
*D2
 10
366.6206975770148
 20
45.59731742966024
 30
0
 11
343.6206975770149
 21
45.59731742966024
 31
0
 70
   32
  1
<>
 71
    5
 72
    0
  3
Pauli_DINGroßer Text
 53
0
210
0
220
0
230
1
100
AcDbAlignedDimension
 13
320.6206975770148
 23
55.5973174296605
 33
0
 14
366.6206975770148
 24
78.09731742966049
 34
0
 50
180
100
AcDbRotatedDimension
  0
DIMENSION
  5
24E
100
AcDbEntity
  8
Bemaßung (ISO)
  6
CONTINUOUS
 62
    7
370
   18
100
AcDbDimension
  2
*D3
 10
348.6206975770148
 20
87.59731742966051
 30
0
 11
348.6206975770148
 21
105.5973174296605
 31
0
 70
   32
  1
<>
 71
    5
 72
    0
  3
Pauli_DINGroßer Text
 53
0
210
0
220
0
230
1
100
AcDbAlignedDimension
 13
366.1206975770148
 23
123.5973174296605
 33
0
 14
366.1206975770148
 24
87.59731742966051
 34
0
 50
90
100
AcDbRotatedDimension
  0
DIMENSION
  5
24F
100
AcDbEntity
  8
Bemaßung (ISO)
  6
CONTINUOUS
 62
    7
370
   18
100
AcDbDimension
  2
*D4
 10
339.2864171399113
 20
82.59731742966054
 30
0
 11
339.2864171399112
 21
105.5973174296603
 31
0
 70
   32
  1
<>
 71
    5
 72
    0
  3
Pauli_DINGroßer Text
 53
0
210
0
220
0
230
1
100
AcDbAlignedDimension
 13
339.2864171399111
 23
128.5973174296604
 33
0
 14
339.2864171399112
 24
82.59731742966051
 34
0
 50
270
100
AcDbRotatedDimension
  0
DIMENSION
  5
250
100
AcDbEntity
  8
Bemaßung (ISO)
  6
CONTINUOUS
 62
    7
370
   18
100
AcDbDimension
  2
*D5
 10
366.6206975770148
 20
123.5973174296604
 30
0
 11
380.1354326967139
 21
140.9511455793298
 31
0
 70
   36
  1
<>
 71
    5
 72
    0
  3
Pauli_DINGroßer Text
 53
0
210
0
220
0
230
1
100
AcDbRadialDimension
 15
372.277551826508
 25
129.254171679152
 35
0
 40
0
  0
DIMENSION
  5
251
100
AcDbEntity
  8
Bemaßung (ISO)
  6
CONTINUOUS
 62
    7
370
   18
100
AcDbDimension
  2
*D6
 10
277.6206975770147
 20
122.5973174296605
 30
0
 11
263.3988556761289
 21
140.6582523605161
 31
0
 70
   36
  1
<>
 71
    5
 72
    0
  3
Pauli_DINGroßer Text
 53
0
210
0
220
0
230
1
100
AcDbRadialDimension
 15
271.2567365463349
 25
128.9612784603384
 35
0
 40
0
  0
DIMENSION
  5
252
100
AcDbEntity
  8
Bemaßung (ISO)
  6
CONTINUOUS
 62
    7
370
   18
100
AcDbDimension
  2
*D7
 10
307.1384969923292
 20
85.59731742966048
 30
0
 11
307.1384969923292
 21
105.5973174296602
 31
0
 70
   32
  1
<>
 71
    5
 72
    0
  3
Pauli_DINGroßer Text
 53
0
210
0
220
0
230
1
100
AcDbAlignedDimension
 13
307.1384969923291
 23
125.5973174296605
 33
0
 14
307.1384969923292
 24
85.59731742966045
 34
0
 50
270
100
AcDbRotatedDimension
  0
DIMENSION
  5
253
100
AcDbEntity
  8
Bemaßung (ISO)
  6
CONTINUOUS
 62
    7
370
   18
100
AcDbDimension
  2
*D8
 10
295.6206975770148
 20
88.59731742966054
 30
0
 11
295.6206975770147
 21
105.5973174296605
 31
0
 70
   32
  1
<>
 71
    5
 72
    0
  3
Pauli_DINGroßer Text
 53
0
210
0
220
0
230
1
100
AcDbAlignedDimension
 13
278.1206975770148
 23
122.5973174296605
 33
0
 14
278.1206975770148
 24
88.59731742966046
 34
0
 50
90
100
AcDbRotatedDimension
  0
LINE
  5
254
100
AcDbEntity
  8
Sichtbar (ISO)
  6
ByLayer
 62
  256
370
   -1
100
AcDbLine
 10
321.4206975770653
 20
15.25670288091468
 11
320.6206975770653
 21
16.05670288091467
  0
LINE
  5
255
100
AcDbEntity
  8
Sichtbar (ISO)
  6
ByLayer
 62
  256
370
   -1
100
AcDbLine
 10
320.6206975770653
 20
22.45670288091475
 11
321.4206975770653
 21
23.25670288091469
  0
LINE
  5
256
100
AcDbEntity
  8
Sichtbar (ISO)
  6
ByLayer
 62
  256
370
   -1
100
AcDbLine
 10
311.6206975770653
 20
16.0567028809147
 11
310.8206975770653
 21
15.25670288091468
  0
LINE
  5
257
100
AcDbEntity
  8
Verdeckt (ISO)
  6
ByLayer
 62
  256
370
   -1
100
AcDbLine
 10
360.375699578667
 20
15.25670288090673
 11
360.375699578667
 21
23.25670288090674
  0
LINE
  5
258
100
AcDbEntity
  8
Verdeckt (ISO)
  6
ByLayer
 62
  256
370
   -1
100
AcDbLine
 10
374.6206975770653
 20
15.25670288090523
 11
374.6206975770653
 21
23.25670288090524
  0
LINE
  5
259
100
AcDbEntity
  8
Verdeckt (ISO)
  6
ByLayer
 62
  256
370
   -1
100
AcDbLine
 10
286.1059789513039
 20
15.25670288090577
 11
286.1059789513039
 21
23.25670288090578
  0
LINE
  5
25A
100
AcDbEntity
  8
Verdeckt (ISO)
  6
ByLayer
 62
  256
370
   -1
100
AcDbLine
 10
277.6206975770654
 20
15.25670288090218
 11
277.6206975770654
 21
23.25670288090219
  0
LINE
  5
25B
100
AcDbEntity
  8
Verdeckt (ISO)
  6
ByLayer
 62
  256
370
   -1
100
AcDbLine
 10
268.6206975770653
 20
15.25670288090495
 11
268.6206975770653
 21
23.25670288090496
  0
LINE
  5
25C
100
AcDbEntity
  8
Sichtbar (ISO)
  6
ByLayer
 62
  256
370
   -1
100
AcDbLine
 10
320.6206975770653
 20
16.05670288091467
 11
320.6206975770653
 21
22.45670288091475
  0
LINE
  5
25D
100
AcDbEntity
  8
Sichtbar (ISO)
  6
ByLayer
 62
  256
370
   -1
100
AcDbLine
 10
321.4206975770653
 20
23.25670288091469
 11
395.6206975770653
 21
23.25670288091477
  0
LINE
  5
25E
100
AcDbEntity
  8
Sichtbar (ISO)
  6
ByLayer
 62
  256
370
   -1
100
AcDbLine
 10
395.6206975770653
 20
15.25670288091476
 11
395.6206975770653
 21
23.25670288091477
  0
LINE
  5
25F
100
AcDbEntity
  8
Sichtbar (ISO)
  6
ByLayer
 62
  256
370
   -1
100
AcDbLine
 10
321.4206975770653
 20
15.25670288091468
 11
395.6206975770653
 21
15.25670288091476
  0
LINE
  5
260
100
AcDbEntity
  8
Sichtbar (ISO)
  6
ByLayer
 62
  256
370
   -1
100
AcDbLine
 10
311.6206975770653
 20
16.0567028809147
 11
311.6206975770653
 21
17.05670288091468
  0
LINE
  5
261
100
AcDbEntity
  8
Sichtbar (ISO)
  6
ByLayer
 62
  256
370
   -1
100
AcDbLine
 10
251.6206975770653
 20
15.25670288091465
 11
310.8206975770653
 21
15.25670288091468
  0
LINE
  5
262
100
AcDbEntity
  8
Sichtbar (ISO)
  6
ByLayer
 62
  256
370
   -1
100
AcDbLine
 10
251.6206975770653
 20
23.25670288091466
 11
305.4206975770653
 21
23.25670288091469
  0
LINE
  5
263
100
AcDbEntity
  8
Sichtbar (ISO)
  6
ByLayer
 62
  256
370
   -1
100
AcDbLine
 10
251.6206975770653
 20
15.25670288091465
 11
251.6206975770653
 21
23.25670288091466
  0
LINE
  5
264
100
AcDbEntity
  8
Sichtbar (ISO)
  6
ByLayer
 62
  256
370
   -1
100
AcDbLine
 10
305.4206975770653
 20
23.25670288091469
 11
311.6206975770653
 21
17.05670288091468
  0
DIMENSION
  5
265
100
AcDbEntity
  8
Bemaßung (ISO)
  6
CONTINUOUS
 62
    7
370
   18
100
AcDbDimension
  2
*D9
 10
241.6206937623682
 20
15.25670288091466
 30
0
 11
241.6206937623681
 21
19.25670288091459
 31
0
 70
   32
  1
<>
 71
    5
 72
    0
  3
Pauli_DINGroßer Text
 53
0
210
0
220
0
230
1
100
AcDbAlignedDimension
 13
251.6206975770653
 23
23.25670288091466
 33
0
 14
251.6206975770653
 24
15.25670288091465
 34
0
 50
270
100
AcDbRotatedDimension
  0
DIMENSION
  5
266
100
AcDbEntity
  8
Bemaßung (ISO)
  6
CONTINUOUS
 62
    7
370
   18
100
AcDbDimension
  2
*D10
 10
405.6206975770654
 20
23.25670288091474
 30
0
 11
405.6206975770653
 21
19.25670288091462
 31
0
 70
   32
  1
<>
 71
    5
 72
    0
  3
Pauli_DINGroßer Text
 53
0
210
0
220
0
230
1
100
AcDbAlignedDimension
 13
395.6206975770653
 23
15.25670288091472
 33
0
 14
395.6206975770653
 24
23.25670288091473
 34
0
 50
90
100
AcDbRotatedDimension
  0
DIMENSION
  5
267
100
AcDbEntity
  8
Bemaßung (ISO)
  6
CONTINUOUS
 62
    7
370
   18
100
AcDbDimension
  2
*D11
 10
311.6206975770148
 20
162.6485129181791
 30
0
 11
316.1206975770148
 21
162.6485129181791
 31
0
 70
   32
  1
<>
 71
    5
 72
    0
  3
Pauli_DINGroßer Text
 53
0
210
0
220
0
230
1
100
AcDbAlignedDimension
 13
320.6206975770147
 23
155.5973174296604
 33
0
 14
311.6206975770148
 24
155.5973174296604
 34
0
 50
180
100
AcDbRotatedDimension
  0
LINE
  5
268
100
AcDbEntity
  8
Sichtbar (ISO)
  6
ByLayer
 62
  256
370
   -1
100
AcDbLine
 10
29.68761721552185
 20
103.9382231663987
 11
29.68761721552185
 21
96.67140359614197
  0
ELLIPSE
  5
269
100
AcDbEntity
  8
Sichtbar (ISO)
  6
ByLayer
 62
  256
370
   -1
100
AcDbEllipse
 10
40.06520303002736
 20
106.9281835930605
 30
0
 11
10.99999999999998
 21
6.556e-013
 31
0
 40
0.5773502691896257
 41
3.926990816987
 42
4.750968010259911
  0
ELLIPSE
  5
26A
100
AcDbEntity
  8
Sichtbar (ISO)
  6
ByLayer
 62
  256
370
   -1
100
AcDbEllipse
 10
40.06520303002736
 20
99.25311573233989
 30
0
 11
-10.99999999999999
 21
1.6e-015
 31
0
 40
0.5773502691896257
 41
0.7853981633974492
 42
1.609375356670224
  0
LINE
  5
26B
100
AcDbEntity
  8
Sichtbar (ISO)
  6
ByLayer
 62
  256
370
   -1
100
AcDbLine
 10
32.28702843697534
 20
94.76238453723739
 11
29.33406382492858
 21
96.46727945091004
  0
LINE
  5
26C
100
AcDbEntity
  8
Sichtbar (ISO)
  6
ByLayer
 62
  256
370
   -1
100
AcDbLine
 10
29.33406382492857
 20
96.46727945091004
 11
29.33406382492858
 21
104.1423473116306
  0
LINE
  5
26D
100
AcDbEntity
  8
Sichtbar (ISO)
  6
ByLayer
 62
  256
370
   -1
100
AcDbLine
 10
29.33406382492858
 20
104.1423473116306
 11
32.28702843697534
 21
102.437452397958
  0
LINE
  5
26E
100
AcDbEntity
  8
Sichtbar (ISO)
  6
ByLayer
 62
  256
370
   -1
100
AcDbLine
 10
29.33406382492857
 20
96.46727945091004
 11
29.68761721552185
 21
96.67140359614197
  0
ELLIPSE
  5
26F
100
AcDbEntity
  8
Sichtbar (ISO)
  6
ByLayer
 62
  256
370
   -1
100
AcDbEllipse
 10
40.06520303002729
 20
113.7459300438069
 30
0
 11
-10.99999999999986
 21
8e-016
 31
0
 40
0.5773502691896255
 41
0.7853981633974483
 42
1.144070682132875
  0
ELLIPSE
  5
270
100
AcDbEntity
  8
Sichtbar (ISO)
  6
ByLayer
 62
  256
370
   -1
100
AcDbEllipse
 10
40.06520303002734
 20
92.43536928159338
 30
0
 11
10.99999999999997
 21
6.55e-013
 31
0
 40
0.5773502691896255
 41
3.926990816986998
 42
4.750968010259914
  0
LINE
  5
271
100
AcDbEntity
  8
Sichtbar (ISO)
  6
ByLayer
 62
  256
370
   -1
100
AcDbLine
 10
32.28702843697535
 20
109.2551988487045
 11
23.84605692890822
 21
114.128596021109
  0
LINE
  5
272
100
AcDbEntity
  8
Sichtbar (ISO)
  6
ByLayer
 62
  256
370
   -1
100
AcDbLine
 10
32.28702843697534
 20
87.94463808649088
 11
23.84605692890822
 21
92.81803525889541
  0
LINE
  5
273
100
AcDbEntity
  8
Sichtbar (ISO)
  6
ByLayer
 62
  256
370
   -1
100
AcDbLine
 10
17.85860131222919
 20
133.05806534174
 11
23.84605692890823
 21
129.6012062296894
  0
LINE
  5
274
100
AcDbEntity
  8
Sichtbar (ISO)
  6
ByLayer
 62
  256
370
   -1
100
AcDbLine
 10
17.85860131222918
 20
80.80228416236558
 11
17.85860131222919
 21
133.05806534174
  0
LINE
  5
275
100
AcDbEntity
  8
Sichtbar (ISO)
  6
ByLayer
 62
  256
370
   -1
100
AcDbLine
 10
17.85860131222918
 20
80.80228416236558
 11
23.84605692890822
 21
77.34542505031501
  0
ELLIPSE
  5
276
100
AcDbEntity
  8
Sichtbar (ISO)
  6
ByLayer
 62
  256
370
   -1
100
AcDbEllipse
 10
40.06520303002716
 20
113.745930043807
 30
0
 11
-15.57241150239724
 21
8e-016
 31
0
 40
0.5773502691896254
 41
6.037312746624881
 42
6.195101534299583
  0
LINE
  5
277
100
AcDbEntity
  8
Sichtbar (ISO)
  6
ByLayer
 62
  256
370
   -1
100
AcDbLine
 10
24.55316371009477
 20
114.5368443115729
 11
23.84605692890822
 21
114.128596021109
  0
LINE
  5
278
100
AcDbEntity
  8
Sichtbar (ISO)
  6
ByLayer
 62
  256
370
   -1
100
AcDbLine
 10
24.96112696668936
 20
131.4069099859944
 11
23.94438774985604
 21
131.9939246465287
  0
LINE
  5
279
100
AcDbEntity
  8
Sichtbar (ISO)
  6
ByLayer
 62
  256
370
   -1
100
AcDbLine
 10
24.96112696668936
 20
131.4069099859944
 11
24.96112696668935
 21
115.934299777414
  0
LINE
  5
27A
100
AcDbEntity
  8
Sichtbar (ISO)
  6
ByLayer
 62
  256
370
   -1
100
AcDbLine
 10
23.84605692890822
 20
92.81803525889541
 11
23.84605692890822
 21
77.34542505031501
  0
LINE
  5
27B
100
AcDbEntity
  8
Sichtbar (ISO)
  6
ByLayer
 62
  256
370
   -1
100
AcDbLine
 10
23.84605692890822
 20
77.34542505031501
 11
24.55316371009477
 21
77.75367334077887
  0
LINE
  5
27C
100
AcDbEntity
  8
Sichtbar (ISO)
  6
ByLayer
 62
  256
370
   -1
100
AcDbLine
 10
24.55316371009477
 20
92.40978696843155
 11
24.55316371009477
 21
77.75367334077887
  0
ELLIPSE
  5
27D
100
AcDbEntity
  8
Sichtbar (ISO)
  6
ByLayer
 62
  256
370
   -1
100
AcDbEllipse
 10
40.0652030300271
 20
76.96275907301302
 30
0
 11
-15.5724115023972
 21
1.2e-015
 31
0
 40
0.5773502691896254
 41
6.037312746624881
 42
6.195101534299585
  0
LINE
  5
27E
100
AcDbEntity
  8
Sichtbar (ISO)
  6
ByLayer
 62
  256
370
   -1
100
AcDbLine
 10
24.96112696668935
 20
92.17424927241721
 11
24.96112696668934
 21
79.15112880661997
  0
ELLIPSE
  5
27F
100
AcDbEntity
  8
Sichtbar (ISO)
  6
ByLayer
 62
  256
370
   -1
100
AcDbEllipse
 10
40.06520303002711
 20
129.2185402523874
 30
0
 11
-15.5724115023972
 21
1.2e-015
 31
0
 40
0.5773502691896254
 41
6.037312746624881
 42
6.195101534299585
  0
LINE
  5
280
100
AcDbEntity
  8
Sichtbar (ISO)
  6
ByLayer
 62
  256
370
   -1
100
AcDbLine
 10
24.55316371009477
 20
130.0094545201533
 11
24.55316371009477
 21
114.5368443115729
  0
LINE
  5
281
100
AcDbEntity
  8
Sichtbar (ISO)
  6
ByLayer
 62
  256
370
   -1
100
AcDbLine
 10
23.84605692890823
 20
129.6012062296894
 11
24.55316371009477
 21
130.0094545201533
  0
LINE
  5
282
100
AcDbEntity
  8
Sichtbar (ISO)
  6
ByLayer
 62
  256
370
   -1
100
AcDbLine
 10
23.84605692890823
 20
129.6012062296894
 11
23.84605692890822
 21
114.128596021109
  0
ELLIPSE
  5
283
100
AcDbEntity
  8
Sichtbar (ISO)
  6
ByLayer
 62
  256
370
   -1
100
AcDbEllipse
 10
25.35860131222912
 20
132.8104212274565
 30
0
 11
-1.999999999999994
 21
4.5e-015
 31
0
 40
0.5773502691896254
 41
2.67e-014
 42
0.7853981633974704
  0
LINE
  5
284
100
AcDbEntity
  8
Sichtbar (ISO)
  6
ByLayer
 62
  256
370
   -1
100
AcDbLine
 10
23.35860131222913
 20
132.8104212274565
 11
23.35860131222919
 21
165.7434219864853
  0
LINE
  5
285
100
AcDbEntity
  8
Sichtbar (ISO)
  6
ByLayer
 62
  256
370
   -1
100
AcDbLine
 10
17.85860131222919
 20
133.05806534174
 11
17.85860131222914
 21
165.7434219864853
  0
LINE
  5
286
100
AcDbEntity
  8
Sichtbar (ISO)
  6
ByLayer
 62
  256
370
   -1
100
AcDbLine
 10
17.85860131222914
 20
165.7434219864853
 11
23.35860131222919
 21
165.7434219864853
  0
LINE
  5
287
100
AcDbEntity
  8
Sichtbar (ISO)
  6
ByLayer
 62
  256
370
   -1
100
AcDbLine
 10
26.65565904819307
 20
131.6827436863607
 11
26.98372757807763
 21
131.8721541404022
  0
LINE
  5
288
100
AcDbEntity
  8
Sichtbar (ISO)
  6
ByLayer
 62
  256
370
   -1
100
AcDbLine
 10
74.00632852697802
 20
48.38537874054562
 11
77.89541582350354
 21
50.6307443380966
  0
LINE
  5
289
100
AcDbEntity
  8
Sichtbar (ISO)
  6
ByLayer
 62
  256
370
   -1
100
AcDbLine
 10
26.08087159506538
 20
76.05515420122119
 11
74.00632852697802
 21
48.38537874054562
  0
ELLIPSE
  5
28A
100
AcDbEntity
  8
Sichtbar (ISO)
  6
ByLayer
 62
  256
370
   -1
100
AcDbEllipse
 10
40.06520303002751
 20
76.96275907301298
 30
0
 11
-14.07241150239612
 21
1.8e-014
 31
0
 40
0.5773502691896252
 41
0
 42
0.1119428442497989
  0
LINE
  5
28B
100
AcDbEntity
  8
Sichtbar (ISO)
  6
ByLayer
 62
  256
370
   -1
100
AcDbLine
 10
77.89541582350357
 20
102.886525517471
 11
74.00632852697802
 21
100.64115991992
  0
LINE
  5
28C
100
AcDbEntity
  8
Sichtbar (ISO)
  6
ByLayer
 62
  256
370
   -1
100
AcDbLine
 10
74.00632852697802
 20
100.64115991992
 11
74.00632852697801
 21
48.38537874054563
  0
ELLIPSE
  5
28D
100
AcDbEntity
  8
Sichtbar (ISO)
  6
ByLayer
 62
  256
370
   -1
100
AcDbEllipse
 10
40.06520303002741
 20
129.2185402523874
 30
0
 11
-14.072411502396
 21
2.94e-014
 31
0
 40
0.5773502691896253
 41
5.975034171360555
 42
6.395128151429391
  0
LINE
  5
28E
100
AcDbEntity
  8
Sichtbar (ISO)
  6
ByLayer
 62
  256
370
   -1
100
AcDbLine
 10
42.36330006888177
 20
118.9102709181769
 11
26.08087159506541
 21
128.3109353805956
  0
LINE
  5
28F
100
AcDbEntity
  8
Sichtbar (ISO)
  6
ByLayer
 62
  256
370
   -1
100
AcDbLine
 10
26.08087159506541
 20
128.3109353805956
 11
26.08087159506541
 21
113.4098727786646
  0
LINE
  5
290
100
AcDbEntity
  8
Sichtbar (ISO)
  6
ByLayer
 62
  256
370
   -1
100
AcDbLine
 10
26.08087159506539
 20
90.95621680315217
 11
26.08087159506539
 21
76.05515420122119
  0
LINE
  5
291
100
AcDbEntity
  8
Sichtbar (ISO)
  6
ByLayer
 62
  256
370
   -1
100
AcDbLine
 10
25.99279152763142
 20
129.2185402523874
 11
25.99279152763141
 21
114.3174776504564
  0
LINE
  5
292
100
AcDbEntity
  8
Sichtbar (ISO)
  6
ByLayer
 62
  256
370
   -1
100
AcDbLine
 10
25.9927915276314
 20
91.57861746044478
 11
25.9927915276314
 21
76.96275907301298
  0
LINE
  5
293
100
AcDbEntity
  8
Sichtbar (ISO)
  6
ByLayer
 62
  256
370
   -1
100
AcDbLine
 10
40.77230981121383
 20
104.9277669697886
 11
40.77230981121382
 21
82.47411099427615
  0
ELLIPSE
  5
294
100
AcDbEntity
  8
Sichtbar (ISO)
  6
ByLayer
 62
  256
370
   -1
100
AcDbEllipse
 10
40.06520303002718
 20
91.86382167494395
 30
0
 11
-14.07241150239578
 21
2.97e-014
 31
0
 40
0.5773502691896253
 41
0.0357498811326114
 42
0.1119428442498069
  0
LINE
  5
295
100
AcDbEntity
  8
Sichtbar (ISO)
  6
ByLayer
 62
  256
370
   -1
100
AcDbLine
 10
40.77230981121382
 20
82.47411099427612
 11
26.08087159506539
 21
90.95621680315217
  0
ELLIPSE
  5
296
100
AcDbEntity
  8
Sichtbar (ISO)
  6
ByLayer
 62
  256
370
   -1
100
AcDbEllipse
 10
37.16459144809646
 20
123.9529881921448
 30
0
 11
-2.999999999999667
 21
-1.732e-013
 31
0
 40
0.5773502691896254
 41
3.926990816987002
 42
4.338128679309451
  0
ELLIPSE
  5
297
100
AcDbEntity
  8
Sichtbar (ISO)
  6
ByLayer
 62
  256
370
   -1
100
AcDbEllipse
 10
39.35809624884092
 20
127.1772988000683
 30
0
 11
-2.999999999999695
 21
6.4e-015
 31
0
 40
0.5773502691896252
 41
0.7853981633974545
 42
1.196536025719797
  0
LINE
  5
298
100
AcDbEntity
  8
Sichtbar (ISO)
  6
ByLayer
 62
  256
370
   -1
100
AcDbLine
 10
44.49624849436953
 20
122.1695437656559
 11
39.28591179165587
 21
125.1777330635363
  0
LINE
  5
299
100
AcDbEntity
  8
Sichtbar (ISO)
  6
ByLayer
 62
  256
370
   -1
100
AcDbLine
 10
77.89541582350354
 20
50.6307443380966
 11
77.89541582350357
 21
102.886525517471
  0
LINE
  5
29A
100
AcDbEntity
  8
Sichtbar (ISO)
  6
ByLayer
 62
  256
370
   -1
100
AcDbLine
 10
37.23677590528148
 20
125.9525539286768
 11
26.98372757807762
 21
131.8721541404022
  0
LINE
  5
29B
100
AcDbEntity
  8
Sichtbar (ISO)
  6
ByLayer
 62
  256
370
   -1
100
AcDbLine
 10
26.0808715950654
 20
113.4098727786646
 11
40.77230981121383
 21
104.9277669697886
  0
ELLIPSE
  5
29C
100
AcDbEntity
  8
Sichtbar (ISO)
  6
ByLayer
 62
  256
370
   -1
100
AcDbEllipse
 10
40.065203030028
 20
114.3174776504564
 30
0
 11
-14.07241150239659
 21
-1.02e-014
 31
0
 40
0.5773502691896253
 41
0
 42
0.1119428442497812
  0
ELLIPSE
  5
29D
100
AcDbEntity
  8
Sichtbar (ISO)
  6
ByLayer
 62
  256
370
   -1
100
AcDbEllipse
 10
40.06520303002737
 20
106.7648842768749
 30
0
 11
-10.92499999999991
 21
1e-016
 31
0
 40
0.5773502691896258
 41
0.6339813019602599
 42
1.609640334098401
  0
ELLIPSE
  5
29E
100
AcDbEntity
  8
Sichtbar (ISO)
  6
ByLayer
 62
  256
370
   -1
100
AcDbEllipse
 10
40.06520303002737
 20
99.41641504852547
 30
0
 11
-10.99999999999996
 21
2.2e-015
 31
0
 40
0.5773502691896257
 41
0.3380086293379501
 42
1.609375356670223
  0
ELLIPSE
  5
29F
100
AcDbEntity
  8
Sichtbar (ISO)
  6
ByLayer
 62
  256
370
   -1
100
AcDbEllipse
 10
33.48910996497283
 20
126.0750284158079
 30
0
 11
-1.749999999999948
 21
3.031088913245519
 31
0
 40
0.5773502691896264
 41
6.038886669727789
 42
6.272980517082875
  0
LINE
  5
2A0
100
AcDbEntity
  8
Sichtbar (ISO)
  6
ByLayer
 62
  256
370
   -1
100
AcDbLine
 10
32.11043030854707
 20
129.3204992293719
 11
31.75687691795581
 21
129.1163750841411
  0
LINE
  5
2A1
100
AcDbEntity
  8
Sichtbar (ISO)
  6
ByLayer
 62
  256
370
   -1
100
AcDbLine
 10
24.0586013122292
 20
162.0500798241809
 11
24.0586013122292
 21
162.6923417909338
  0
LINE
  5
2A2
100
AcDbEntity
  8
Sichtbar (ISO)
  6
ByLayer
 62
  256
370
   -1
100
AcDbLine
 10
24.05860131222919
 20
162.0500798241809
 11
24.05860131222915
 21
142.9397859140043
  0
LINE
  5
2A3
100
AcDbEntity
  8
Sichtbar (ISO)
  6
ByLayer
 62
  256
370
   -1
100
AcDbLine
 10
24.05860131222916
 20
138.0613219385935
 11
24.05860131222916
 21
142.9397859140043
  0
LINE
  5
2A4
100
AcDbEntity
  8
Sichtbar (ISO)
  6
ByLayer
 62
  256
370
   -1
100
AcDbLine
 10
24.05860131222915
 20
138.0613219385935
 11
24.05860131222915
 21
131.9279834155475
  0
LINE
  5
2A5
100
AcDbEntity
  8
Sichtbar (ISO)
  6
ByLayer
 62
  256
370
   -1
100
AcDbLine
 10
24.05860131222919
 20
162.6923417909338
 11
23.35860131222919
 21
162.6923417909338
  0
LINE
  5
2A6
100
AcDbEntity
  8
Sichtbar (ISO)
  6
ByLayer
 62
  256
370
   -1
100
AcDbLine
 10
33.65860131222916
 20
162.0500798241808
 11
33.65860131222916
 21
162.6923417909337
  0
LINE
  5
2A7
100
AcDbEntity
  8
Sichtbar (ISO)
  6
ByLayer
 62
  256
370
   -1
100
AcDbLine
 10
33.65860131222916
 20
162.0500798241808
 11
33.65860131222916
 21
161.0697790520892
  0
LINE
  5
2A8
100
AcDbEntity
  8
Sichtbar (ISO)
  6
ByLayer
 62
  256
370
   -1
100
AcDbLine
 10
34.35860131222913
 20
162.6923417909337
 11
33.65860131222916
 21
162.6923417909337
  0
LINE
  5
2A9
100
AcDbEntity
  8
Sichtbar (ISO)
  6
ByLayer
 62
  256
370
   -1
100
AcDbLine
 10
24.85860131222898
 20
162.6923417909338
 11
23.35860131222919
 21
162.6923417909338
  0
LINE
  5
2AA
100
AcDbEntity
  8
Sichtbar (ISO)
  6
ByLayer
 62
  256
370
   -1
100
AcDbLine
 10
34.35860131222913
 20
162.6923417909337
 11
32.858601312229
 21
162.6923417909337
  0
LINE
  5
2AB
100
AcDbEntity
  8
Sichtbar (ISO)
  6
ByLayer
 62
  256
370
   -1
100
AcDbLine
 10
24.85860131222898
 20
162.6923417909338
 11
23.35860131222919
 21
162.6923417909338
  0
LINE
  5
2AC
100
AcDbEntity
  8
Sichtbar (ISO)
  6
ByLayer
 62
  256
370
   -1
100
AcDbLine
 10
40.48946709873894
 20
105.0910662859735
 11
40.48946709873899
 21
83.12730825901799
  0
LINE
  5
2AD
100
AcDbEntity
  8
Sichtbar (ISO)
  6
ByLayer
 62
  256
370
   -1
100
AcDbLine
 10
40.7723098112139
 20
82.96400894283229
 11
40.48946709873899
 21
83.12730825901802
  0
LINE
  5
2AE
100
AcDbEntity
  8
Sichtbar (ISO)
  6
ByLayer
 62
  256
370
   -1
100
AcDbLine
 10
39.85860131222921
 20
165.7434219864857
 11
39.8586013122292
 21
158.3234504327039
  0
LINE
  5
2AF
100
AcDbEntity
  8
Sichtbar (ISO)
  6
ByLayer
 62
  256
370
   -1
100
AcDbLine
 10
34.35860131222914
 20
165.7434219864857
 11
39.85860131222921
 21
165.7434219864857
  0
LINE
  5
2B0
100
AcDbEntity
  8
Sichtbar (ISO)
  6
ByLayer
 62
  256
370
   -1
100
AcDbLine
 10
34.35860131222913
 20
160.9743752537766
 11
34.35860131222914
 21
165.7434219864857
  0
LINE
  5
2B1
100
AcDbEntity
  8
Sichtbar (ISO)
  6
ByLayer
 62
  256
370
   -1
100
AcDbLine
 10
27.24768860875539
 20
57.43425071577842
 11
26.65860131222903
 21
57.09414100655274
  0
LINE
  5
2B2
100
AcDbEntity
  8
Sichtbar (ISO)
  6
ByLayer
 62
  256
370
   -1
100
AcDbLine
 10
26.65860131222903
 20
57.09414100655274
 11
25.65860131222905
 21
57.09414100655274
  0
LINE
  5
2B3
100
AcDbEntity
  8
Sichtbar (ISO)
  6
ByLayer
 62
  256
370
   -1
100
AcDbLine
 10
25.65860131222905
 20
57.09414100655274
 11
24.8586013122291
 21
57.55602122190446
  0
LINE
  5
2B4
100
AcDbEntity
  8
Sichtbar (ISO)
  6
ByLayer
 62
  256
370
   -1
100
AcDbLine
 10
26.6586013122291
 20
158.3397170415905
 11
32.85860131222915
 21
161.9192887105662
  0
LINE
  5
2B5
100
AcDbEntity
  8
Sichtbar (ISO)
  6
ByLayer
 62
  256
370
   -1
100
AcDbLine
 10
32.85860131222915
 20
161.9192887105661
 11
32.85860131222932
 21
198.7542358848642
  0
LINE
  5
2B6
100
AcDbEntity
  8
Sichtbar (ISO)
  6
ByLayer
 62
  256
370
   -1
100
AcDbLine
 10
32.85860131222932
 20
198.7542358848642
 11
24.85860131222932
 21
198.7542358848643
  0
LINE
  5
2B7
100
AcDbEntity
  8
Sichtbar (ISO)
  6
ByLayer
 62
  256
370
   -1
100
AcDbLine
 10
24.85860131222932
 20
198.7542358848643
 11
24.8586013122291
 21
158.8015972569422
  0
LINE
  5
2B8
100
AcDbEntity
  8
Sichtbar (ISO)
  6
ByLayer
 62
  256
370
   -1
100
AcDbLine
 10
24.85860131222914
 20
158.8015972569422
 11
25.65860131222909
 21
158.3397170415905
  0
LINE
  5
2B9
100
AcDbEntity
  8
Sichtbar (ISO)
  6
ByLayer
 62
  256
370
   -1
100
AcDbLine
 10
25.65860131222909
 20
158.3397170415905
 11
26.6586013122291
 21
158.3397170415905
  0
LINE
  5
2BA
100
AcDbEntity
  8
Sichtbar (ISO)
  6
ByLayer
 62
  256
370
   -1
100
AcDbLine
 10
26.6586013122291
 20
158.3397170415905
 11
26.65860131222907
 21
131.6844424032947
  0
LINE
  5
2BB
100
AcDbEntity
  8
Sichtbar (ISO)
  6
ByLayer
 62
  256
370
   -1
100
AcDbLine
 10
32.85860131222911
 20
161.1129873480157
 11
32.85860131222915
 21
161.9192887105661
  0
LINE
  5
2BC
100
AcDbEntity
  8
Sichtbar (ISO)
  6
ByLayer
 62
  256
370
   -1
100
AcDbLine
 10
26.65860131222903
 20
75.7216017934969
 11
26.65860131222903
 21
57.09414100655274
  0
LINE
  5
2BD
100
AcDbEntity
  8
Sichtbar (ISO)
  6
ByLayer
 62
  256
370
   -1
100
AcDbLine
 10
25.65860131222905
 20
124.0468606426261
 11
25.99279152763
 21
124.0468606426261
  0
LINE
  5
2BE
100
AcDbEntity
  8
Sichtbar (ISO)
  6
ByLayer
 62
  256
370
   -1
100
AcDbLine
 10
25.65860131222905
 20
91.38699740551718
 11
25.99279152763003
 21
91.38699740551718
  0
LINE
  5
2BF
100
AcDbEntity
  8
Sichtbar (ISO)
  6
ByLayer
 62
  256
370
   -1
100
AcDbLine
 10
24.96112696668945
 20
124.4495476437763
 11
25.65860131222905
 21
124.0468606426261
  0
LINE
  5
2C0
100
AcDbEntity
  8
Sichtbar (ISO)
  6
ByLayer
 62
  256
370
   -1
100
AcDbLine
 10
25.65860131222905
 20
124.0468606426261
 11
25.65860131222909
 21
158.3397170415905
  0
LINE
  5
2C1
100
AcDbEntity
  8
Sichtbar (ISO)
  6
ByLayer
 62
  256
370
   -1
100
AcDbLine
 10
25.65860131222905
 20
91.38699740551718
 11
25.65860131222905
 21
57.09414100655274
  0
LINE
  5
2C2
100
AcDbEntity
  8
Sichtbar (ISO)
  6
ByLayer
 62
  256
370
   -1
100
AcDbLine
 10
25.65860131222905
 20
91.38699740551718
 11
24.96112696668945
 21
91.78968440666733
  0
LINE
  5
2C3
100
AcDbEntity
  8
Sichtbar (ISO)
  6
ByLayer
 62
  256
370
   -1
100
AcDbLine
 10
24.8586013122291
 20
78.90004791709802
 11
24.8586013122291
 21
57.55602122190446
  0
LINE
  5
2C4
100
AcDbEntity
  8
Sichtbar (ISO)
  6
ByLayer
 62
  256
370
   -1
100
AcDbLine
 10
24.85860131222914
 20
158.8015972569422
 11
24.8586013122291
 21
131.4661032001958
  0
LINE
  5
2C5
100
AcDbEntity
  8
Sichtbar (ISO)
  6
ByLayer
 62
  256
370
   -1
100
AcDbLine
 10
91.68399805664563
 20
25.93172276503431
 11
86.02714380715327
 21
22.66573644132293
  0
LINE
  5
2C6
100
AcDbEntity
  8
Sichtbar (ISO)
  6
ByLayer
 62
  256
370
   -1
100
AcDbLine
 10
86.02714380715327
 20
22.66573644132293
 11
40.00662438626373
 21
49.2356957172193
  0
LINE
  5
2C7
100
AcDbEntity
  8
Sichtbar (ISO)
  6
ByLayer
 62
  256
370
   -1
100
AcDbLine
 10
33.5598206431048
 20
154.856532893518
 11
33.5598206431048
 21
154.2033356287757
  0
LINE
  5
2C8
100
AcDbEntity
  8
Sichtbar (ISO)
  6
ByLayer
 62
  256
370
   -1
100
AcDbLine
 10
33.5598206431048
 20
154.2033356287757
 11
86.0271438071466
 21
123.9113124763579
  0
LINE
  5
2C9
100
AcDbEntity
  8
Sichtbar (ISO)
  6
ByLayer
 62
  256
370
   -1
100
AcDbLine
 10
86.0271438071466
 20
123.9113124763579
 11
91.68399805663897
 21
127.1772988000693
  0
LINE
  5
2CA
100
AcDbEntity
  8
Sichtbar (ISO)
  6
ByLayer
 62
  256
370
   -1
100
AcDbLine
 10
91.683998056639
 20
127.1772988000693
 11
39.21667489259717
 21
157.4693219524871
  0
LINE
  5
2CB
100
AcDbEntity
  8
Sichtbar (ISO)
  6
ByLayer
 62
  256
370
   -1
100
AcDbLine
 10
39.2166748925972
 20
157.4693219524872
 11
38.08530404269877
 21
157.4693219524871
  0
LINE
  5
2CC
100
AcDbEntity
  8
Sichtbar (ISO)
  6
ByLayer
 62
  256
370
   -1
100
AcDbLine
 10
38.08530404269877
 20
157.4693219524871
 11
33.55982064310481
 21
154.856532893518
  0
LINE
  5
2CD
100
AcDbEntity
  8
Sichtbar (ISO)
  6
ByLayer
 62
  256
370
   -1
100
AcDbLine
 10
91.68399805664563
 20
25.93172276503431
 11
91.68399805663897
 21
127.1772988000692
  0
LINE
  5
2CE
100
AcDbEntity
  8
Sichtbar (ISO)
  6
ByLayer
 62
  256
370
   -1
100
AcDbLine
 10
86.02714380715327
 20
22.66573644132293
 11
86.0271438071466
 21
123.9113124763579
  0
ELLIPSE
  5
2CF
100
AcDbEntity
  8
Sichtbar (ISO)
  6
ByLayer
 62
  256
370
   -1
100
AcDbEllipse
 10
32.74768860875531
 20
56.69263056610489
 30
0
 11
-5.499999999999991
 21
-3.564e-013
 31
0
 40
0.5773502691896609
 41
0
 42
0.7853981633974119
  0
LINE
  5
2D0
100
AcDbEntity
  8
Sichtbar (ISO)
  6
ByLayer
 62
  256
370
   -1
100
AcDbLine
 10
27.24768860875411
 20
75.38149208427198
 11
27.24768860875532
 21
56.69263056610454
  0
LINE
  5
2D1
100
AcDbEntity
  8
Sichtbar (ISO)
  6
ByLayer
 62
  256
370
   -1
100
AcDbLine
 10
38.54596421448503
 20
48.8542633891985
 11
28.85860131222931
 21
54.44726496855333
  0
ELLIPSE
  5
2D2
100
AcDbEntity
  8
Sichtbar (ISO)
  6
ByLayer
 62
  256
370
   -1
100
AcDbEllipse
 10
39.11164963943427
 20
49.18086202156963
 30
0
 11
0.8000000000000012
 21
9.950000000000001e-014
 31
0
 40
0.5773502691896608
 41
3.926990816986959
 42
5.497787143781859
  0
LINE
  5
2D3
100
AcDbEntity
  8
Sichtbar (ISO)
  6
ByLayer
 62
  256
370
   -1
100
AcDbLine
 10
39.6773350643835
 20
48.85426338919855
 11
39.88946709873946
 21
48.97673787633772
  0
ELLIPSE
  5
2D4
100
AcDbEntity
  8
Sichtbar (ISO)
  6
ByLayer
 62
  256
370
   -1
100
AcDbEllipse
 10
39.60662438626485
 20
49.14003719252327
 30
0
 11
0.3999999999999915
 21
2.59e-014
 31
0
 40
0.5773502691896608
 41
5.497787143782105
 42
6.283185307179666
  0
LINE
  5
2D5
100
AcDbEntity
  8
Sichtbar (ISO)
  6
ByLayer
 62
  256
370
   -1
100
AcDbLine
 10
40.00662438626362
 20
68.01511707855371
 11
40.00662438626484
 21
49.14003719252328
  0
ELLIPSE
  5
2D6
100
AcDbEntity
  8
Sichtbar (ISO)
  6
ByLayer
 62
  256
370
   -1
100
AcDbEllipse
 10
32.74768860875041
 20
133.4433091733086
 30
0
 11
-5.499999999999991
 21
-3.567e-013
 31
0
 40
0.5773502691896609
 41
0
 42
0.7853981633974119
  0
ELLIPSE
  5
2D7
100
AcDbEntity
  8
Sichtbar (ISO)
  6
ByLayer
 62
  256
370
   -1
100
AcDbEllipse
 10
32.74768860874882
 20
157.9382066011396
 30
0
 11
-5.5
 21
-6.847e-013
 31
0
 40
0.5773502691896608
 41
3.926990816986965
 42
7.068583470576753
  0
ELLIPSE
  5
2D8
100
AcDbEntity
  8
Sichtbar (ISO)
  6
ByLayer
 62
  256
370
   -1
100
AcDbEllipse
 10
36.32552208370505
 20
159.5139717724649
 30
0
 11
0.3999999999999998
 21
2.6e-014
 31
0
 40
0.5773502691896609
 41
5.497787143782113
 42
6.934851881167046
  0
ELLIPSE
  5
2D9
100
AcDbEntity
  8
Sichtbar (ISO)
  6
ByLayer
 62
  256
370
   -1
100
AcDbEllipse
 10
30.01838327121646
 20
155.8725434812578
 30
0
 11
-0.4000000000000001
 21
-2.1e-015
 31
0
 40
0.5773502691896608
 41
0.9191297528075602
 42
2.356194490192548
  0
ELLIPSE
  5
2DA
100
AcDbEntity
  8
Sichtbar (ISO)
  6
ByLayer
 62
  256
370
   -1
100
AcDbEllipse
 10
32.74768860874882
 20
157.9382066011396
 30
0
 11
-4.900000000000002
 21
-3.186e-013
 31
0
 40
0.5773502691896608
 41
3.79325922757726
 42
7.202315059986938
  0
LINE
  5
2DB
100
AcDbEntity
  8
Sichtbar (ISO)
  6
ByLayer
 62
  256
370
   -1
100
AcDbLine
 10
27.24768860874882
 20
157.9382066011393
 11
27.2476886087504
 21
133.4433091733082
  0
LINE
  5
2DC
100
AcDbEntity
  8
Sichtbar (ISO)
  6
ByLayer
 62
  256
370
   -1
100
AcDbLine
 10
28.85860131222282
 20
155.6928410035881
 11
38.54596421447854
 21
150.0998394242332
  0
LINE
  5
2DD
100
AcDbEntity
  8
Sichtbar (ISO)
  6
ByLayer
 62
  256
370
   -1
100
AcDbLine
 10
38.54596421448012
 20
125.6049419964022
 11
28.8586013122244
 21
131.197943575757
  0
ELLIPSE
  5
2DE
100
AcDbEntity
  8
Sichtbar (ISO)
  6
ByLayer
 62
  256
370
   -1
100
AcDbEllipse
 10
39.11164963942777
 20
150.4264380566044
 30
0
 11
0.8000000000000012
 21
9.96e-014
 31
0
 40
0.5773502691896609
 41
3.92699081698695
 42
5.497787143781851
  0
ELLIPSE
  5
2DF
100
AcDbEntity
  8
Sichtbar (ISO)
  6
ByLayer
 62
  256
370
   -1
100
AcDbEllipse
 10
39.11164963942937
 20
125.9315406287733
 30
0
 11
0.8000000000000012
 21
9.96e-014
 31
0
 40
0.5773502691896609
 41
3.92699081698695
 42
5.497787143781851
  0
LINE
  5
2E0
100
AcDbEntity
  8
Sichtbar (ISO)
  6
ByLayer
 62
  256
370
   -1
100
AcDbLine
 10
39.67733506437701
 20
150.0998394242333
 11
39.88946709873297
 21
150.2223139113724
  0
LINE
  5
2E1
100
AcDbEntity
  8
Sichtbar (ISO)
  6
ByLayer
 62
  256
370
   -1
100
AcDbLine
 10
39.67733506437859
 20
125.6049419964022
 11
39.88946709873456
 21
125.7274164835414
  0
ELLIPSE
  5
2E2
100
AcDbEntity
  8
Sichtbar (ISO)
  6
ByLayer
 62
  256
370
   -1
100
AcDbEllipse
 10
39.60662438625835
 20
150.385613227558
 30
0
 11
0.4000000000000026
 21
2.59e-014
 31
0
 40
0.5773502691896609
 41
5.497787143782137
 42
7.068583470577017
  0
ELLIPSE
  5
2E3
100
AcDbEntity
  8
Sichtbar (ISO)
  6
ByLayer
 62
  256
370
   -1
100
AcDbEllipse
 10
39.60662438625994
 20
125.8907157997269
 30
0
 11
0.4000000000000026
 21
2.59e-014
 31
0
 40
0.5773502691896609
 41
5.497787143782137
 42
6.283185307179627
  0
LINE
  5
2E4
100
AcDbEntity
  8
Sichtbar (ISO)
  6
ByLayer
 62
  256
370
   -1
100
AcDbLine
 10
39.88946709873297
 20
150.5489125437436
 11
38.75809624883449
 21
151.2021098084858
  0
LINE
  5
2E5
100
AcDbEntity
  8
Sichtbar (ISO)
  6
ByLayer
 62
  256
370
   -1
100
AcDbLine
 10
38.75809624883449
 20
151.2021098084858
 11
38.47525353635987
 21
151.0388104923002
  0
LINE
  5
2E6
100
AcDbEntity
  8
Sichtbar (ISO)
  6
ByLayer
 62
  256
370
   -1
100
AcDbLine
 10
38.47525353635987
 20
151.0388104923002
 11
38.1217001457666
 21
151.2429346375321
  0
ELLIPSE
  5
2E7
100
AcDbEntity
  8
Sichtbar (ISO)
  6
ByLayer
 62
  256
370
   -1
100
AcDbEllipse
 10
37.90956811141064
 20
151.3654091246713
 30
0
 11
0.3000000000000014
 21
1.95e-014
 31
0
 40
0.5773502691896609
 41
5.49778714378208
 42
6.42508236178365
  0
ELLIPSE
  5
2E8
100
AcDbEntity
  8
Sichtbar (ISO)
  6
ByLayer
 62
  256
370
   -1
100
AcDbEllipse
 10
37.41459336458006
 20
151.3245842956249
 30
0
 11
0.7999999999999983
 21
5.19e-014
 31
0
 40
0.5773502691896609
 41
0.1418970546041055
 42
0.7853981633973964
  0
LINE
  5
2E9
100
AcDbEntity
  8
Sichtbar (ISO)
  6
ByLayer
 62
  256
370
   -1
100
AcDbLine
 10
37.98027878952929
 20
151.651182927996
 11
36.81355260057149
 21
152.3247926072613
  0
ELLIPSE
  5
2EA
100
AcDbEntity
  8
Sichtbar (ISO)
  6
ByLayer
 62
  256
370
   -1
100
AcDbEllipse
 10
36.70748658339351
 20
152.2635553636918
 30
0
 11
-0.1500000000000001
 21
-1.87e-014
 31
0
 40
0.5773502691896609
 41
3.926990816986997
 42
7.06858347057679
  0
LINE
  5
2EB
100
AcDbEntity
  8
Sichtbar (ISO)
  6
ByLayer
 62
  256
370
   -1
100
AcDbLine
 10
36.60142056621552
 20
152.2023181201222
 11
37.76814675517333
 21
151.5287084408568
  0
ELLIPSE
  5
2EC
100
AcDbEntity
  8
Sichtbar (ISO)
  6
ByLayer
 62
  256
370
   -1
100
AcDbEllipse
 10
37.41459336458008
 20
151.3245842956249
 30
0
 11
0.5000000000000017
 21
3.24e-014
 31
0
 40
0.5773502691896608
 41
0.1418970546040654
 42
0.785398163397427
  0
LINE
  5
2ED
100
AcDbEntity
  8
Sichtbar (ISO)
  6
ByLayer
 62
  256
370
   -1
100
AcDbLine
 10
37.90956811141064
 20
151.3654091246713
 11
35.78824776785098
 21
152.5901539960628
  0
LINE
  5
2EE
100
AcDbEntity
  8
Sichtbar (ISO)
  6
ByLayer
 62
  256
370
   -1
100
AcDbLine
 10
35.78824776785098
 20
152.5901539960628
 11
36.07109048032561
 21
152.7534533122484
  0
LINE
  5
2EF
100
AcDbEntity
  8
Sichtbar (ISO)
  6
ByLayer
 62
  256
370
   -1
100
AcDbLine
 10
36.07109048032563
 20
152.4268546798773
 11
36.07109048032561
 21
152.7534533122484
  0
LINE
  5
2F0
100
AcDbEntity
  8
Sichtbar (ISO)
  6
ByLayer
 62
  256
370
   -1
100
AcDbLine
 10
36.07109048032561
 20
152.7534533122484
 11
33.17195267746075
 21
154.4272713031502
  0
LINE
  5
2F1
100
AcDbEntity
  8
Sichtbar (ISO)
  6
ByLayer
 62
  256
370
   -1
100
AcDbLine
 10
33.17195267746075
 20
154.4272713031502
 11
33.38408471181672
 21
154.5497457902894
  0
ELLIPSE
  5
2F2
100
AcDbEntity
  8
Sichtbar (ISO)
  6
ByLayer
 62
  256
370
   -1
100
AcDbEllipse
 10
32.9598206431048
 20
154.7946947645677
 30
0
 11
0.5999999999999962
 21
3.89e-014
 31
0
 40
0.5773502691896608
 41
5.497787143782126
 42
8.63937979737192
  0
LINE
  5
2F3
100
AcDbEntity
  8
Sichtbar (ISO)
  6
ByLayer
 62
  256
370
   -1
100
AcDbLine
 10
32.53555657439286
 20
155.039643738846
 11
32.3234245400369
 21
154.9171692517068
  0
LINE
  5
2F4
100
AcDbEntity
  8
Sichtbar (ISO)
  6
ByLayer
 62
  256
370
   -1
100
AcDbLine
 10
32.3234245400369
 20
154.9171692517068
 11
31.96987114944363
 21
155.1212933969388
  0
ELLIPSE
  5
2F5
100
AcDbEntity
  8
Sichtbar (ISO)
  6
ByLayer
 62
  256
370
   -1
100
AcDbEllipse
 10
32.25271386191824
 20
155.2845927131244
 30
0
 11
-0.4000000000000005
 21
-2.6e-014
 31
0
 40
0.5773502691896608
 41
5.497787143782121
 42
7.068583470577017
  0
LINE
  5
2F6
100
AcDbEntity
  8
Sichtbar (ISO)
  6
ByLayer
 62
  256
370
   -1
100
AcDbLine
 10
40.00662438625834
 20
150.385613227558
 11
40.00662438625993
 21
125.890715799727
  0
LINE
  5
2F7
100
AcDbEntity
  8
Sichtbar (ISO)
  6
ByLayer
 62
  256
370
   -1
100
AcDbLine
 10
38.20956811141063
 20
151.3654091246713
 11
38.20956811141065
 21
151.1922040439143
  0
LINE
  5
2F8
100
AcDbEntity
  8
Sichtbar (ISO)
  6
ByLayer
 62
  256
370
   -1
100
AcDbLine
 10
36.5574865833935
 20
152.2635553636917
 11
36.55748658339351
 21
152.1460337588383
  0
LINE
  5
2F9
100
AcDbEntity
  8
Sichtbar (ISO)
  6
ByLayer
 62
  256
370
   -1
100
AcDbLine
 10
36.60836479617966
 20
159.3506724562793
 11
30.30122598369108
 21
155.7092441650722
  0
LINE
  5
2FA
100
AcDbEntity
  8
Sichtbar (ISO)
  6
ByLayer
 62
  256
370
   -1
100
AcDbLine
 10
36.63677590527483
 20
160.1835721986912
 11
46.32413880753055
 21
154.5905706193364
  0
ELLIPSE
  5
2FB
100
AcDbEntity
  8
Sichtbar (ISO)
  6
ByLayer
 62
  256
370
   -1
100
AcDbEllipse
 10
45.75845338258131
 20
154.2639719869652
 30
0
 11
0.8000000000000012
 21
5.2e-014
 31
0
 40
0.5773502691896609
 41
5.497787143782078
 42
7.068583470576975
  0
LINE
  5
2FC
100
AcDbEntity
  8
Sichtbar (ISO)
  6
ByLayer
 62
  256
370
   -1
100
AcDbLine
 10
46.32413880753055
 20
153.9373733545941
 11
46.11200677317458
 21
153.8148988674549
  0
ELLIPSE
  5
2FD
100
AcDbEntity
  8
Sichtbar (ISO)
  6
ByLayer
 62
  256
370
   -1
100
AcDbEllipse
 10
45.82916406069997
 20
153.9781981836405
 30
0
 11
-0.4000000000000026
 21
-2.1e-015
 31
0
 40
0.5773502691896609
 41
0.785398163397697
 42
2.356194490192546
  0
LINE
  5
2FE
100
AcDbEntity
  8
Sichtbar (ISO)
  6
ByLayer
 62
  256
370
   -1
100
AcDbLine
 10
45.54632134822533
 20
153.8148988674549
 11
44.41495049832686
 21
154.4680961321971
  0
LINE
  5
2FF
100
AcDbEntity
  8
Sichtbar (ISO)
  6
ByLayer
 62
  256
370
   -1
100
AcDbLine
 10
44.41495049832686
 20
154.4680961321971
 11
44.69779321080147
 21
154.6313954483826
  0
LINE
  5
300
100
AcDbEntity
  8
Sichtbar (ISO)
  6
ByLayer
 62
  256
370
   -1
100
AcDbLine
 10
44.69779321080148
 20
154.6313954483826
 11
44.3442398202082
 21
154.8355195936146
  0
LINE
  5
301
100
AcDbEntity
  8
Sichtbar (ISO)
  6
ByLayer
 62
  256
370
   -1
100
AcDbLine
 10
44.34423982020823
 20
154.5089209612449
 11
44.34423982020821
 21
154.8355195936146
  0
ELLIPSE
  5
302
100
AcDbEntity
  8
Sichtbar (ISO)
  6
ByLayer
 62
  256
370
   -1
100
AcDbEllipse
 10
44.13210778585225
 20
154.9579940807538
 30
0
 11
-0.3000000000000014
 21
-1.5e-015
 31
0
 40
0.5773502691896609
 41
1.428899272190802
 42
2.356194490192564
  0
ELLIPSE
  5
303
100
AcDbEntity
  8
Sichtbar (ISO)
  6
ByLayer
 62
  256
370
   -1
100
AcDbEllipse
 10
44.20281846397089
 20
155.2437678840785
 30
0
 11
-0.7999999999999984
 21
-5.2e-014
 31
0
 40
0.5773502691896608
 41
0.7853981633973959
 42
1.428899272190708
  0
LINE
  5
304
100
AcDbEntity
  8
Sichtbar (ISO)
  6
ByLayer
 62
  256
370
   -1
100
AcDbLine
 10
43.63713303902165
 20
154.9171692517073
 11
42.47040685006385
 21
155.5907789309727
  0
ELLIPSE
  5
305
100
AcDbEntity
  8
Sichtbar (ISO)
  6
ByLayer
 62
  256
370
   -1
100
AcDbEllipse
 10
42.57647286724183
 20
155.6520161745423
 30
0
 11
-0.1500000000000001
 21
-9.700000000000001e-015
 31
0
 40
0.5773502691896609
 41
3.926990816987211
 42
7.068583470577004
  0
LINE
  5
306
100
AcDbEntity
  8
Sichtbar (ISO)
  6
ByLayer
 62
  256
370
   -1
100
AcDbLine
 10
42.68253888441981
 20
155.7132534181119
 11
43.84926507337762
 21
155.0396437388465
  0
ELLIPSE
  5
307
100
AcDbEntity
  8
Sichtbar (ISO)
  6
ByLayer
 62
  256
370
   -1
100
AcDbEllipse
 10
44.20281846397085
 20
155.2437678840784
 30
0
 11
0.5000000000000016
 21
6.23e-014
 31
0
 40
0.5773502691896609
 41
3.926990816986979
 42
4.570491925780448
  0
LINE
  5
308
100
AcDbEntity
  8
Sichtbar (ISO)
  6
ByLayer
 62
  256
370
   -1
100
AcDbLine
 10
44.13210778585224
 20
154.9579940807538
 11
42.0107874422926
 21
156.1827389521454
  0
LINE
  5
309
100
AcDbEntity
  8
Sichtbar (ISO)
  6
ByLayer
 62
  256
370
   -1
100
AcDbLine
 10
42.01078744229262
 20
155.8561403197756
 11
42.01078744229259
 21
156.1827389521454
  0
LINE
  5
30A
100
AcDbEntity
  8
Sichtbar (ISO)
  6
ByLayer
 62
  256
370
   -1
100
AcDbLine
 10
42.0107874422926
 20
156.1827389521453
 11
41.72794472981798
 21
156.0194396359597
  0
LINE
  5
30B
100
AcDbEntity
  8
Sichtbar (ISO)
  6
ByLayer
 62
  256
370
   -1
100
AcDbLine
 10
41.72794472981798
 20
156.0194396359597
 11
38.82880692695313
 21
157.6932576268615
  0
LINE
  5
30C
100
AcDbEntity
  8
Sichtbar (ISO)
  6
ByLayer
 62
  256
370
   -1
100
AcDbLine
 10
38.82880692695315
 20
157.4693219524877
 11
38.82880692695314
 21
157.6932576268615
  0
LINE
  5
30D
100
AcDbEntity
  8
Sichtbar (ISO)
  6
ByLayer
 62
  256
370
   -1
100
AcDbLine
 10
38.82880692695314
 20
157.6932576268615
 11
38.61667489259717
 21
157.5707831397224
  0
ELLIPSE
  5
30E
100
AcDbEntity
  8
Sichtbar (ISO)
  6
ByLayer
 62
  256
370
   -1
100
AcDbEllipse
 10
38.19241082388524
 20
157.8157321140007
 30
0
 11
-0.5999999999999962
 21
-3.2e-015
 31
0
 40
0.5773502691896608
 41
5.497787143782366
 42
8.639379797372159
  0
LINE
  5
30F
100
AcDbEntity
  8
Sichtbar (ISO)
  6
ByLayer
 62
  256
370
   -1
100
AcDbLine
 10
37.76814675517331
 20
158.060681088279
 11
37.98027878952928
 21
158.1831555754182
  0
LINE
  5
310
100
AcDbEntity
  8
Sichtbar (ISO)
  6
ByLayer
 62
  256
370
   -1
100
AcDbLine
 10
37.98027878952928
 20
158.1831555754182
 11
37.626725398936
 21
158.3872797206501
  0
ELLIPSE
  5
311
100
AcDbEntity
  8
Sichtbar (ISO)
  6
ByLayer
 62
  256
370
   -1
100
AcDbEllipse
 10
37.34388268646139
 20
158.2239804044646
 30
0
 11
-0.4000000000000004
 21
-4.98e-014
 31
0
 40
0.5773502691896609
 41
3.926990816986966
 42
5.497787143781863
  0
LINE
  5
312
100
AcDbEntity
  8
Sichtbar (ISO)
  6
ByLayer
 62
  256
370
   -1
100
AcDbLine
 10
31.96987114944362
 20
155.4478920293099
 11
37.06103997398676
 21
158.3872797206501
  0
LINE
  5
313
100
AcDbEntity
  8
Sichtbar (ISO)
  6
ByLayer
 62
  256
370
   -1
100
AcDbLine
 10
46.55845338258138
 20
153.2305441649654
 11
46.55845338258131
 21
154.2639719869652
  0
LINE
  5
314
100
AcDbEntity
  8
Sichtbar (ISO)
  6
ByLayer
 62
  256
370
   -1
100
AcDbLine
 10
42.42647286724184
 20
155.6161442277829
 11
42.42647286724182
 21
155.6520161745423
  0
LINE
  5
315
100
AcDbEntity
  8
Sichtbar (ISO)
  6
ByLayer
 62
  256
370
   -1
100
AcDbLine
 10
37.59241082388528
 20
157.1847499199233
 11
37.59241082388525
 21
157.8157321140007
  0
ARC
  5
316
100
AcDbEntity
  8
Sichtbar (ISO)
  6
ByLayer
 62
  256
370
   -1
100
AcDbCircle
 10
211.7813473638876
 20
194.4452688413179
 40
15.22241150239735
100
AcDbArc
 50
139.0660221826877
 51
160.8244834378982
  0
SPLINE
  5
317
100
AcDbEntity
  8
Sichtbar (ISO)
  6
ByLayer
 62
  256
370
   -1
100
AcDbSpline
210
0
220
0
230
0
 70
    8
 71
    3
 72
   18
 73
   14
 74
    0
 42
1e-007
 43
1e-007
 40
-0.0003835629875556
 40
-0.0003835629875556
 40
-0.0003835629875556
 40
-0.0003835629875556
 40
0
 40
0
 40
0.0166412852978725
 40
0.0166412852978725
 40
0.0329152925061505
 40
0.0329152925061505
 40
0.0541285478091943
 40
0.0541285478091943
 40
0.0717664336891923
 40
0.0717664336891923
 40
0.08794681364200969
 40
0.08794681364200969
 40
0.08794681364200969
 40
0.08794681364200969
 10
197.7635229804129
 20
198.9452688413161
 30
0
 10
197.762769646283
 20
198.9463018759902
 30
0
 10
197.7620163510976
 20
198.9473349405386
 30
0
 10
197.7285827583531
 20
198.9931892663193
 30
0
 10
197.6959433412598
 20
199.0381139281718
 30
0
 10
197.6332499226771
 20
199.1246932339523
 30
0
 10
197.6030769295076
 20
199.1665056767141
 30
0
 10
197.5377562976357
 20
199.2572852236222
 30
0
 10
197.5039058927261
 20
199.3045360451621
 30
0
 10
197.4527520973508
 20
199.3761213143777
 30
0
 10
197.4339430128068
 20
199.402521543107
 30
0
 10
197.4096437914828
 20
199.436656219006
 30
0
 10
197.4035237473481
 20
199.4452688413178
 30
0
 10
197.4035237473481
 20
199.4452688413178
 30
0
  0
LINE
  5
318
100
AcDbEntity
  8
Sichtbar (ISO)
  6
ByLayer
 62
  256
370
   -1
100
AcDbLine
 10
197.4035237473481
 20
199.4452688413178
 11
194.0813473638876
 21
199.4452688413178
  0
LINE
  5
319
100
AcDbEntity
  8
Sichtbar (ISO)
  6
ByLayer
 62
  256
370
   -1
100
AcDbLine
 10
200.2813473638877
 20
205.4452688413179
 11
202.0599668328251
 21
207.2238883102552
  0
LINE
  5
31A
100
AcDbEntity
  8
Sichtbar (ISO)
  6
ByLayer
 62
  256
370
   -1
100
AcDbLine
 10
217.6163160189305
 20
191.6675391241526
 11
215.3815013527748
 21
189.4327244579969
  0
LINE
  5
31B
100
AcDbEntity
  8
Sichtbar (ISO)
  6
ByLayer
 62
  256
370
   -1
100
AcDbLine
 10
209.3940457360958
 20
183.4452688413179
 11
215.3815013527748
 21
189.4327244579969
  0
LINE
  5
31C
100
AcDbEntity
  8
Sichtbar (ISO)
  6
ByLayer
 62
  256
370
   -1
100
AcDbLine
 10
200.2813473638877
 20
203.6376243852426
 11
200.2813473638877
 21
204.9452688413178
  0
ARC
  5
31D
100
AcDbEntity
  8
Sichtbar (ISO)
  6
ByLayer
 62
  256
370
   -1
100
AcDbCircle
 10
209.8229779242303
 20
190.9452688413178
 40
1.999999999999994
100
AcDbArc
 50
270
 51
315
  0
LINE
  5
31E
100
AcDbEntity
  8
Sichtbar (ISO)
  6
ByLayer
 62
  256
370
   -1
100
AcDbLine
 10
212.2539307034366
 20
190.547794495778
 11
211.2371914866034
 21
189.5310552789447
  0
ARC
  5
31F
100
AcDbEntity
  8
Sichtbar (ISO)
  6
ByLayer
 62
  256
370
   -1
100
AcDbCircle
 10
216.0442982677899
 20
205.6518705591158
 40
15.57241150239719
100
AcDbArc
 50
255.9125399821408
 51
264.9531715703872
  0
LINE
  5
320
100
AcDbEntity
  8
Sichtbar (ISO)
  6
ByLayer
 62
  256
370
   -1
100
AcDbLine
 10
215.3815013527748
 20
189.4327244579969
 11
214.6743945715883
 21
190.1398312391835
  0
LINE
  5
321
100
AcDbEntity
  8
Sichtbar (ISO)
  6
ByLayer
 62
  256
370
   -1
100
AcDbLine
 10
209.8229779242302
 20
188.9452688413178
 11
152.7813473638878
 21
188.9452688413179
  0
LINE
  5
322
100
AcDbEntity
  8
Sichtbar (ISO)
  6
ByLayer
 62
  256
370
   -1
100
AcDbLine
 10
209.3940457360958
 20
183.4452688413179
 11
152.7813473638877
 21
183.4452688413178
  0
LINE
  5
323
100
AcDbEntity
  8
Sichtbar (ISO)
  6
ByLayer
 62
  256
370
   -1
100
AcDbLine
 10
152.7813473638877
 20
183.4452688413178
 11
152.7813473638878
 21
188.9452688413179
  0
LINE
  5
324
100
AcDbEntity
  8
Sichtbar (ISO)
  6
ByLayer
 62
  256
370
   -1
100
AcDbLine
 10
211.4481041900778
 20
192.5703951071663
 11
210.7846511778792
 21
193.2338481193649
  0
LINE
  5
325
100
AcDbEntity
  8
Sichtbar (ISO)
  6
ByLayer
 62
  256
370
   -1
100
AcDbLine
 10
210.3184338549377
 20
193.7000654423064
 11
204.0924931509865
 21
199.9260061462577
  0
LINE
  5
326
100
AcDbEntity
  8
Sichtbar (ISO)
  6
ByLayer
 62
  256
370
   -1
100
AcDbLine
 10
211.7761727199624
 20
192.2423265772818
 11
211.4481041900778
 21
192.5703951071663
  0
LINE
  5
327
100
AcDbEntity
  8
Sichtbar (ISO)
  6
ByLayer
 62
  256
370
   -1
100
AcDbLine
 10
261.6526856543174
 20
243.4820833525923
 11
265.5417729508429
 21
239.5929960560668
  0
ARC
  5
328
100
AcDbEntity
  8
Sichtbar (ISO)
  6
ByLayer
 62
  256
370
   -1
100
AcDbCircle
 10
216.0442982677899
 20
205.6518705591161
 40
14.072411502396
100
AcDbArc
 50
252.3442404654067
 51
276.4138525222039
  0
LINE
  5
329
100
AcDbEntity
  8
Sichtbar (ISO)
  6
ByLayer
 62
  256
370
   -1
100
AcDbLine
 10
265.5417729508429
 20
239.5929960560668
 11
217.6163160189303
 21
191.6675391241541
  0
ARC
  5
32A
100
AcDbEntity
  8
Sichtbar (ISO)
  6
ByLayer
 62
  256
370
   -1
100
AcDbCircle
 10
225.164501966029
 20
202.7512589771852
 40
2.999999999999669
100
AcDbArc
 50
135
 51
158.5564643091018
  0
ARC
  5
32B
100
AcDbEntity
  8
Sichtbar (ISO)
  6
ByLayer
 62
  256
370
   -1
100
AcDbCircle
 10
219.5798321737223
 20
204.9447637779296
 40
2.999999999999698
100
AcDbArc
 50
315
 51
338.5564643091012
  0
LINE
  5
32C
100
AcDbEntity
  8
Sichtbar (ISO)
  6
ByLayer
 62
  256
370
   -1
100
AcDbLine
 10
261.6526856543174
 20
243.4820833525923
 11
223.0431816224696
 21
204.8725793207446
  0
LINE
  5
32D
100
AcDbEntity
  8
Sichtbar (ISO)
  6
ByLayer
 62
  256
370
   -1
100
AcDbLine
 10
221.7011525172817
 20
202.8234434343702
 11
211.4481041900778
 21
192.5703951071663
  0
LINE
  5
32E
100
AcDbEntity
  8
Sichtbar (ISO)
  6
ByLayer
 62
  256
370
   -1
100
AcDbLine
 10
208.4439411340413
 20
203.4255249623821
 11
207.8454387691696
 21
202.8270225975104
  0
LINE
  5
32F
100
AcDbEntity
  8
Sichtbar (ISO)
  6
ByLayer
 62
  256
370
   -1
100
AcDbLine
 10
209.4682052027579
 20
204.4497890310986
 11
209.2924692714652
 21
204.2740530998059
  0
LINE
  5
330
100
AcDbEntity
  8
Sichtbar (ISO)
  6
ByLayer
 62
  256
370
   -1
100
AcDbLine
 10
209.4682052027579
 20
204.4497890310986
 11
209.5389158808727
 21
204.5204997092134
  0
LINE
  5
331
100
AcDbEntity
  8
Sichtbar (ISO)
  6
ByLayer
 62
  256
370
   -1
100
AcDbLine
 10
254.086643095629
 20
249.3510696364435
 11
253.0259829238485
 21
250.411729808224
  0
LINE
  5
332
100
AcDbEntity
  8
Sichtbar (ISO)
  6
ByLayer
 62
  256
370
   -1
100
AcDbLine
 10
213.9229779242097
 20
195.0452688412982
 11
213.56942453362
 21
195.3988222318879
  0
LINE
  5
333
100
AcDbEntity
  8
Sichtbar (ISO)
  6
ByLayer
 62
  256
370
   -1
100
AcDbLine
 10
213.8179526710572
 20
198.0515134253664
 11
213.2194503061835
 21
197.4530110604928
  0
LINE
  5
334
100
AcDbEntity
  8
Sichtbar (ISO)
  6
ByLayer
 62
  256
370
   -1
100
AcDbLine
 10
214.842216739751
 20
199.0757774940602
 11
214.666480808481
 21
198.9000415627903
  0
LINE
  5
335
100
AcDbEntity
  8
Sichtbar (ISO)
  6
ByLayer
 62
  256
370
   -1
100
AcDbLine
 10
214.8422167397509
 20
199.0757774940602
 11
214.9129274178853
 21
199.1464881721945
  0
LINE
  5
336
100
AcDbEntity
  8
Sichtbar (ISO)
  6
ByLayer
 62
  256
370
   -1
100
AcDbLine
 10
260.8041575168781
 20
242.6335552151522
 11
259.7434973451005
 21
243.6942153869299
  0
LINE
  5
337
100
AcDbEntity
  8
Sichtbar (ISO)
  6
ByLayer
 62
  256
370
   -1
100
AcDbLine
 10
211.4481041900747
 20
196.813035794282
 11
207.2054635029555
 21
201.0556764814012
  0
LINE
  5
338
100
AcDbEntity
  8
Sichtbar (ISO)
  6
ByLayer
 62
  256
370
   -1
100
AcDbLine
 10
207.2054635029555
 20
201.0556764814012
 11
207.3125702841413
 21
201.1627832625871
  0
LINE
  5
339
100
AcDbEntity
  8
Sichtbar (ISO)
  6
ByLayer
 62
  256
370
   -1
100
AcDbLine
 10
208.3732304559211
 20
202.2234434343669
 11
209.6803372371079
 21
203.5305502155537
  0
LINE
  5
33A
100
AcDbEntity
  8
Sichtbar (ISO)
  6
ByLayer
 62
  256
370
   -1
100
AcDbLine
 10
211.4481041900747
 20
196.813035794282
 11
211.5552109712605
 21
196.9201425754679
  0
LINE
  5
33B
100
AcDbEntity
  8
Sichtbar (ISO)
  6
ByLayer
 62
  256
370
   -1
100
AcDbLine
 10
212.6158711430403
 20
197.9808027472476
 11
213.9229779242271
 21
199.2879095284344
  0
LINE
  5
33C
100
AcDbEntity
  8
Sichtbar (ISO)
  6
ByLayer
 62
  256
370
   -1
100
AcDbLine
 10
153.9813473638878
 20
188.9452688413179
 11
153.9813473638878
 21
190.4452688413178
  0
LINE
  5
33D
100
AcDbEntity
  8
Sichtbar (ISO)
  6
ByLayer
 62
  256
370
   -1
100
AcDbLine
 10
194.0813473638877
 20
188.9452688413178
 11
194.0813473638877
 21
190.4452688413177
  0
LINE
  5
33E
100
AcDbEntity
  8
Sichtbar (ISO)
  6
ByLayer
 62
  256
370
   -1
100
AcDbLine
 10
153.9813473638879
 20
198.4452688413178
 11
153.9813473638879
 21
199.9452688413177
  0
LINE
  5
33F
100
AcDbEntity
  8
Sichtbar (ISO)
  6
ByLayer
 62
  256
370
   -1
100
AcDbLine
 10
194.0813473638876
 20
198.4452688413177
 11
194.0813473638876
 21
199.9452688413177
  0
LINE
  5
340
100
AcDbEntity
  8
Sichtbar (ISO)
  6
ByLayer
 62
  256
370
   -1
100
AcDbLine
 10
202.0599668328279
 20
207.2238883102546
 11
249.9854237647447
 21
255.1493452421715
  0
ARC
  5
341
100
AcDbEntity
  8
Sichtbar (ISO)
  6
ByLayer
 62
  256
370
   -1
100
AcDbCircle
 10
216.0442982677911
 20
205.6518705591142
 40
14.07241150239721
100
AcDbArc
 50
173.5861474777963
 51
197.655759534593
  0
LINE
  5
342
100
AcDbEntity
  8
Sichtbar (ISO)
  6
ByLayer
 62
  256
370
   -1
100
AcDbLine
 10
203.3163762064335
 20
200.7021230908084
 11
202.6347542859556
 21
201.3837450112862
  0
LINE
  5
343
100
AcDbEntity
  8
Sichtbar (ISO)
  6
ByLayer
 62
  256
370
   -1
100
AcDbLine
 10
253.8745110612706
 20
251.2602579456456
 11
214.5250594522457
 21
211.9108063366207
  0
LINE
  5
344
100
AcDbEntity
  8
Sichtbar (ISO)
  6
ByLayer
 62
  256
370
   -1
100
AcDbLine
 10
204.8376965499902
 20
202.2234434343651
 11
203.3163762064335
 21
200.7021230908084
  0
LINE
  5
345
100
AcDbEntity
  8
Sichtbar (ISO)
  6
ByLayer
 62
  256
370
   -1
100
AcDbLine
 10
249.9854237647447
 20
255.1493452421715
 11
253.8745110612706
 21
251.2602579456456
  0
ARC
  5
346
100
AcDbEntity
  8
Sichtbar (ISO)
  6
ByLayer
 62
  256
370
   -1
100
AcDbCircle
 10
211.7813473638876
 20
194.4452688413178
 40
15.57241150239751
100
AcDbArc
 50
137.6025622024996
 51
159.3175243555256
  0
LINE
  5
347
100
AcDbEntity
  8
Sichtbar (ISO)
  6
ByLayer
 62
  256
370
   -1
100
AcDbLine
 10
200.2813473638876
 20
205.4452688413179
 11
200.2813473638876
 21
204.9452688413178
  0
LINE
  5
348
100
AcDbEntity
  8
Sichtbar (ISO)
  6
ByLayer
 62
  256
370
   -1
100
AcDbLine
 10
152.7813473638878
 20
205.4452688413179
 11
200.2813473638876
 21
205.4452688413179
  0
LINE
  5
349
100
AcDbEntity
  8
Sichtbar (ISO)
  6
ByLayer
 62
  256
370
   -1
100
AcDbLine
 10
152.7813473638878
 20
199.9452688413178
 11
152.7813473638878
 21
205.4452688413179
  0
LINE
  5
34A
100
AcDbEntity
  8
Sichtbar (ISO)
  6
ByLayer
 62
  256
370
   -1
100
AcDbLine
 10
197.2125450795541
 20
199.9452688413177
 11
152.7813473638878
 21
199.9452688413178
  0
LINE
  5
34B
100
AcDbEntity
  8
Sichtbar (ISO)
  6
ByLayer
 62
  256
370
   -1
100
AcDbLine
 10
208.0313473638871
 20
192.2452688413179
 11
201.8313473638872
 21
198.4452688413179
  0
LINE
  5
34C
100
AcDbEntity
  8
Sichtbar (ISO)
  6
ByLayer
 62
  256
370
   -1
100
AcDbLine
 10
201.8313473638872
 20
198.4452688413179
 11
138.0313473638873
 21
198.445268841318
  0
LINE
  5
34D
100
AcDbEntity
  8
Sichtbar (ISO)
  6
ByLayer
 62
  256
370
   -1
100
AcDbLine
 10
138.0313473638873
 20
198.445268841318
 11
138.0313473638873
 21
190.445268841318
  0
LINE
  5
34E
100
AcDbEntity
  8
Sichtbar (ISO)
  6
ByLayer
 62
  256
370
   -1
100
AcDbLine
 10
138.0313473638873
 20
190.445268841318
 11
207.2313473638871
 21
190.4452688413178
  0
LINE
  5
34F
100
AcDbEntity
  8
Sichtbar (ISO)
  6
ByLayer
 62
  256
370
   -1
100
AcDbLine
 10
207.2313473638871
 20
190.4452688413178
 11
208.0313473638871
 21
191.2452688413178
  0
LINE
  5
350
100
AcDbEntity
  8
Sichtbar (ISO)
  6
ByLayer
 62
  256
370
   -1
100
AcDbLine
 10
208.0313473638871
 20
191.2452688413178
 11
208.0313473638871
 21
192.2452688413179
  0
LINE
  5
351
100
AcDbEntity
  8
Sichtbar (ISO)
  6
ByLayer
 62
  256
370
   -1
100
AcDbLine
 10
214.0643992804676
 20
199.1464881721935
 11
215.195770130366
 21
199.1464881721935
  0
LINE
  5
352
100
AcDbEntity
  8
Sichtbar (ISO)
  6
ByLayer
 62
  256
370
   -1
100
AcDbLine
 10
215.195770130366
 20
199.1464881721935
 11
267.6630932944076
 21
251.6138113362353
  0
LINE
  5
353
100
AcDbEntity
  8
Sichtbar (ISO)
  6
ByLayer
 62
  256
370
   -1
100
AcDbLine
 10
267.6630932944076
 20
251.6138113362353
 11
262.0062390449152
 21
257.2706655857277
  0
LINE
  5
354
100
AcDbEntity
  8
Sichtbar (ISO)
  6
ByLayer
 62
  256
370
   -1
100
AcDbLine
 10
262.0062390449152
 20
257.2706655857277
 11
209.5389158808736
 21
204.8033424216858
  0
LINE
  5
355
100
AcDbEntity
  8
Sichtbar (ISO)
  6
ByLayer
 62
  256
370
   -1
100
AcDbLine
 10
209.5389158808736
 20
204.8033424216859
 11
209.5389158808736
 21
203.6719715717875
  0
LINE
  5
356
100
AcDbEntity
  8
Sichtbar (ISO)
  6
ByLayer
 62
  256
370
   -1
100
AcDbLine
 10
209.5389158808736
 20
203.6719715717875
 11
214.0643992804676
 21
199.1464881721935
  0
ARC
  5
357
100
AcDbEntity
  8
Sichtbar (ISO)
  6
ByLayer
 62
  256
370
   -1
100
AcDbCircle
 10
208.7267838465176
 20
198.3343561378375
 40
5.5
100
AcDbArc
 50
135
 51
315
  0
ARC
  5
358
100
AcDbEntity
  8
Sichtbar (ISO)
  6
ByLayer
 62
  256
370
   -1
100
AcDbCircle
 10
205.9974785089852
 20
201.9121896127937
 40
0.3999999999999999
100
AcDbArc
 50
45
 51
127.3377443392347
  0
ARC
  5
359
100
AcDbEntity
  8
Sichtbar (ISO)
  6
ByLayer
 62
  256
370
   -1
100
AcDbCircle
 10
212.3046173214738
 20
195.6050508003051
 40
0.4000000000000001
100
AcDbArc
 50
322.6622556607684
 51
45
  0
ARC
  5
35A
100
AcDbEntity
  8
Sichtbar (ISO)
  6
ByLayer
 62
  256
370
   -1
100
AcDbCircle
 10
208.7267838465176
 20
198.3343561378375
 40
4.900000000000001
100
AcDbArc
 50
127.3377443392342
 51
322.6622556607661
  0
LINE
  5
35B
100
AcDbEntity
  8
Sichtbar (ISO)
  6
ByLayer
 62
  256
370
   -1
100
AcDbLine
 10
212.6158711430436
 20
194.4452688413115
 11
222.3032340452993
 21
204.1326317435672
  0
ARC
  5
35C
100
AcDbEntity
  8
Sichtbar (ISO)
  6
ByLayer
 62
  256
370
   -1
100
AcDbCircle
 10
221.73754862035
 20
204.6983171685165
 40
0.8000000000000012
100
AcDbArc
 50
315
 51
45
  0
LINE
  5
35D
100
AcDbEntity
  8
Sichtbar (ISO)
  6
ByLayer
 62
  256
370
   -1
100
AcDbLine
 10
222.3032340452993
 20
205.2640025934657
 11
222.0911020109433
 21
205.4761346278217
  0
ARC
  5
35E
100
AcDbEntity
  8
Sichtbar (ISO)
  6
ByLayer
 62
  256
370
   -1
100
AcDbCircle
 10
221.8082592984687
 20
205.193291915347
 40
0.4000000000000026
100
AcDbArc
 50
45
 51
135
  0
LINE
  5
35F
100
AcDbEntity
  8
Sichtbar (ISO)
  6
ByLayer
 62
  256
370
   -1
100
AcDbLine
 10
221.525416585994
 20
205.4761346278217
 11
220.3940457360956
 21
204.3447637779232
  0
LINE
  5
360
100
AcDbEntity
  8
Sichtbar (ISO)
  6
ByLayer
 62
  256
370
   -1
100
AcDbLine
 10
220.3940457360956
 20
204.3447637779232
 11
220.6768884485702
 21
204.0619210654486
  0
LINE
  5
361
100
AcDbEntity
  8
Sichtbar (ISO)
  6
ByLayer
 62
  256
370
   -1
100
AcDbLine
 10
220.6768884485702
 20
204.0619210654486
 11
220.323335057977
 21
203.7083676748553
  0
ARC
  5
362
100
AcDbEntity
  8
Sichtbar (ISO)
  6
ByLayer
 62
  256
370
   -1
100
AcDbCircle
 10
220.111203023621
 20
203.4962356404993
 40
0.3000000000000014
100
AcDbArc
 50
45
 51
98.13010235415214
  0
ARC
  5
363
100
AcDbEntity
  8
Sichtbar (ISO)
  6
ByLayer
 62
  256
370
   -1
100
AcDbCircle
 10
220.1819137017396
 20
203.0012608936687
 40
0.7999999999999984
100
AcDbArc
 50
98.13010235415634
 51
135.0000000000018
  0
LINE
  5
364
100
AcDbEntity
  8
Sichtbar (ISO)
  6
ByLayer
 62
  256
370
   -1
100
AcDbLine
 10
219.6162282767904
 20
203.566946318618
 11
218.4495020878326
 21
202.4002201296602
  0
ARC
  5
365
100
AcDbEntity
  8
Sichtbar (ISO)
  6
ByLayer
 62
  256
370
   -1
100
AcDbCircle
 10
218.5555681050106
 20
202.2941541124822
 40
0.1500000000000001
100
AcDbArc
 50
135
 51
315
  0
LINE
  5
366
100
AcDbEntity
  8
Sichtbar (ISO)
  6
ByLayer
 62
  256
370
   -1
100
AcDbLine
 10
218.6616341221885
 20
202.1880880953042
 11
219.8283603111463
 21
203.354814284262
  0
ARC
  5
367
100
AcDbEntity
  8
Sichtbar (ISO)
  6
ByLayer
 62
  256
370
   -1
100
AcDbCircle
 10
220.1819137017396
 20
203.0012608936687
 40
0.5000000000000016
100
AcDbArc
 50
98.13010235415022
 51
134.9999999999971
  0
LINE
  5
368
100
AcDbEntity
  8
Sichtbar (ISO)
  6
ByLayer
 62
  256
370
   -1
100
AcDbLine
 10
220.1112030236209
 20
203.4962356404993
 11
217.9898826800613
 21
201.3749152969396
  0
LINE
  5
369
100
AcDbEntity
  8
Sichtbar (ISO)
  6
ByLayer
 62
  256
370
   -1
100
AcDbLine
 10
217.9898826800613
 20
201.3749152969396
 11
217.7070399675867
 21
201.6577580094143
  0
LINE
  5
36A
100
AcDbEntity
  8
Sichtbar (ISO)
  6
ByLayer
 62
  256
370
   -1
100
AcDbLine
 10
217.7070399675867
 20
201.6577580094143
 11
214.8079021647219
 21
198.7586202065494
  0
LINE
  5
36B
100
AcDbEntity
  8
Sichtbar (ISO)
  6
ByLayer
 62
  256
370
   -1
100
AcDbLine
 10
214.8079021647219
 20
198.7586202065494
 11
214.5957701303659
 21
198.9707522409054
  0
ARC
  5
36C
100
AcDbEntity
  8
Sichtbar (ISO)
  6
ByLayer
 62
  256
370
   -1
100
AcDbCircle
 10
214.171506061654
 20
198.5464881721935
 40
0.5999999999999961
100
AcDbArc
 50
45
 51
225
  0
LINE
  5
36D
100
AcDbEntity
  8
Sichtbar (ISO)
  6
ByLayer
 62
  256
370
   -1
100
AcDbLine
 10
213.747241992942
 20
198.1222241034815
 11
213.959374027298
 21
197.9100920691256
  0
LINE
  5
36E
100
AcDbEntity
  8
Sichtbar (ISO)
  6
ByLayer
 62
  256
370
   -1
100
AcDbLine
 10
213.959374027298
 20
197.9100920691256
 11
213.6058206367048
 21
197.5565386785323
  0
ARC
  5
36F
100
AcDbEntity
  8
Sichtbar (ISO)
  6
ByLayer
 62
  256
370
   -1
100
AcDbCircle
 10
213.3229779242301
 20
197.8393813910069
 40
0.4000000000000004
100
AcDbArc
 50
225
 51
315
  0
LINE
  5
370
100
AcDbEntity
  8
Sichtbar (ISO)
  6
ByLayer
 62
  256
370
   -1
100
AcDbLine
 10
206.2803212214598
 20
202.1950323252683
 11
212.5874600339484
 21
195.8878935127798
  0
LINE
  5
371
100
AcDbEntity
  8
Sichtbar (ISO)
  6
ByLayer
 62
  256
370
   -1
100
AcDbLine
 10
204.8376965499915
 20
202.2234434343635
 11
214.5250594522472
 21
211.9108063366192
  0
ARC
  5
372
100
AcDbEntity
  8
Sichtbar (ISO)
  6
ByLayer
 62
  256
370
   -1
100
AcDbCircle
 10
215.0907448771965
 20
211.34512091167
 40
0.8000000000000012
100
AcDbArc
 50
45
 51
135
  0
LINE
  5
373
100
AcDbEntity
  8
Sichtbar (ISO)
  6
ByLayer
 62
  256
370
   -1
100
AcDbLine
 10
215.6564303021457
 20
211.9108063366192
 11
215.8685623365017
 21
211.6986743022633
  0
ARC
  5
374
100
AcDbEntity
  8
Sichtbar (ISO)
  6
ByLayer
 62
  256
370
   -1
100
AcDbCircle
 10
215.5857196240271
 20
211.4158315897886
 40
0.4000000000000026
100
AcDbArc
 50
315
 51
45
  0
LINE
  5
375
100
AcDbEntity
  8
Sichtbar (ISO)
  6
ByLayer
 62
  256
370
   -1
100
AcDbLine
 10
215.8685623365017
 20
211.132988877314
 11
214.7371914866032
 21
210.0016180274156
  0
LINE
  5
376
100
AcDbEntity
  8
Sichtbar (ISO)
  6
ByLayer
 62
  256
370
   -1
100
AcDbLine
 10
214.7371914866032
 20
210.0016180274156
 11
214.4543487741286
 21
210.2844607398901
  0
LINE
  5
377
100
AcDbEntity
  8
Sichtbar (ISO)
  6
ByLayer
 62
  256
370
   -1
100
AcDbLine
 10
214.4543487741286
 20
210.2844607398901
 11
214.1007953835353
 21
209.9309073492969
  0
ARC
  5
378
100
AcDbEntity
  8
Sichtbar (ISO)
  6
ByLayer
 62
  256
370
   -1
100
AcDbCircle
 10
213.8886633491793
 20
209.7187753149409
 40
0.3000000000000014
100
AcDbArc
 50
351.8698976458479
 51
45
  0
ARC
  5
379
100
AcDbEntity
  8
Sichtbar (ISO)
  6
ByLayer
 62
  256
370
   -1
100
AcDbCircle
 10
213.3936886023488
 20
209.7894859930596
 40
0.7999999999999984
100
AcDbArc
 50
314.9999999999983
 51
351.8698976458436
  0
LINE
  5
37A
100
AcDbEntity
  8
Sichtbar (ISO)
  6
ByLayer
 62
  256
370
   -1
100
AcDbLine
 10
213.959374027298
 20
209.2238005681104
 11
212.7926478383402
 21
208.0570743791525
  0
ARC
  5
37B
100
AcDbEntity
  8
Sichtbar (ISO)
  6
ByLayer
 62
  256
370
   -1
100
AcDbCircle
 10
212.6865818211622
 20
208.1631403963305
 40
0.1500000000000001
100
AcDbArc
 50
135
 51
315
  0
LINE
  5
37C
100
AcDbEntity
  8
Sichtbar (ISO)
  6
ByLayer
 62
  256
370
   -1
100
AcDbLine
 10
212.5805158039842
 20
208.2692064135085
 11
213.747241992942
 21
209.4359326024663
  0
ARC
  5
37D
100
AcDbEntity
  8
Sichtbar (ISO)
  6
ByLayer
 62
  256
370
   -1
100
AcDbCircle
 10
213.3936886023488
 20
209.7894859930595
 40
0.5000000000000016
100
AcDbArc
 50
315.0000000000029
 51
351.8698976458498
  0
LINE
  5
37E
100
AcDbEntity
  8
Sichtbar (ISO)
  6
ByLayer
 62
  256
370
   -1
100
AcDbLine
 10
213.8886633491793
 20
209.7187753149409
 11
211.7673430056197
 21
207.5974549713813
  0
LINE
  5
37F
100
AcDbEntity
  8
Sichtbar (ISO)
  6
ByLayer
 62
  256
370
   -1
100
AcDbLine
 10
211.7673430056197
 20
207.5974549713813
 11
212.0501857180943
 21
207.3146122589067
  0
LINE
  5
380
100
AcDbEntity
  8
Sichtbar (ISO)
  6
ByLayer
 62
  256
370
   -1
100
AcDbLine
 10
212.0501857180943
 20
207.3146122589067
 11
209.1510479152295
 21
204.4154744560418
  0
LINE
  5
381
100
AcDbEntity
  8
Sichtbar (ISO)
  6
ByLayer
 62
  256
370
   -1
100
AcDbLine
 10
209.1510479152295
 20
204.4154744560418
 11
209.3631799495854
 21
204.2033424216859
  0
ARC
  5
382
100
AcDbEntity
  8
Sichtbar (ISO)
  6
ByLayer
 62
  256
370
   -1
100
AcDbCircle
 10
208.9389158808735
 20
203.7790783529739
 40
0.5999999999999961
100
AcDbArc
 50
225
 51
45
  0
LINE
  5
383
100
AcDbEntity
  8
Sichtbar (ISO)
  6
ByLayer
 62
  256
370
   -1
100
AcDbLine
 10
208.5146518121616
 20
203.354814284262
 11
208.3025197778056
 21
203.566946318618
  0
LINE
  5
384
100
AcDbEntity
  8
Sichtbar (ISO)
  6
ByLayer
 62
  256
370
   -1
100
AcDbLine
 10
208.3025197778056
 20
203.566946318618
 11
207.9489663872124
 21
203.2133929280247
  0
ARC
  5
385
100
AcDbEntity
  8
Sichtbar (ISO)
  6
ByLayer
 62
  256
370
   -1
100
AcDbCircle
 10
208.2318090996869
 20
202.9305502155501
 40
0.4000000000000004
100
AcDbArc
 50
135
 51
225
  0
LINE
  5
386
100
AcDbEntity
  8
Sichtbar (ISO)
  6
ByLayer
 62
  256
370
   -1
100
AcDbLine
 10
213.0401352117555
 20
197.5565386785323
 11
207.9489663872124
 21
202.6477075030754
  0
ARC
  5
387
100
AcDbEntity
  8
Sichtbar (ISO)
  6
ByLayer
 62
  256
370
   -1
100
AcDbCircle
 10
237.6110550939771
 20
239.946549446662
 40
25.00000000000002
100
AcDbArc
 50
45.0000000000001
 51
112.6948413815476
  0
LINE
  5
388
100
AcDbEntity
  8
Sichtbar (ISO)
  6
ByLayer
 62
  256
370
   -1
100
AcDbLine
 10
255.2887246236408
 20
257.6242189763257
 11
258.4707051389803
 21
260.8061994916652
  0
ARC
  5
389
100
AcDbEntity
  8
Sichtbar (ISO)
  6
ByLayer
 62
  256
370
   -1
100
AcDbCircle
 10
237.6110550939771
 20
239.946549446662
 40
29.50000000000001
100
AcDbArc
 50
45
 51
114.7978050688741
  0
LINE
  5
38A
100
AcDbEntity
  8
Sichtbar (ISO)
  6
ByLayer
 62
  256
370
   -1
100
AcDbLine
 10
225.238244558268
 20
266.7264590702483
 11
224.3078660424814
 21
269.6273732213644
  0
LINE
  5
38B
100
AcDbEntity
  8
Sichtbar (ISO)
  6
ByLayer
 62
  256
370
   -1
100
AcDbLine
 10
230.1531063449554
 20
261.3382035273232
 11
227.7442213036131
 21
261.9212294587521
  0
LINE
  5
38C
100
AcDbEntity
  8
Sichtbar (ISO)
  6
ByLayer
 62
  256
370
   -1
100
AcDbLine
 10
230.1531063449554
 20
261.3382035273232
 11
227.9654805900515
 21
263.0108702146625
  0
SPLINE
  5
38D
100
AcDbEntity
  8
Sichtbar (ISO)
  6
ByLayer
 62
  256
370
   -1
100
AcDbSpline
210
0
220
0
230
0
 70
    8
 71
    3
 72
   18
 73
   14
 74
    0
 42
1e-007
 43
1e-007
 40
0
 40
0
 40
0
 40
0
 40
0.02002717699594
 40
0.02002717699594
 40
0.044545871881488
 40
0.044545871881488
 40
0.0833055248065748
 40
0.0833055248065748
 40
0.148958115181627
 40
0.148958115181627
 40
0.2120326979996595
 40
0.2120326979996595
 40
0.2127169956761196
 40
0.2127169956761196
 40
0.2127169956761196
 40
0.2127169956761196
 10
227.9654805900515
 20
263.0108702146625
 30
0
 10
227.9654805900515
 20
263.0108702146625
 30
0
 10
227.9522492351788
 20
263.0125814014809
 30
0
 10
227.8982375558651
 20
263.0195157052804
 30
0
 10
227.8530478011334
 20
263.0252927949821
 30
0
 10
227.7154650096251
 20
263.0426444917355
 30
0
 10
227.6086390381315
 20
263.0559029258072
 30
0
 10
227.3104142127912
 20
263.0919357788747
 30
0
 10
227.0770170773069
 20
263.1191786956234
 30
0
 10
226.5658204799219
 20
263.1749404930395
 30
0
 10
226.3022879293601
 20
263.2020064528657
 30
0
 10
226.0412157985723
 20
263.2271005184648
 30
0
 10
226.0384137865651
 20
263.2273696508945
 30
0
 10
226.0356117625302
 20
263.2276385895793
 30
0
  0
LINE
  5
38E
100
AcDbEntity
  8
Sichtbar (ISO)
  6
ByLayer
 62
  256
370
   -1
100
AcDbLine
 10
218.3423953066437
 20
259.2152092339954
 11
220.2761584120162
 21
260.5788331500417
  0
LINE
  5
38F
100
AcDbEntity
  8
Sichtbar (ISO)
  6
ByLayer
 62
  256
370
   -1
100
AcDbLine
 10
218.3423953066437
 20
259.2152092339954
 11
230.1531063449553
 21
261.3382035273232
  0
LINE
  5
390
100
AcDbEntity
  8
Sichtbar (ISO)
  6
ByLayer
 62
  256
370
   -1
100
AcDbLine
 10
224.3078660424814
 20
269.6273732213644
 11
224.0482014743435
 21
267.1625769435405
  0
LINE
  5
391
100
AcDbEntity
  8
Sichtbar (ISO)
  6
ByLayer
 62
  256
370
   -1
100
AcDbLine
 10
224.3078660424814
 20
269.6273732213644
 11
218.3423953066437
 21
259.2152092339954
  0
SPLINE
  5
392
100
AcDbEntity
  8
Sichtbar (ISO)
  6
ByLayer
 62
  256
370
   -1
100
AcDbSpline
210
0
220
0
230
0
 70
    8
 71
    3
 72
   18
 73
   14
 74
    0
 42
1e-007
 43
1e-007
 40
-0.0006900732479622
 40
-0.0006900732479622
 40
-0.0006900732479622
 40
-0.0006900732479622
 40
0
 40
0
 40
0.052076942320704
 40
0.052076942320704
 40
0.1005381486776573
 40
0.1005381486776573
 40
0.1433324279049918
 40
0.1433324279049918
 40
0.1742262417633141
 40
0.1742262417633141
 40
0.2008645961684354
 40
0.2008645961684354
 40
0.2008645961684354
 40
0.2008645961684354
 10
224.6382404746813
 20
265.3228391843953
 30
0
 10
224.6391233548011
 20
265.3249632479275
 30
0
 10
224.6400063343545
 20
265.3270872742178
 30
0
 10
224.7075311852629
 20
265.4894986218405
 30
0
 10
224.7753738551886
 20
265.6510525238223
 30
0
 10
224.9024815243583
 20
265.9509551285315
 30
0
 10
224.9633076851077
 20
266.0931730254796
 30
0
 10
225.0685855218514
 20
266.3375439185098
 30
0
 10
225.1151284274985
 20
266.4447723979687
 30
0
 10
225.1802982565563
 20
266.5942616185379
 30
0
 10
225.2030142127503
 20
266.6461414187692
 30
0
 10
225.2312279405983
 20
266.7104943357864
 30
0
 10
225.238244558268
 20
266.7264590702483
 30
0
 10
225.238244558268
 20
266.7264590702483
 30
0
  0
SPLINE
  5
393
100
AcDbEntity
  8
Sichtbar (ISO)
  6
ByLayer
 62
  256
370
   -1
100
AcDbSpline
210
0
220
0
230
0
 70
    8
 71
    3
 72
   18
 73
   14
 74
    0
 42
1e-007
 43
1e-007
 40
-0.0006433994800897
 40
-0.0006433994800897
 40
-0.0006433994800897
 40
-0.0006433994800897
 40
0
 40
0
 40
0.045551712664149
 40
0.045551712664149
 40
0.08865231016050409
 40
0.08865231016050409
 40
0.1317284265166483
 40
0.1317284265166483
 40
0.1640587251217467
 40
0.1640587251217467
 40
0.192392043982726
 40
0.192392043982726
 40
0.192392043982726
 40
0.192392043982726
 10
257.0440823739134
 20
260.7937902889714
 30
0
 10
257.04622670867
 20
260.7938279204655
 30
0
 10
257.048371047804
 20
260.7938654649444
 30
0
 10
257.2023305256657
 20
260.7965548357451
 30
0
 10
257.3551236056715
 20
260.7987759567913
 30
0
 10
257.6425001426215
 20
260.8021687900895
 30
0
 10
257.7795266510134
 20
260.8034109478192
 30
0
 10
258.0326423998875
 20
260.8051412293477
 30
0
 10
258.1503941964599
 20
260.8056380331862
 30
0
 10
258.3184334733683
 20
260.8060916234085
 30
0
 10
258.3777578196594
 20
260.8061571094732
 30
0
 10
258.4521636990055
 20
260.8062046789204
 30
0
 10
258.4707051389803
 20
260.8061994916652
 30
0
 10
258.4707051389803
 20
260.8061994916652
 30
0
  0
SPLINE
  5
394
100
AcDbEntity
  8
Sichtbar (ISO)
  6
ByLayer
 62
  256
370
   -1
100
AcDbSpline
210
0
220
0
230
0
 70
    8
 71
    3
 72
   18
 73
   14
 74
    0
 42
1e-007
 43
1e-007
 40
-0.1888024440799916
 40
-0.1888024440799916
 40
-0.1888024440799916
 40
-0.1888024440799916
 40
-0.1881878451224395
 40
-0.1881878451224395
 40
-0.1447077253374638
 40
-0.1447077253374638
 40
-0.1030213431747049
 40
-0.1030213431747049
 40
-0.0601646066784886
 40
-0.0601646066784886
 40
-0.0280630261739818
 40
-0.0280630261739818
 40
0
 40
0
 40
0
 40
0
 10
255.2751213836645
 20
259.0248292987225
 30
0
 10
255.2751611495001
 20
259.0227622402805
 30
0
 10
255.2752008299052
 20
259.0206951778296
 30
0
 10
255.2780415689793
 20
258.8723935387127
 30
0
 10
255.2804189997288
 20
258.725346178303
 30
0
 10
255.284119488705
 20
258.4469571436095
 30
0
 10
255.2855027444074
 20
258.3134780501774
 30
0
 10
255.2874826201226
 20
258.0630734336809
 30
0
 10
255.2880653972356
 20
257.944925407063
 30
0
 10
255.2885971780298
 20
257.7766164797699
 30
0
 10
255.2886747135815
 20
257.7171801597663
 30
0
 10
255.2887306965645
 20
257.642764306199
 30
0
 10
255.2887246236408
 20
257.6242189763257
 30
0
 10
255.2887246236408
 20
257.6242189763257
 30
0
  0
SPLINE
  5
395
100
AcDbEntity
  8
Sichtbar (ISO)
  6
ByLayer
 62
  256
370
   -1
100
AcDbSpline
210
0
220
0
230
0
 70
    8
 71
    3
 72
   18
 73
   14
 74
    0
 42
1e-007
 43
1e-007
 40
-0.0008444702507317
 40
-0.0008444702507317
 40
-0.0008444702507317
 40
-0.0008444702507317
 40
0
 40
0
 40
0.0778383598031728
 40
0.0778383598031728
 40
0.1588581576901741
 40
0.1588581576901741
 40
0.2066902268928183
 40
0.2066902268928183
 40
0.236947977466366
 40
0.236947977466366
 40
0.2616628870104464
 40
0.2616628870104464
 40
0.2616628870104464
 40
0.2616628870104464
 10
273.6200662982523
 20
215.6431840538573
 30
0
 10
273.6197973595674
 20
215.6459860778934
 30
0
 10
273.6195282271379
 20
215.6487880898984
 30
0
 10
273.5944341615339
 20
215.9098602207236
 30
0
 10
273.5673682017118
 20
216.1733927712547
 30
0
 10
273.5116064042965
 20
216.6845893686331
 30
0
 10
273.4843634875478
 20
216.9179865041177
 30
0
 10
273.4483306344801
 20
217.2162113294587
 30
0
 10
273.4350722004086
 20
217.3230373009523
 30
0
 10
273.4177205036551
 20
217.4606200924606
 30
0
 10
273.4119434139534
 20
217.5058098471922
 30
0
 10
273.4050091101539
 20
217.5598215265059
 30
0
 10
273.4032979233355
 20
217.5730528813785
 30
0
 10
273.4032979233355
 20
217.5730528813785
 30
0
  0
LINE
  5
396
100
AcDbEntity
  8
Sichtbar (ISO)
  6
ByLayer
 62
  256
370
   -1
100
AcDbLine
 10
273.4032979233356
 20
217.5730528813785
 11
271.7306312359963
 21
219.7606786362825
  0
LINE
  5
397
100
AcDbEntity
  8
Sichtbar (ISO)
  6
ByLayer
 62
  256
370
   -1
100
AcDbLine
 10
271.7306312359963
 20
219.7606786362825
 11
272.313657167425
 21
217.3517935949402
  0
SPLINE
  5
398
100
AcDbEntity
  8
Sichtbar (ISO)
  6
ByLayer
 62
  256
370
   -1
100
AcDbSpline
210
0
220
0
230
0
 70
    8
 71
    3
 72
   18
 73
   14
 74
    0
 42
1e-007
 43
1e-007
 40
-0.0006202322734978
 40
-0.0006202322734978
 40
-0.0006202322734978
 40
-0.0006202322734978
 40
0
 40
0
 40
0.0438786516266022
 40
0.0438786516266022
 40
0.0859471245178286
 40
0.0859471245178286
 40
0.1291966790236158
 40
0.1291966790236158
 40
0.1615924974936979
 40
0.1615924974936979
 40
0.1899127448885523
 40
0.1899127448885523
 40
0.1899127448885523
 40
0.1899127448885523
 10
269.4172570073954
 20
244.8826936749915
 30
0
 10
269.4151899489537
 20
244.8827334408272
 30
0
 10
269.4131228865024
 20
244.8827731212323
 30
0
 10
269.2648212473908
 20
244.8856138603068
 30
0
 10
269.1177738869769
 20
244.8879912910559
 30
0
 10
268.8393848522825
 20
244.8916917800321
 30
0
 10
268.7059057588503
 20
244.8930750357345
 30
0
 10
268.4555011423539
 20
244.8950549114497
 30
0
 10
268.337353115736
 20
244.8956376885627
 30
0
 10
268.1690441884429
 20
244.8961694693569
 30
0
 10
268.1096078684392
 20
244.8962470049086
 30
0
 10
268.0351920148719
 20
244.8963029878916
 30
0
 10
268.0166466849987
 20
244.8962969149679
 30
0
 10
268.0166466849987
 20
244.8962969149679
 30
0
  0
ARC
  5
399
100
AcDbEntity
  8
Sichtbar (ISO)
  6
ByLayer
 62
  256
370
   -1
100
AcDbCircle
 10
250.338977155335
 20
227.2186273853042
 40
25.00000000000001
100
AcDbArc
 50
337.3051586184526
 51
45.00000000000008
  0
LINE
  5
39A
100
AcDbEntity
  8
Sichtbar (ISO)
  6
ByLayer
 62
  256
370
   -1
100
AcDbLine
 10
280.0198009300374
 20
213.9154383338085
 11
277.5550046522135
 21
213.6557737656707
  0
LINE
  5
39B
100
AcDbEntity
  8
Sichtbar (ISO)
  6
ByLayer
 62
  256
370
   -1
100
AcDbLine
 10
280.0198009300374
 20
213.9154383338085
 11
277.1188867789212
 21
214.8458168495951
  0
SPLINE
  5
39C
100
AcDbEntity
  8
Sichtbar (ISO)
  6
ByLayer
 62
  256
370
   -1
100
AcDbSpline
210
0
220
0
230
0
 70
    8
 71
    3
 72
   18
 73
   14
 74
    0
 42
1e-007
 43
1e-007
 40
0
 40
0
 40
0
 40
0
 40
0.0263416040920467
 40
0.0263416040920467
 40
0.0568912619715498
 40
0.0568912619715498
 40
0.0992088144624922
 40
0.0992088144624922
 40
0.1471301647179941
 40
0.1471301647179941
 40
0.1986269717679979
 40
0.1986269717679979
 40
0.1993093576247007
 40
0.1993093576247007
 40
0.1993093576247007
 40
0.1993093576247007
 10
277.1188867789212
 20
214.8458168495951
 30
0
 10
277.1188867789212
 20
214.8458168495952
 30
0
 10
277.1029220444593
 20
214.8388002319254
 30
0
 10
277.0385691274421
 20
214.8105865040774
 30
0
 10
276.9866893272109
 20
214.7878705478834
 30
0
 10
276.8372001066417
 20
214.7227007188257
 30
0
 10
276.7299716271828
 20
214.6761578131785
 30
0
 10
276.4856007341526
 20
214.5708799764348
 30
0
 10
276.3433828372046
 20
214.5100538156853
 30
0
 10
276.0434802324961
 20
214.382946146516
 30
0
 10
275.881926330518
 20
214.3151034765922
 30
0
 10
275.7195149828908
 20
214.2475786256815
 30
0
 10
275.7173909566005
 20
214.2466956461282
 30
0
 10
275.7152668930682
 20
214.2458127660084
 30
0
  0
ARC
  5
39D
100
AcDbEntity
  8
Sichtbar (ISO)
  6
ByLayer
 62
  256
370
   -1
100
AcDbCircle
 10
250.338977155335
 20
227.2186273853042
 40
29.50000000000001
100
AcDbArc
 50
335.202194931126
 51
45
  0
SPLINE
  5
39E
100
AcDbEntity
  8
Sichtbar (ISO)
  6
ByLayer
 62
  256
370
   -1
100
AcDbSpline
210
0
220
0
230
0
 70
    8
 71
    3
 72
   18
 73
   14
 74
    0
 42
1e-007
 43
1e-007
 40
0
 40
0
 40
0
 40
0
 40
0.0280611086154845
 40
0.0280611086154845
 40
0.060080796290623
 40
0.060080796290623
 40
0.1027430620750846
 40
0.1027430620750846
 40
0.1454295737990318
 40
0.1454295737990318
 40
0.1905436517843627
 40
0.1905436517843627
 40
0.1911808698519868
 40
0.1911808698519868
 40
0.1911808698519868
 40
0.1911808698519868
 10
271.1986272003382
 20
248.0782774303074
 30
0
 10
271.1986272003382
 20
248.0782774303074
 30
0
 10
271.1986323875934
 20
248.0597359903327
 30
0
 10
271.1985848181462
 20
247.9853301109865
 30
0
 10
271.1985193320815
 20
247.9260057646953
 30
0
 10
271.1980657418592
 20
247.757966487787
 30
0
 10
271.1975689380207
 20
247.6402146912146
 30
0
 10
271.1958386564921
 20
247.3870989423405
 30
0
 10
271.1945964987625
 20
247.2500724339487
 30
0
 10
271.1912036654644
 20
246.9626958970001
 30
0
 10
271.1889825444173
 20
246.8099028170014
 30
0
 10
271.1862931736174
 20
246.655943339131
 30
0
 10
271.1862556291385
 20
246.6537989999972
 30
0
 10
271.1862179976444
 20
246.6516546652405
 30
0
  0
LINE
  5
39F
100
AcDbEntity
  8
Sichtbar (ISO)
  6
ByLayer
 62
  256
370
   -1
100
AcDbLine
 10
271.1986272003382
 20
248.0782774303074
 11
268.0166466849987
 21
244.8962969149679
  0
LINE
  5
3A0
100
AcDbEntity
  8
Sichtbar (ISO)
  6
ByLayer
 62
  256
370
   -1
100
AcDbLine
 10
269.6076369426685
 20
207.9499675979707
 11
270.9712608587147
 21
209.8837307033433
  0
LINE
  5
3A1
100
AcDbEntity
  8
Sichtbar (ISO)
  6
ByLayer
 62
  256
370
   -1
100
AcDbLine
 10
269.6076369426685
 20
207.9499675979707
 11
280.0198009300374
 21
213.9154383338085
  0
LINE
  5
3A2
100
AcDbEntity
  8
Sichtbar (ISO)
  6
ByLayer
 62
  256
370
   -1
100
AcDbLine
 10
271.7306312359963
 20
219.7606786362825
 11
269.6076369426685
 21
207.9499675979708
  0
DIMENSION
  5
3A3
100
AcDbEntity
  8
Bemaßung (ISO)
  6
CONTINUOUS
 62
    7
370
   18
100
AcDbDimension
  2
*D12
 10
128.0313473638873
 20
190.4452688413181
 30
0
 11
128.0313473638873
 21
194.445268841318
 31
0
 70
   32
  1
<>
 71
    5
 72
    0
  3
Pauli_DINGroßer Text
 53
0
210
0
220
0
230
1
100
AcDbAlignedDimension
 13
138.0313473638873
 23
198.445268841318
 33
0
 14
138.0313473638873
 24
190.445268841318
 34
0
 50
90
100
AcDbRotatedDimension
  0
DIMENSION
  5
3A4
100
AcDbEntity
  8
Bemaßung (ISO)
  6
CONTINUOUS
 62
    7
370
   18
100
AcDbDimension
  2
*D13
 10
97.37662438646026
 20
183.4452688413178
 30
0
 11
97.37662438646028
 21
194.4452688413179
 31
0
 70
   32
  1
<>
 71
    5
 72
    0
  3
Pauli_DINGroßer Text
 53
0
210
0
220
0
230
1
100
AcDbAlignedDimension
 13
152.7813473638878
 23
205.4452688413179
 33
0
 14
152.7813473638878
 24
183.4452688413178
 34
0
 50
270
100
AcDbRotatedDimension
  0
DIMENSION
  5
3A5
100
AcDbEntity
  8
Bemaßung (ISO)
  6
CONTINUOUS
 62
    7
370
   18
100
AcDbDimension
  2
*D14
 10
220.183764361856
 20
180.0928518433489
 30
0
 11
223.4173321737201
 21
183.3264196552129
 31
0
 70
   32
  1
<>
 71
    5
 72
    0
  3
Pauli_DINGroßer Text
 53
0
210
0
220
0
230
1
100
AcDbAlignedDimension
 13
214.0643992804676
 23
199.1464881721935
 33
0
 14
208.0313473638871
 24
192.2452688413179
 34
0
 50
224.9999999999997
100
AcDbRotatedDimension
  0
DIMENSION
  5
3A6
100
AcDbEntity
  8
Bemaßung (ISO)
  6
CONTINUOUS
 62
    7
370
   18
100
AcDbDimension
  2
*D15
 10
267.8373153492306
 20
263.1017418900432
 30
0
 11
270.6657424739768
 21
260.273314765297
 31
0
 70
   32
  1
<>
 71
    5
 72
    0
  3
Pauli_DINGroßer Text
 53
0
210
0
220
0
230
1
100
AcDbAlignedDimension
 13
267.6630932944076
 23
251.6138113362353
 33
0
 14
262.0062390449152
 24
257.2706655857277
 34
0
 50
315.0000000000003
100
AcDbRotatedDimension
  0
DIMENSION
  5
3A7
100
AcDbEntity
  8
Bemaßung (ISO)
  6
CONTINUOUS
 62
    7
370
   18
100
AcDbDimension
  2
*D16
 10
298.0501949945205
 20
272.1014180997443
 30
0
 11
290.2720204014697
 21
279.8795926927951
 31
0
 70
   32
  1
<>
 71
    5
 72
    0
  3
Pauli_DINGroßer Text
 53
0
210
0
220
0
230
1
100
AcDbAlignedDimension
 13
249.9854237647447
 23
255.1493452421715
 33
0
 14
265.5417729508429
 24
239.5929960560668
 34
0
 50
315.0000000000001
100
AcDbRotatedDimension
  0
DIMENSION
  5
3A8
100
AcDbEntity
  8
Bemaßung (ISO)
  6
CONTINUOUS
 62
    7
370
   18
100
AcDbDimension
  2
*D17
 10
268.9653151793366
 20
274.1292366567636
 30
0
 11
271.4401889134902
 21
271.65436292261
 31
0
 70
   32
  1
<>
 71
    5
 72
    0
  3
Pauli_DINGroßer Text
 53
0
210
0
220
0
230
1
100
AcDbAlignedDimension
 13
262.0062390449152
 23
257.2706655857277
 33
0
 14
249.9854237647447
 24
255.1493452421715
 34
0
 50
135.0000000000001
100
AcDbRotatedDimension
  0
DIMENSION
  5
3A9
100
AcDbEntity
  8
Bemaßung (ISO)
  6
CONTINUOUS
 62
    7
370
   18
100
AcDbDimension
  2
*D18
 10
290.4544235672776
 20
264.5056466725015
 30
0
 11
287.9795498331267
 21
266.9805204066524
 31
0
 70
   32
  1
<>
 71
    5
 72
    0
  3
Pauli_DINGroßer Text
 53
0
210
0
220
0
230
1
100
AcDbAlignedDimension
 13
267.6630932944076
 23
251.6138113362353
 33
0
 14
265.5417729508429
 24
239.5929960560668
 34
0
 50
315.0000000000002
100
AcDbRotatedDimension
  0
DIMENSION
  5
3AA
100
AcDbEntity
  8
Bemaßung (ISO)
  6
CONTINUOUS
 62
    7
370
   18
100
AcDbDimension
  2
*D19
 10
108.1855495081781
 20
190.4452688413181
 30
0
 11
108.1855495081781
 21
186.9452688413179
 31
0
 70
   32
  1
<>
 71
    5
 72
    0
  3
Pauli_DINGroßer Text
 53
0
210
0
220
0
230
1
100
AcDbAlignedDimension
 13
152.7813473638878
 23
183.4452688413178
 33
0
 14
138.0313473638873
 24
190.445268841318
 34
0
 50
90
100
AcDbRotatedDimension
  0
DIMENSION
  5
3AB
100
AcDbEntity
  8
Bemaßung (ISO)
  6
CONTINUOUS
 62
    7
370
   18
100
AcDbDimension
  2
*D20
 10
117.037686461309
 20
205.445268841318
 30
0
 11
117.0376864613091
 21
201.945268841318
 31
0
 70
   32
  1
<>
 71
    5
 72
    0
  3
Pauli_DINGroßer Text
 53
0
210
0
220
0
230
1
100
AcDbAlignedDimension
 13
138.0313473638873
 23
198.4452688413181
 33
0
 14
152.7813473638878
 24
205.4452688413179
 34
0
 50
90
100
AcDbRotatedDimension
  0
LINE
  5
3AC
100
AcDbEntity
  8
Mittelpunktmarkierung (ISO)
  6
CONTINUOUS
 62
  256
370
   -1
100
AcDbLine
 10
219.8087035605508
 20
209.4162758518771
 11
212.2798929750289
 21
201.8874652663551
  0
LINE
  5
3AD
100
AcDbEntity
  8
Mittelpunktmarkierung (ISO)
  6
CONTINUOUS
 62
  256
370
   -1
100
AcDbLine
 10
219.8087035605509
 20
201.8874652663551
 11
212.2798929750289
 21
209.416275851877
  0
DIMENSION
  5
3AE
100
AcDbEntity
  8
Bemaßung (ISO)
  6
CONTINUOUS
 62
    7
370
   18
100
AcDbDimension
  2
*D21
 10
152.7813473638878
 20
173.4452688413179
 30
0
 11
181.0876965499918
 21
173.4452688413179
 31
0
 70
   32
  1
<>
 71
    5
 72
    0
  3
Pauli_DINGroßer Text
 53
0
210
0
220
0
230
1
100
AcDbAlignedDimension
 13
209.3940457360958
 23
183.4452688413179
 33
0
 14
152.7813473638878
 24
183.4452688413178
 34
0
 50
180
100
AcDbRotatedDimension
  0
DIMENSION
  5
3AF
100
AcDbEntity
  8
Bemaßung (ISO)
  6
CONTINUOUS
 62
    7
370
   18
100
AcDbDimension
  2
*D22
 10
222.1219677974536
 20
170.7173467799605
 30
0
 11
250.202902472639
 21
198.7982814551468
 31
0
 70
   32
  1
<>
 71
    5
 72
    0
  3
Pauli_DINGroßer Text
 53
0
210
0
220
0
230
1
100
AcDbAlignedDimension
 13
265.5417729508429
 23
239.5929960560668
 33
0
 14
209.3940457360958
 24
183.4452688413179
 34
0
 50
45.00000000000088
100
AcDbRotatedDimension
  0
LEADER
  5
3B0
100
AcDbEntity
  8
Symbol (ISO)
  6
CONTINUOUS
 62
  179
420
2500185
370
   18
100
AcDbLeader
  3
Standard
 71
    1
 72
    0
 73
    3
 74
    0
 75
    0
 40
1
 41
10
 76
3
 76
3
 10
207.9125702841445
 20
205.2983171685165
 30
0
 10
200.5029984717483
 20
218.0952358715722
 30
0
 10
195.5029984717483
 20
218.0952358715722
 30
0
  0
LINE
  5
3B1
100
AcDbEntity
  8
Sichtbar (ISO)
  6
ByLayer
 62
  256
370
   -1
100
AcDbLine
 10
188.1057471283319
 20
97.68145402653434
 11
191.3275725352799
 21
97.68145402653666
  0
LINE
  5
3B2
100
AcDbEntity
  8
Sichtbar (ISO)
  6
ByLayer
 62
  256
370
   -1
100
AcDbLine
 10
191.3275725352799
 20
71.58145402653666
 11
188.1057471283319
 21
71.58145402653435
  0
LINE
  5
3B3
100
AcDbEntity
  8
Sichtbar (ISO)
  6
ByLayer
 62
  256
370
   -1
100
AcDbLine
 10
188.1057471283319
 20
97.68145402653434
 11
179.6647756202648
 21
97.68145402653187
  0
LINE
  5
3B4
100
AcDbEntity
  8
Sichtbar (ISO)
  6
ByLayer
 62
  256
370
   -1
100
AcDbLine
 10
188.1057471283319
 20
71.58145402653436
 11
179.6647756202648
 21
71.58145402653186
  0
LINE
  5
3B5
100
AcDbEntity
  8
Sichtbar (ISO)
  6
ByLayer
 62
  256
370
   -1
100
AcDbLine
 10
173.6773200035858
 20
116.63145402653
 11
179.6647756202648
 21
116.6314540265318
  0
LINE
  5
3B6
100
AcDbEntity
  8
Sichtbar (ISO)
  6
ByLayer
 62
  256
370
   -1
100
AcDbLine
 10
173.6773200035858
 20
52.63145402653009
 11
173.6773200035858
 21
116.63145402653
  0
LINE
  5
3B7
100
AcDbEntity
  8
Sichtbar (ISO)
  6
ByLayer
 62
  256
370
   -1
100
AcDbLine
 10
173.6773200035858
 20
52.63145402653009
 11
179.6647756202648
 21
52.63145402653186
  0
LINE
  5
3B8
100
AcDbEntity
  8
Sichtbar (ISO)
  6
ByLayer
 62
  256
370
   -1
100
AcDbLine
 10
191.3275725352799
 20
89.33145402653666
 11
191.3275725352799
 21
97.68145402653666
  0
LINE
  5
3B9
100
AcDbEntity
  8
Sichtbar (ISO)
  6
ByLayer
 62
  256
370
   -1
100
AcDbLine
 10
191.3275725352799
 20
71.58145402653666
 11
191.3275725352799
 21
79.93145402653666
  0
LINE
  5
3BA
100
AcDbEntity
  8
Sichtbar (ISO)
  6
ByLayer
 62
  256
370
   -1
100
AcDbLine
 10
191.3275725352799
 20
89.33145402653663
 11
188.1057471283319
 21
89.33145402653435
  0
LINE
  5
3BB
100
AcDbEntity
  8
Sichtbar (ISO)
  6
ByLayer
 62
  256
370
   -1
100
AcDbLine
 10
188.1057471283319
 20
79.93145402653435
 11
191.3275725352799
 21
79.93145402653666
  0
LINE
  5
3BC
100
AcDbEntity
  8
Sichtbar (ISO)
  6
ByLayer
 62
  256
370
   -1
100
AcDbLine
 10
188.1057471283319
 20
79.93145402653435
 11
185.1527825162851
 21
79.93145402653347
  0
LINE
  5
3BD
100
AcDbEntity
  8
Sichtbar (ISO)
  6
ByLayer
 62
  256
370
   -1
100
AcDbLine
 10
185.1527825162851
 20
79.93145402653349
 11
185.1527825162851
 21
89.33145402653346
  0
LINE
  5
3BE
100
AcDbEntity
  8
Sichtbar (ISO)
  6
ByLayer
 62
  256
370
   -1
100
AcDbLine
 10
185.1527825162851
 20
89.33145402653346
 11
188.1057471283319
 21
89.33145402653435
  0
LINE
  5
3BF
100
AcDbEntity
  8
Sichtbar (ISO)
  6
ByLayer
 62
  256
370
   -1
100
AcDbLine
 10
179.6647756202648
 20
71.58145402653187
 11
179.6647756202648
 21
52.63145402653186
  0
LINE
  5
3C0
100
AcDbEntity
  8
Sichtbar (ISO)
  6
ByLayer
 62
  256
370
   -1
100
AcDbLine
 10
179.6647756202648
 20
116.6314540265318
 11
179.6647756202648
 21
97.68145402653184
  0
LINE
  5
3C1
100
AcDbEntity
  8
Sichtbar (ISO)
  6
ByLayer
 62
  256
370
   -1
100
AcDbLine
 10
173.6773200035858
 20
116.63145402653
 11
117.0646216313777
 21
116.63145402653
  0
LINE
  5
3C2
100
AcDbEntity
  8
Sichtbar (ISO)
  6
ByLayer
 62
  256
370
   -1
100
AcDbLine
 10
117.0646216313778
 20
52.6314540265301
 11
173.6773200035858
 21
52.63145402653009
  0
LINE
  5
3C3
100
AcDbEntity
  8
Sichtbar (ISO)
  6
ByLayer
 62
  256
370
   -1
100
AcDbLine
 10
117.0646216313777
 20
116.63145402653
 11
117.0646216313778
 21
52.63145402653009
  0
LINE
  5
3C4
100
AcDbEntity
  8
Sichtbar (ISO)
  6
ByLayer
 62
  256
370
   -1
100
AcDbLine
 10
189.0249859438734
 20
98.281454026539
 11
189.0249859438734
 21
98.38145402653909
  0
LINE
  5
3C5
100
AcDbEntity
  8
Sichtbar (ISO)
  6
ByLayer
 62
  256
370
   -1
100
AcDbLine
 10
189.0249859438734
 20
70.8814540265391
 11
189.0249859438734
 21
70.98145402653901
  0
ELLIPSE
  5
3C6
100
AcDbEntity
  8
Sichtbar (ISO)
  6
ByLayer
 62
  256
370
   -1
100
AcDbEllipse
 10
188.8128539095175
 20
97.98145402654028
 30
0
 11
0.3695518130044344
 21
-0.3695518130045978
 31
0
 40
0.414213562373219
 41
2.026159324077505
 42
2.748893571891415
  0
LINE
  5
3C7
100
AcDbEntity
  8
Sichtbar (ISO)
  6
ByLayer
 62
  256
370
   -1
100
AcDbLine
 10
196.5910285025687
 20
98.38145402653687
 11
196.5910285025687
 21
70.88145402653687
  0
LINE
  5
3C8
100
AcDbEntity
  8
Sichtbar (ISO)
  6
ByLayer
 62
  256
370
   -1
100
AcDbLine
 10
179.6647756202648
 20
70.88145402653251
 11
181.8995902864203
 21
70.88145402653252
  0
LINE
  5
3C9
100
AcDbEntity
  8
Sichtbar (ISO)
  6
ByLayer
 62
  256
370
   -1
100
AcDbLine
 10
196.5910285025687
 20
70.88145402653687
 11
181.8995902864203
 21
70.88145402653252
  0
ELLIPSE
  5
3CA
100
AcDbEntity
  8
Sichtbar (ISO)
  6
ByLayer
 62
  256
370
   -1
100
AcDbEllipse
 10
188.8128539095175
 20
71.28145402654026
 30
0
 11
-0.369551813004501
 21
-0.3695518130044455
 31
0
 40
0.4142135623729703
 41
0.3926990816989217
 42
1.115433329511997
  0
LINE
  5
3CB
100
AcDbEntity
  8
Sichtbar (ISO)
  6
ByLayer
 62
  256
370
   -1
100
AcDbLine
 10
181.8995902864203
 20
52.63145402653252
 11
229.8250472183329
 21
52.63145402654672
  0
LINE
  5
3CC
100
AcDbEntity
  8
Sichtbar (ISO)
  6
ByLayer
 62
  256
370
   -1
100
AcDbLine
 10
181.8995902864203
 20
52.63145402653251
 11
179.6647756202648
 21
52.6314540265325
  0
LINE
  5
3CD
100
AcDbEntity
  8
Sichtbar (ISO)
  6
ByLayer
 62
  256
370
   -1
100
AcDbLine
 10
229.8250472183329
 20
116.6314540265467
 11
229.8250472183329
 21
52.63145402654672
  0
LINE
  5
3CE
100
AcDbEntity
  8
Sichtbar (ISO)
  6
ByLayer
 62
  256
370
   -1
100
AcDbLine
 10
179.6647756202648
 20
116.6314540265325
 11
181.8995902864203
 21
116.6314540265325
  0
LINE
  5
3CF
100
AcDbEntity
  8
Sichtbar (ISO)
  6
ByLayer
 62
  256
370
   -1
100
AcDbLine
 10
229.8250472183329
 20
116.6314540265467
 11
181.8995902864203
 21
116.6314540265325
  0
LINE
  5
3D0
100
AcDbEntity
  8
Sichtbar (ISO)
  6
ByLayer
 62
  256
370
   -1
100
AcDbLine
 10
181.8995902864203
 20
116.6314540265325
 11
181.8995902864203
 21
98.38145402653251
  0
LINE
  5
3D1
100
AcDbEntity
  8
Sichtbar (ISO)
  6
ByLayer
 62
  256
370
   -1
100
AcDbLine
 10
181.8995902864203
 20
70.88145402653252
 11
181.8995902864203
 21
52.63145402653251
  0
LINE
  5
3D2
100
AcDbEntity
  8
Sichtbar (ISO)
  6
ByLayer
 62
  256
370
   -1
100
AcDbLine
 10
181.8995902864203
 20
98.38145402653251
 11
196.5910285025687
 21
98.38145402653687
  0
LINE
  5
3D3
100
AcDbEntity
  8
Sichtbar (ISO)
  6
ByLayer
 62
  256
370
   -1
100
AcDbLine
 10
181.8995902864203
 20
98.38145402653252
 11
179.6647756202648
 21
98.38145402653251
  0
LINE
  5
3D4
100
AcDbEntity
  8
Sichtbar (ISO)
  6
ByLayer
 62
  256
370
   -1
100
AcDbLine
 10
185.1527825162851
 20
89.1314540265337
 11
191.2525725352798
 21
89.13145402653659
  0
LINE
  5
3D5
100
AcDbEntity
  8
Sichtbar (ISO)
  6
ByLayer
 62
  256
370
   -1
100
AcDbLine
 10
191.3275725352798
 20
80.13145402653672
 11
185.1527825162851
 21
80.13145402653377
  0
LINE
  5
3D6
100
AcDbEntity
  8
Sichtbar (ISO)
  6
ByLayer
 62
  256
370
   -1
100
AcDbLine
 10
191.2525725352798
 20
89.13145402653659
 11
191.3275725352798
 21
80.1314540265367
  0
LINE
  5
3D7
100
AcDbEntity
  8
Sichtbar (ISO)
  6
ByLayer
 62
  256
370
   -1
100
AcDbLine
 10
187.8275725352797
 20
71.38145402653666
 11
179.6647756202648
 21
71.38145402653444
  0
LINE
  5
3D8
100
AcDbEntity
  8
Sichtbar (ISO)
  6
ByLayer
 62
  256
370
   -1
100
AcDbLine
 10
187.8275725352797
 20
70.88145402653664
 11
187.8275725352797
 21
71.38145402653666
  0
LINE
  5
3D9
100
AcDbEntity
  8
Sichtbar (ISO)
  6
ByLayer
 62
  256
370
   -1
100
AcDbLine
 10
184.32757253528
 20
97.68145402653708
 11
184.32757253528
 21
97.88145402653709
  0
LINE
  5
3DA
100
AcDbEntity
  8
Sichtbar (ISO)
  6
ByLayer
 62
  256
370
   -1
100
AcDbLine
 10
184.82757253528
 20
71.38145402653623
 11
184.82757253528
 21
71.58145402653625
  0
LINE
  5
3DB
100
AcDbEntity
  8
Sichtbar (ISO)
  6
ByLayer
 62
  256
370
   -1
100
AcDbLine
 10
185.6147025409898
 20
80.1314540265406
 11
185.6147025409898
 21
79.93145402654059
  0
LINE
  5
3DC
100
AcDbEntity
  8
Sichtbar (ISO)
  6
ByLayer
 62
  256
370
   -1
100
AcDbLine
 10
185.6147025409898
 20
89.33145402654056
 11
185.6147025409898
 21
89.13145402654055
  0
LINE
  5
3DD
100
AcDbEntity
  8
Sichtbar (ISO)
  6
ByLayer
 62
  256
370
   -1
100
AcDbLine
 10
191.3263225352798
 20
80.2814540265386
 11
192.2928355015779
 21
80.28145402653841
  0
LINE
  5
3DE
100
AcDbEntity
  8
Sichtbar (ISO)
  6
ByLayer
 62
  256
370
   -1
100
AcDbLine
 10
192.2928355015779
 20
88.98145402653839
 11
191.2538225352797
 21
88.98145402653856
  0
LINE
  5
3DF
100
AcDbEntity
  8
Sichtbar (ISO)
  6
ByLayer
 62
  256
370
   -1
100
AcDbLine
 10
191.2550725352798
 20
88.83145402653825
 11
192.2928355015779
 21
88.83145402653831
  0
LINE
  5
3E0
100
AcDbEntity
  8
Sichtbar (ISO)
  6
ByLayer
 62
  256
370
   -1
100
AcDbLine
 10
192.2928355015779
 20
88.43145402653819
 11
191.2584058686131
 21
88.43145402653815
  0
LINE
  5
3E1
100
AcDbEntity
  8
Sichtbar (ISO)
  6
ByLayer
 62
  256
370
   -1
100
AcDbLine
 10
191.3217392019465
 20
80.83145402653817
 11
192.292835501578
 21
80.83145402653821
  0
LINE
  5
3E2
100
AcDbEntity
  8
Sichtbar (ISO)
  6
ByLayer
 62
  256
370
   -1
100
AcDbLine
 10
192.292835501578
 20
80.43145402653832
 11
191.3250725352798
 21
80.43145402653828
  0
ELLIPSE
  5
3E3
100
AcDbEntity
  8
Sichtbar (ISO)
  6
ByLayer
 62
  256
370
   -1
100
AcDbEllipse
 10
188.401627624987
 20
78.63145402653868
 30
0
 11
-1.2e-015
 21
5.391991091396737
 31
0
 40
0.7216643741862927
 41
4.392744253210846
 42
4.712388980384275
  0
LINE
  5
3E4
100
AcDbEntity
  8
Sichtbar (ISO)
  6
ByLayer
 62
  256
370
   -1
100
AcDbLine
 10
192.0957345969824
 20
76.93713242291362
 11
192.0957345969824
 21
70.98145402653755
  0
LINE
  5
3E5
100
AcDbEntity
  8
Sichtbar (ISO)
  6
ByLayer
 62
  256
370
   -1
100
AcDbLine
 10
195.6010790089078
 20
70.98145402653655
 11
192.0957345969824
 21
70.98145402653755
  0
LINE
  5
3E6
100
AcDbEntity
  8
Sichtbar (ISO)
  6
ByLayer
 62
  256
370
   -1
100
AcDbLine
 10
195.6010790089078
 20
98.28145402653676
 11
195.6010790089078
 21
70.98145402653655
  0
LINE
  5
3E7
100
AcDbEntity
  8
Sichtbar (ISO)
  6
ByLayer
 62
  256
370
   -1
100
AcDbLine
 10
192.0957345969823
 20
98.28145402653777
 11
195.6010790089078
 21
98.28145402653676
  0
LINE
  5
3E8
100
AcDbEntity
  8
Sichtbar (ISO)
  6
ByLayer
 62
  256
370
   -1
100
AcDbLine
 10
192.0957345969823
 20
98.28145402653777
 11
192.0957345969823
 21
92.32577563016171
  0
ELLIPSE
  5
3E9
100
AcDbEntity
  8
Sichtbar (ISO)
  6
ByLayer
 62
  256
370
   -1
100
AcDbEllipse
 10
188.401627624987
 20
90.63145402653876
 30
0
 11
-7.6e-015
 21
5.391991091396738
 31
0
 40
0.7216643741862928
 41
4.712388980384279
 42
5.032033707557828
  0
LINE
  5
3EA
100
AcDbEntity
  8
Sichtbar (ISO)
  6
ByLayer
 62
  256
370
   -1
100
AcDbLine
 10
192.292835501578
 20
78.63145402653755
 11
192.2928355015779
 21
90.63145402653765
  0
LINE
  5
3EB
100
AcDbEntity
  8
Sichtbar (ISO)
  6
ByLayer
 62
  256
370
   -1
100
AcDbLine
 10
192.0957345969824
 20
70.98145402653755
 11
187.8275725352798
 21
70.98145402653898
  0
LINE
  5
3EC
100
AcDbEntity
  8
Sichtbar (ISO)
  6
ByLayer
 62
  256
370
   -1
100
AcDbLine
 10
187.8275725352798
 20
98.28145402653919
 11
192.0957345969823
 21
98.28145402653777
  0
SPLINE
  5
3ED
100
AcDbEntity
  8
Sichtbar (ISO)
  6
ByLayer
 62
  256
370
   -1
100
AcDbSpline
210
0
220
0
230
0
 70
    8
 71
    3
 72
   10
 73
    6
 74
    0
 42
1e-007
 43
1e-007
 40
-0.3979798744360737
 40
-0.3979798744360737
 40
-0.3979798744360737
 40
-0.3979798744360737
 40
-0.2033907006894982
 40
-0.2033907006894982
 40
-0.1661206696013792
 40
-0.1661206696013792
 40
-0.1661206696013792
 40
-0.1661206696013792
 10
191.3275528735575
 20
74.88224309404194
 30
0
 10
191.6116725374777
 20
75.35005442408435
 30
0
 10
191.85175336949
 20
75.93180071689073
 30
0
 10
192.0427492473247
 20
76.68870242433104
 30
0
 10
192.0706719920138
 20
76.8122556917054
 30
0
 10
192.0957345969824
 20
76.93713242291362
 30
0
  0
LINE
  5
3EE
100
AcDbEntity
  8
Sichtbar (ISO)
  6
ByLayer
 62
  256
370
   -1
100
AcDbLine
 10
196.0253430776197
 20
70.98145402653668
 11
195.6010790089078
 21
70.98145402653655
  0
LINE
  5
3EF
100
AcDbEntity
  8
Sichtbar (ISO)
  6
ByLayer
 62
  256
370
   -1
100
AcDbLine
 10
196.2374751119756
 20
71.28145402653675
 11
196.2374751119756
 21
97.98145402653697
  0
LINE
  5
3F0
100
AcDbEntity
  8
Sichtbar (ISO)
  6
ByLayer
 62
  256
370
   -1
100
AcDbLine
 10
196.0253430776197
 20
98.28145402653689
 11
195.6010790089078
 21
98.28145402653676
  0
ELLIPSE
  5
3F1
100
AcDbEntity
  8
Sichtbar (ISO)
  6
ByLayer
 62
  256
370
   -1
100
AcDbEllipse
 10
196.0253430776197
 20
71.28145402653668
 30
0
 11
3e-015
 21
-0.2999999999999981
 31
0
 40
0.7071067811865374
 41
0
 42
1.570796326795363
  0
ELLIPSE
  5
3F2
100
AcDbEntity
  8
Sichtbar (ISO)
  6
ByLayer
 62
  256
370
   -1
100
AcDbEllipse
 10
196.0253430776197
 20
97.98145402653689
 30
0
 11
-3e-015
 21
0.2999999999999981
 31
0
 40
0.7071067811865374
 41
4.712388980384445
 42
6.283185307178636
  0
LINE
  5
3F3
100
AcDbEntity
  8
Sichtbar (ISO)
  6
ByLayer
 62
  256
370
   -1
100
AcDbLine
 10
179.6647756202648
 20
97.88145402653443
 11
187.8275725352799
 21
97.88145402653666
  0
LINE
  5
3F4
100
AcDbEntity
  8
Sichtbar (ISO)
  6
ByLayer
 62
  256
370
   -1
100
AcDbLine
 10
187.8275725352798
 20
98.38145402653664
 11
187.8275725352798
 21
97.88145402653666
  0
MTEXT
  5
3F5
100
AcDbEntity
  8
Symbol (ISO)
  6
ByLayer
 62
  256
370
   -1
100
AcDbMText
 10
192.4776369069934
 20
325.8314883650371
 30
0
 40
4.000000059604644
 41
26.55555550681996
 71
    7
 72
    1
  1
D ( 1 : 1 )
  7
bezeichnungstext (din)
210
0
220
0
230
1
 50
0
 73
    1
 44
1
  0
INSERT
  5
3F6
100
AcDbEntity
  8
Schnittlinie (ISO)
  6
ByLayer
 62
  256
370
   -1
100
AcDbBlockReference
  2
2DTransSchnitt0
 10
0
 20
0
 30
0
 41
1
 42
1
 43
0
 50
0
 70
    1
 71
    1
 44
0
 45
0
  0
DIMENSION
  5
3F7
100
AcDbEntity
  8
Bemaßung (ISO)
  6
CONTINUOUS
 62
    7
370
   18
100
AcDbDimension
  2
*D24
 10
107.0646216313778
 20
52.63145402653012
 30
0
 11
107.0646216313777
 21
84.62145402653009
 31
0
 70
   32
  1
<>
 71
    5
 72
    0
  3
Pauli_DINGroßer Text
 53
0
210
0
220
0
230
1
100
AcDbAlignedDimension
 13
117.0646216313778
 23
116.6314540265301
 33
0
 14
117.0646216313778
 24
52.6314540265301
 34
0
 50
90
100
AcDbRotatedDimension
  0
LINE
  5
3F8
100
AcDbEntity
  8
Sichtbar (ISO)
  6
ByLayer
 62
  256
370
   -1
100
AcDbLine
 10
74.00632852697802
 20
100.64115991992
 11
42.36330006888177
 21
118.9102709181769
  0
LINE
  5
3F9
100
AcDbEntity
  8
Sichtbar (ISO)
  6
ByLayer
 62
  256
370
   -1
100
AcDbLine
 10
77.89541582350357
 20
102.886525517471
 11
44.49624849436953
 21
122.1695437656559
  0
ENDSEC
  0
SECTION
  2
OBJECTS
  0
DICTIONARY
  5
C
330
0
100
AcDbDictionary
281
    1
  3
ACAD_GROUP
350
D
  0
DICTIONARY
  5
D
330
C
100
AcDbDictionary
281
    1
  0
ENDSEC
  0
EOF
