999
dxfrw 0.6.3
  0
SECTION
  2
HEADER
  9
$ACADVER
  1
AC1021
  9
$DWGCODEPAGE
  3
ANSI_1252
  9
$INSBASE
 10
0
 20
0
 30
0
  9
$EXTMIN
 10
-70.37300050013017
 20
0
 30
0
  9
$EXTMAX
 10
465.9465507000177
 20
290.5086692447634
 30
0
  9
$LIMMIN
 10
0
 20
0
  9
$LIMMAX
 10
420
 20
297
  9
$ORTHOMODE
 70
    0
  9
$REGENMODE
 70
    1
  9
$FILLMODE
 70
    1
  9
$QTEXTMODE
 70
    0
  9
$MIRRTEXT
 70
    0
  9
$LTSCALE
 40
1
  9
$ATTMODE
 70
    1
  9
$TEXTSIZE
 40
0.2
  9
$TRACEWID
 40
0.05
  9
$TEXTSTYLE
  7
Standard
  9
$CLAYER
  8
0
  9
$CELTYPE
  6
ByLayer
  9
$CECOLOR
 62
  256
  9
$CELTSCALE
 40
1
  9
$DISPSILH
 70
    0
  9
$DIMSCALE
 40
1
  9
$DIMASZ
 40
0.18
  9
$DIMEXO
 40
0.0625
  9
$DIMDLI
 40
0.38
  9
$DIMRND
 40
0
  9
$DIMDLE
 40
0
  9
$DIMEXE
 40
0.18
  9
$DIMTP
 40
0
  9
$DIMTM
 40
0
  9
$DIMTXT
 40
0.18
  9
$DIMCEN
 40
0.09
  9
$DIMTSZ
 40
0
  9
$DIMTOL
 70
    0
  9
$DIMLIM
 70
    0
  9
$DIMTIH
 70
    1
  9
$DIMTOH
 70
    1
  9
$DIMSE1
 70
    0
  9
$DIMSE2
 70
    0
  9
$DIMTAD
 70
    0
  9
$DIMZIN
 70
    0
  9
$DIMBLK
  1

  9
$DIMASO
 70
    1
  9
$DIMSHO
 70
    1
  9
$DIMPOST
  1

  9
$DIMAPOST
  1

  9
$DIMALT
 70
    0
  9
$DIMALTD
 70
    2
  9
$DIMALTF
 40
25.4
  9
$DIMLFAC
 40
1
  9
$DIMTOFL
 70
    0
  9
$DIMTVP
 40
0
  9
$DIMTIX
 70
    0
  9
$DIMSOXD
 70
    0
  9
$DIMSAH
 70
    0
  9
$DIMBLK1
  1

  9
$DIMBLK2
  1

  9
$DIMSTYLE
  2
Standard
  9
$DIMCLRD
 70
    0
  9
$DIMCLRE
 70
    0
  9
$DIMCLRT
 70
    0
  9
$DIMTFAC
 40
1
  9
$DIMGAP
 40
0.09
  9
$DIMJUST
 70
    0
  9
$DIMSD1
 70
    0
  9
$DIMSD2
 70
    0
  9
$DIMTOLJ
 70
    1
  9
$DIMTZIN
 70
    0
  9
$DIMALTZ
 70
    0
  9
$DIMALTTZ
 70
    0
  9
$DIMUPT
 70
    0
  9
$DIMDEC
 70
    4
  9
$DIMTDEC
 70
    4
  9
$DIMALTU
 70
    2
  9
$DIMALTTD
 70
    2
  9
$DIMTXSTY
  7
Standard
  9
$DIMAUNIT
 70
    0
  9
$DIMADEC
 70
    0
  9
$DIMALTRND
 40
0
  9
$DIMAZIN
 70
    0
  9
$DIMDSEP
 70
   46
  9
$DIMATFIT
 70
    3
  9
$DIMFRAC
 70
    0
  9
$DIMLDRBLK
  1

  9
$DIMLUNIT
 70
    2
  9
$DIMLWD
 70
   -2
  9
$DIMLWE
 70
   -2
  9
$DIMTMOVE
 70
    0
  9
$DIMFXL
 40
1
  9
$DIMFXLON
 70
    0
  9
$DIMJOGANG
 40
0.7853981633974483
  9
$DIMTFILL
 70
    0
  9
$DIMTFILLCLR
 70
    0
  9
$DIMARCSYM
 70
    0
  9
$DIMLTYPE
  6

  9
$DIMLTEX1
  6

  9
$DIMLTEX2
  6

  9
$LUNITS
 70
    2
  9
$LUPREC
 70
    4
  9
$SKETCHINC
 40
0.1
  9
$FILLETRAD
 40
0
  9
$AUNITS
 70
    0
  9
$AUPREC
 70
    0
  9
$MENU
  1
.
  9
$ELEVATION
 40
0
  9
$PELEVATION
 40
0
  9
$THICKNESS
 40
0
  9
$LIMCHECK
 70
    0
  9
$CHAMFERA
 40
0
  9
$CHAMFERB
 40
0
  9
$CHAMFERC
 40
0
  9
$CHAMFERD
 40
0
  9
$SKPOLY
 70
    0
  9
$USRTIMER
 70
    1
  9
$ANGBASE
 50
0
  9
$ANGDIR
 70
    0
  9
$PDMODE
 70
    0
  9
$PDSIZE
 40
0
  9
$PLINEWID
 40
0
  9
$SPLFRAME
 70
    0
  9
$SPLINETYPE
 70
    6
  9
$SPLINESEGS
 70
    8
  9
$HANDSEED
  5
20000
  9
$SURFTAB1
 70
    6
  9
$SURFTAB2
 70
    6
  9
$SURFTYPE
 70
    6
  9
$SURFU
 70
    6
  9
$SURFV
 70
    6
  9
$UCSBASE
  2

  9
$UCSNAME
  2

  9
$UCSORG
 10
0
 20
0
 30
0
  9
$UCSXDIR
 10
1
 20
0
 30
0
  9
$UCSYDIR
 10
0
 20
1
 30
0
  9
$UCSORTHOREF
  2

  9
$UCSORTHOVIEW
 70
    0
  9
$UCSORGTOP
 10
0
 20
0
 30
0
  9
$UCSORGBOTTOM
 10
0
 20
0
 30
0
  9
$UCSORGLEFT
 10
0
 20
0
 30
0
  9
$UCSORGRIGHT
 10
0
 20
0
 30
0
  9
$UCSORGFRONT
 10
0
 20
0
 30
0
  9
$UCSORGBACK
 10
0
 20
0
 30
0
  9
$PUCSBASE
  2

  9
$PUCSNAME
  2

  9
$PUCSORG
 10
0
 20
0
 30
0
  9
$PUCSXDIR
 10
1
 20
0
 30
0
  9
$PUCSYDIR
 10
0
 20
1
 30
0
  9
$PUCSORTHOREF
  2

  9
$PUCSORTHOVIEW
 70
    0
  9
$PUCSORGTOP
 10
0
 20
0
 30
0
  9
$PUCSORGBOTTOM
 10
0
 20
0
 30
0
  9
$PUCSORGLEFT
 10
0
 20
0
 30
0
  9
$PUCSORGRIGHT
 10
0
 20
0
 30
0
  9
$PUCSORGFRONT
 10
0
 20
0
 30
0
  9
$PUCSORGBACK
 10
0
 20
0
 30
0
  9
$USERI1
 70
    0
  9
$USERI2
 70
    0
  9
$USERI3
 70
    0
  9
$USERI4
 70
    0
  9
$USERI5
 70
    0
  9
$USERR1
 40
0
  9
$USERR2
 40
0
  9
$USERR3
 40
0
  9
$USERR4
 40
0
  9
$USERR5
 40
0
  9
$WORLDVIEW
 70
    1
  9
$SHADEDGE
 70
    3
  9
$SHADEDIF
 70
   70
  9
$TILEMODE
 70
    1
  9
$MAXACTVP
 70
   64
  9
$PINSBASE
 10
69.25665936513306
 20
44.85137613143885
 30
0
  9
$PLIMCHECK
 70
    0
  9
$PEXTMIN
 10
0
 20
0
 30
0
  9
$PEXTMAX
 10
420
 20
297
 30
0
  9
$GRIDMODE
 70
    0
  9
$SNAPSTYLE
 70
    0
  9
$PLIMMIN
 10
0
 20
0
  9
$PLIMMAX
 10
420
 20
297
  9
$UNITMODE
 70
    0
  9
$VISRETAIN
 70
    1
  9
$PLINEGEN
 70
    0
  9
$PSLTSCALE
 70
    1
  9
$TREEDEPTH
 70
 3020
  9
$CMLSTYLE
  2
Standard
  9
$CMLJUST
 70
    0
  9
$CMLSCALE
 40
1
  9
$PROXYGRAPHICS
 70
    1
  9
$MEASUREMENT
 70
    1
  9
$CELWEIGHT
370
   -1
  9
$ENDCAPS
280
    0
  9
$JOINSTYLE
280
    0
  9
$LWDISPLAY
290
    0
  9
$INSUNITS
 70
    4
  9
$HYPERLINKBASE
  1

  9
$STYLESHEET
  1

  9
$XEDIT
290
    1
  9
$CEPSNTYPE
380
    0
  9
$PSTYLEMODE
290
    1
  9
$EXTNAMES
290
    1
  9
$PSVPSCALE
 40
0.7365017639217246
  9
$OLESTARTUP
290
    0
  9
$SORTENTS
280
  127
  9
$INDEXCTL
280
    0
  9
$HIDETEXT
280
    1
  9
$XCLIPFRAME
290
    2
  9
$HALOGAP
280
    0
  9
$OBSCOLOR
 70
  257
  9
$OBSLTYPE
280
    0
  9
$INTERSECTIONDISPLAY
280
    0
  9
$INTERSECTIONCOLOR
 70
  257
  9
$DIMASSOC
280
    1
  9
$PROJECTNAME
  1

  9
$CAMERADISPLAY
290
    0
  9
$LENSLENGTH
 40
50
  9
$CAMERAHEIGHT
 40
0
  9
$STEPSPERSEC
 40
2
  9
$STEPSIZE
 40
6
  9
$3DDWFPREC
 40
2
  9
$PSOLWIDTH
 40
0.25
  9
$PSOLHEIGHT
 40
4
  9
$LOFTANG1
 40
1.570796326794896
  9
$LOFTANG2
 40
1.570796326794896
  9
$LOFTMAG1
 40
0
  9
$LOFTMAG2
 40
0
  9
$LOFTPARAM
 70
    7
  9
$LOFTNORMALS
280
    1
  9
$LATITUDE
 40
37.795
  9
$LONGITUDE
 40
-122.394
  9
$NORTHDIRECTION
 40
0
  9
$TIMEZONE
 70
-8000
  9
$LIGHTGLYPHDISPLAY
280
    1
  9
$TILEMODELIGHTSYNCH
280
    1
  9
$SOLIDHIST
280
    0
  9
$SHOWHIST
280
    1
  9
$DWFFRAME
280
    2
  9
$DGNFRAME
280
    0
  9
$REALWORLDSCALE
290
    1
  9
$INTERFERECOLOR
 62
    1
  9
$CSHADOW
280
    0
  9
$SHADOWPLANELOCATION
 40
0
  0
ENDSEC
  0
SECTION
  2
CLASSES
  0
ENDSEC
  0
SECTION
  2
TABLES
  0
TABLE
  2
VPORT
  5
8
330
0
100
AcDbSymbolTable
 70
    1
  0
VPORT
  5
31
330
2
100
AcDbSymbolTableRecord
100
AcDbViewportTableRecord
  2
*ACTIVE
 70
    0
 10
0
 20
0
 11
1
 21
1
 12
295.6769840802522
 22
150.5264646226739
 13
0
 23
0
 14
10
 24
10
 15
10
 25
10
 16
0
 26
0
 36
1
 17
0
 27
0
 37
0
 40
337.6890000000726
 41
2.200471698113208
 42
50
 43
0
 44
0
 50
0
 51
0
 71
    0
 72
  100
 73
    1
 74
    3
 75
    0
 76
    0
 77
    0
 78
    0
281
    0
 65
    1
110
0
120
0
130
0
111
1
121
0
131
0
112
0
122
1
132
0
 79
    0
146
0
348
10020
 60
    7
 61
    5
292
1
282
    1
141
0
142
0
 63
  250
421
3358443
  0
ENDTAB
  0
TABLE
  2
LTYPE
  5
5
330
0
100
AcDbSymbolTable
 70
    4
  0
LTYPE
  5
14
330
5
100
AcDbSymbolTableRecord
100
AcDbLinetypeTableRecord
  2
ByBlock
 70
    0
  3

 72
   65
 73
    0
 40
0
  0
LTYPE
  5
15
330
5
100
AcDbSymbolTableRecord
100
AcDbLinetypeTableRecord
  2
ByLayer
 70
    0
  3

 72
   65
 73
    0
 40
0
  0
LTYPE
  5
16
330
5
100
AcDbSymbolTableRecord
100
AcDbLinetypeTableRecord
  2
Continuous
 70
    0
  3
Solid line
 72
   65
 73
    0
 40
0
  0
LTYPE
  5
32
330
5
100
AcDbSymbolTableRecord
100
AcDbLinetypeTableRecord
  2
DOT
 70
    0
  3
Dot . . . . . . . . . . . . . . . . . . . . . .
 72
   65
 73
    2
 40
6.35
 49
0
 74
    0
 49
-6.35
 74
    0
  0
LTYPE
  5
33
330
5
100
AcDbSymbolTableRecord
100
AcDbLinetypeTableRecord
  2
DOTTINY
 70
    0
  3
Dot (.15x) .....................................
 72
   65
 73
    2
 40
0.9525
 49
0
 74
    0
 49
-0.9525
 74
    0
  0
LTYPE
  5
34
330
5
100
AcDbSymbolTableRecord
100
AcDbLinetypeTableRecord
  2
DOT2
 70
    0
  3
Dot (.5x) .....................................
 72
   65
 73
    2
 40
3.175
 49
0
 74
    0
 49
-3.175
 74
    0
  0
LTYPE
  5
35
330
5
100
AcDbSymbolTableRecord
100
AcDbLinetypeTableRecord
  2
DOTX2
 70
    0
  3
Dot (2x) .  .  .  .  .  .  .  .  .  .  .  .  .
 72
   65
 73
    2
 40
12.7
 49
0
 74
    0
 49
-12.7
 74
    0
  0
LTYPE
  5
36
330
5
100
AcDbSymbolTableRecord
100
AcDbLinetypeTableRecord
  2
DASHED
 70
    0
  3
Dashed _ _ _ _ _ _ _ _ _ _ _ _ _ _ _ _ _
 72
   65
 73
    2
 40
19.05
 49
12.7
 74
    0
 49
-6.35
 74
    0
  0
LTYPE
  5
37
330
5
100
AcDbSymbolTableRecord
100
AcDbLinetypeTableRecord
  2
DASHEDTINY
 70
    0
  3
Dashed (.15x) _ _ _ _ _ _ _ _ _ _ _ _ _ _ _ _ _
 72
   65
 73
    2
 40
2.8575
 49
1.905
 74
    0
 49
-0.9525
 74
    0
  0
LTYPE
  5
38
330
5
100
AcDbSymbolTableRecord
100
AcDbLinetypeTableRecord
  2
DASHED2
 70
    0
  3
Dashed (.5x) _ _ _ _ _ _ _ _ _ _ _ _ _ _ _ _ _
 72
   65
 73
    2
 40
9.524999999999999
 49
6.35
 74
    0
 49
-3.175
 74
    0
  0
LTYPE
  5
39
330
5
100
AcDbSymbolTableRecord
100
AcDbLinetypeTableRecord
  2
DASHEDX2
 70
    0
  3
Dashed (2x) ____  ____  ____  ____  ____  ___
 72
   65
 73
    2
 40
38.09999999999999
 49
25.4
 74
    0
 49
-12.7
 74
    0
  0
LTYPE
  5
3A
330
5
100
AcDbSymbolTableRecord
100
AcDbLinetypeTableRecord
  2
DASHDOT
 70
    0
  3
Dash dot __ . __ . __ . __ . __ . __ . __ . __
 72
   65
 73
    4
 40
25.4
 49
12.7
 74
    0
 49
-6.35
 74
    0
 49
0
 74
    0
 49
-6.35
 74
    0
  0
LTYPE
  5
3B
330
5
100
AcDbSymbolTableRecord
100
AcDbLinetypeTableRecord
  2
DASHDOTTINY
 70
    0
  3
Dash dot (.15x) _._._._._._._._._._._._._._._.
 72
   65
 73
    4
 40
3.81
 49
1.905
 74
    0
 49
-0.9525
 74
    0
 49
0
 74
    0
 49
-0.9525
 74
    0
  0
LTYPE
  5
3C
330
5
100
AcDbSymbolTableRecord
100
AcDbLinetypeTableRecord
  2
DASHDOT2
 70
    0
  3
Dash dot (.5x) _._._._._._._._._._._._._._._.
 72
   65
 73
    4
 40
12.7
 49
6.35
 74
    0
 49
-3.175
 74
    0
 49
0
 74
    0
 49
-3.175
 74
    0
  0
LTYPE
  5
3D
330
5
100
AcDbSymbolTableRecord
100
AcDbLinetypeTableRecord
  2
DASHDOTX2
 70
    0
  3
Dash dot (2x) ____  .  ____  .  ____  .  ___
 72
   65
 73
    4
 40
50.8
 49
25.4
 74
    0
 49
-12.7
 74
    0
 49
0
 74
    0
 49
-12.7
 74
    0
  0
LTYPE
  5
3E
330
5
100
AcDbSymbolTableRecord
100
AcDbLinetypeTableRecord
  2
DIVIDE
 70
    0
  3
Divide ____ . . ____ . . ____ . . ____ . . ____
 72
   65
 73
    6
 40
31.75
 49
12.7
 74
    0
 49
-6.35
 74
    0
 49
0
 74
    0
 49
-6.35
 74
    0
 49
0
 74
    0
 49
-6.35
 74
    0
  0
LTYPE
  5
3F
330
5
100
AcDbSymbolTableRecord
100
AcDbLinetypeTableRecord
  2
DIVIDETINY
 70
    0
  3
Divide (.15x) __..__..__..__..__..__..__..__.._
 72
   65
 73
    6
 40
4.7625
 49
1.905
 74
    0
 49
-0.9525
 74
    0
 49
0
 74
    0
 49
-0.9525
 74
    0
 49
0
 74
    0
 49
-0.9525
 74
    0
  0
LTYPE
  5
40
330
5
100
AcDbSymbolTableRecord
100
AcDbLinetypeTableRecord
  2
DIVIDE2
 70
    0
  3
Divide (.5x) __..__..__..__..__..__..__..__.._
 72
   65
 73
    6
 40
15.875
 49
6.35
 74
    0
 49
-3.175
 74
    0
 49
0
 74
    0
 49
-3.175
 74
    0
 49
0
 74
    0
 49
-3.175
 74
    0
  0
LTYPE
  5
41
330
5
100
AcDbSymbolTableRecord
100
AcDbLinetypeTableRecord
  2
DIVIDEX2
 70
    0
  3
Divide (2x) ________  .  .  ________  .  .  _
 72
   65
 73
    6
 40
63.5
 49
25.4
 74
    0
 49
-12.7
 74
    0
 49
0
 74
    0
 49
-12.7
 74
    0
 49
0
 74
    0
 49
-12.7
 74
    0
  0
LTYPE
  5
42
330
5
100
AcDbSymbolTableRecord
100
AcDbLinetypeTableRecord
  2
BORDER
 70
    0
  3
Border __ __ . __ __ . __ __ . __ __ . __ __ .
 72
   65
 73
    6
 40
44.45
 49
12.7
 74
    0
 49
-6.35
 74
    0
 49
12.7
 74
    0
 49
-6.35
 74
    0
 49
0
 74
    0
 49
-6.35
 74
    0
  0
LTYPE
  5
43
330
5
100
AcDbSymbolTableRecord
100
AcDbLinetypeTableRecord
  2
BORDERTINY
 70
    0
  3
Border (.15x) __.__.__.__.__.__.__.__.__.__.__.
 72
   65
 73
    6
 40
6.6675
 49
1.905
 74
    0
 49
-0.9525
 74
    0
 49
1.905
 74
    0
 49
-0.9525
 74
    0
 49
0
 74
    0
 49
-0.9525
 74
    0
  0
LTYPE
  5
44
330
5
100
AcDbSymbolTableRecord
100
AcDbLinetypeTableRecord
  2
BORDER2
 70
    0
  3
Border (.5x) __.__.__.__.__.__.__.__.__.__.__.
 72
   65
 73
    6
 40
22.225
 49
6.35
 74
    0
 49
-3.175
 74
    0
 49
6.35
 74
    0
 49
-3.175
 74
    0
 49
0
 74
    0
 49
-3.175
 74
    0
  0
LTYPE
  5
45
330
5
100
AcDbSymbolTableRecord
100
AcDbLinetypeTableRecord
  2
BORDERX2
 70
    0
  3
Border (2x) ____  ____  .  ____  ____  .  ___
 72
   65
 73
    6
 40
88.89999999999999
 49
25.4
 74
    0
 49
-12.7
 74
    0
 49
25.4
 74
    0
 49
-12.7
 74
    0
 49
0
 74
    0
 49
-12.7
 74
    0
  0
LTYPE
  5
46
330
5
100
AcDbSymbolTableRecord
100
AcDbLinetypeTableRecord
  2
CENTER
 70
    0
  3
Center ____ _ ____ _ ____ _ ____ _ ____ _ ____
 72
   65
 73
    4
 40
50.8
 49
31.75
 74
    0
 49
-6.35
 74
    0
 49
6.35
 74
    0
 49
-6.35
 74
    0
  0
LTYPE
  5
47
330
5
100
AcDbSymbolTableRecord
100
AcDbLinetypeTableRecord
  2
CENTERTINY
 70
    0
  3
Center (.15x) ___ _ ___ _ ___ _ ___ _ ___ _ ___
 72
   65
 73
    4
 40
7.62
 49
4.7625
 74
    0
 49
-0.9525
 74
    0
 49
0.9525
 74
    0
 49
-0.9525
 74
    0
  0
LTYPE
  5
48
330
5
100
AcDbSymbolTableRecord
100
AcDbLinetypeTableRecord
  2
CENTER2
 70
    0
  3
Center (.5x) ___ _ ___ _ ___ _ ___ _ ___ _ ___
 72
   65
 73
    4
 40
28.575
 49
19.05
 74
    0
 49
-3.175
 74
    0
 49
3.175
 74
    0
 49
-3.175
 74
    0
  0
LTYPE
  5
49
330
5
100
AcDbSymbolTableRecord
100
AcDbLinetypeTableRecord
  2
CENTERX2
 70
    0
  3
Center (2x) ________  __  ________  __  _____
 72
   65
 73
    4
 40
101.6
 49
63.5
 74
    0
 49
-12.7
 74
    0
 49
12.7
 74
    0
 49
-12.7
 74
    0
  0
ENDTAB
  0
TABLE
  2
LAYER
  5
2
330
0
100
AcDbSymbolTable
 70
    1
  0
LAYER
  5
10
330
2
100
AcDbSymbolTableRecord
100
AcDbLayerTableRecord
  2
0
 70
    0
 62
    7
  6
CONTINUOUS
370
   -3
390
F
  0
LAYER
  5
4A
330
2
100
AcDbSymbolTableRecord
100
AcDbLayerTableRecord
  2
Bemaßung (ISO)
 70
    0
 62
    7
  6
CONTINUOUS
370
    9
390
F
  0
LAYER
  5
4B
330
2
100
AcDbSymbolTableRecord
100
AcDbLayerTableRecord
  2
Defpoints
 70
    0
 62
    7
  6
CONTINUOUS
290
0
370
   -3
390
F
  0
LAYER
  5
4C
330
2
100
AcDbSymbolTableRecord
100
AcDbLayerTableRecord
  2
Mittelpunktmarkierung (ISO)
 70
    0
 62
    1
  6
CONTINUOUS
370
    9
390
F
  0
LAYER
  5
4D
330
2
100
AcDbSymbolTableRecord
100
AcDbLayerTableRecord
  2
Schnittlinie (ISO)
 70
    0
 62
    5
  6
CONTINUOUS
370
   50
390
F
  0
LAYER
  5
4E
330
2
100
AcDbSymbolTableRecord
100
AcDbLayerTableRecord
  2
Schraffur
 70
    0
 62
    1
  6
CONTINUOUS
370
    9
390
F
  0
LAYER
  5
4F
330
2
100
AcDbSymbolTableRecord
100
AcDbLayerTableRecord
  2
Schraffur (ISO)
 70
    0
 62
    6
  6
CONTINUOUS
370
    9
390
F
  0
LAYER
  5
50
330
2
100
AcDbSymbolTableRecord
100
AcDbLayerTableRecord
  2
Sichtbar (ISO)
 70
    0
 62
    7
  6
CONTINUOUS
370
   25
390
F
  0
LAYER
  5
51
330
2
100
AcDbSymbolTableRecord
100
AcDbLayerTableRecord
  2
Skizziergeometrie (ISO)
 70
    0
 62
    7
  6
CONTINUOUS
370
   18
390
F
  0
LAYER
  5
52
330
2
100
AcDbSymbolTableRecord
100
AcDbLayerTableRecord
  2
Skizziergeometrie(DIN)
 70
    0
 62
  179
420
2500185
  6
CONTINUOUS
370
   35
390
F
  0
LAYER
  5
53
330
2
100
AcDbSymbolTableRecord
100
AcDbLayerTableRecord
  2
Symbol (ISO)
 70
    0
 62
    5
  6
CONTINUOUS
370
    9
390
F
  0
LAYER
  5
54
330
2
100
AcDbSymbolTableRecord
100
AcDbLayerTableRecord
  2
Symbole(DIN)
 70
    0
 62
    7
  6
CONTINUOUS
370
   18
390
F
  0
LAYER
  5
55
330
2
100
AcDbSymbolTableRecord
100
AcDbLayerTableRecord
  2
Verdeckt (ISO)
 70
    0
 62
    1
  6
CONTINUOUS
370
    9
390
F
  0
ENDTAB
  0
TABLE
  2
STYLE
  5
3
330
0
100
AcDbSymbolTable
 70
    3
  0
STYLE
  5
56
330
2
100
AcDbSymbolTableRecord
100
AcDbTextStyleTableRecord
  2
bezeichnungstext (din)
 70
    0
 40
0
 41
1
 50
0
 71
    0
 42
1
  3
bezeichnungstext (din)
  4

  0
STYLE
  5
57
330
2
100
AcDbSymbolTableRecord
100
AcDbTextStyleTableRecord
  2
aktuell-din
 70
    0
 40
0
 41
1
 50
0
 71
    0
 42
1
  3
aktuell-din
  4

  0
STYLE
  5
58
330
2
100
AcDbSymbolTableRecord
100
AcDbTextStyleTableRecord
  2
notiztext (din)
 70
    0
 40
0
 41
1
 50
0
 71
    0
 42
1
  3
notiztext (din)
  4

  0
STYLE
  5
59
330
2
100
AcDbSymbolTableRecord
100
AcDbTextStyleTableRecord
  2
Standard
 70
    0
 40
0
 41
1
 50
0
 71
    0
 42
1
  3
txt
  4

  0
ENDTAB
  0
TABLE
  2
VIEW
  5
6
330
0
100
AcDbSymbolTable
 70
    0
  0
ENDTAB
  0
TABLE
  2
UCS
  5
7
330
0
100
AcDbSymbolTable
 70
    0
  0
ENDTAB
  0
TABLE
  2
APPID
  5
9
330
0
100
AcDbSymbolTable
 70
    1
  0
APPID
  5
12
330
9
100
AcDbSymbolTableRecord
100
AcDbRegAppTableRecord
  2
ACAD
 70
    0
  0
APPID
  5
5A
330
9
100
AcDbSymbolTableRecord
100
AcDbRegAppTableRecord
  2
LibreCad
 70
    0
  0
ENDTAB
  0
TABLE
  2
DIMSTYLE
  5
A
330
0
100
AcDbSymbolTable
 70
    1
100
AcDbDimStyleTable
 71
    1
  0
DIMSTYLE
105
5B
330
A
100
AcDbSymbolTableRecord
100
AcDbDimStyleTableRecord
  2
Standard
 70
    0
 40
1
 41
0.18
 42
0.0625
 43
0.38
 44
0.18
 45
0
 46
0
 47
0
 48
0
 49
1
140
0.18
141
0.09
142
0
143
25.4
144
1
145
0
146
1
147
0.09
148
0
 71
    0
 72
    0
 73
    1
 74
    1
 75
    0
 76
    0
 77
    0
 78
    0
 79
    0
170
    0
171
    2
172
    0
173
    0
174
    0
175
    0
176
    0
177
    0
178
    0
179
    0
271
    4
272
    4
273
    2
274
    2
275
    0
276
    0
277
    2
278
   46
279
    0
280
    0
281
    0
282
    0
283
    1
284
    0
285
    0
286
    0
288
    0
289
    3
340
Standard
341

371
   -2
372
   -2
  0
ENDTAB
  0
TABLE
  2
BLOCK_RECORD
  5
1
330
0
100
AcDbSymbolTable
 70
    2
  0
BLOCK_RECORD
  5
1F
330
1
100
AcDbSymbolTableRecord
100
AcDbBlockTableRecord
  2
*Model_Space
 70
    0
280
    1
281
    0
  0
BLOCK_RECORD
  5
1E
330
1
100
AcDbSymbolTableRecord
100
AcDbBlockTableRecord
  2
*Paper_Space
 70
    0
280
    1
281
    0
  0
BLOCK_RECORD
  5
5C
330
1
100
AcDbSymbolTableRecord
100
AcDbBlockTableRecord
  2
*D14
 70
    0
280
    1
281
    0
  0
BLOCK_RECORD
  5
5F
330
1
100
AcDbSymbolTableRecord
100
AcDbBlockTableRecord
  2
*D3
 70
    0
280
    1
281
    0
  0
BLOCK_RECORD
  5
62
330
1
100
AcDbSymbolTableRecord
100
AcDbBlockTableRecord
  2
*D5
 70
    0
280
    1
281
    0
  0
BLOCK_RECORD
  5
65
330
1
100
AcDbSymbolTableRecord
100
AcDbBlockTableRecord
  2
*D7
 70
    0
280
    1
281
    0
  0
BLOCK_RECORD
  5
68
330
1
100
AcDbSymbolTableRecord
100
AcDbBlockTableRecord
  2
*D20
 70
    0
280
    1
281
    0
  0
BLOCK_RECORD
  5
6B
330
1
100
AcDbSymbolTableRecord
100
AcDbBlockTableRecord
  2
*D10
 70
    0
280
    1
281
    0
  0
BLOCK_RECORD
  5
6E
330
1
100
AcDbSymbolTableRecord
100
AcDbBlockTableRecord
  2
*D11
 70
    0
280
    1
281
    0
  0
BLOCK_RECORD
  5
71
330
1
100
AcDbSymbolTableRecord
100
AcDbBlockTableRecord
  2
*D23
 70
    0
280
    1
281
    0
  0
BLOCK_RECORD
  5
74
330
1
100
AcDbSymbolTableRecord
100
AcDbBlockTableRecord
  2
*D15
 70
    0
280
    1
281
    0
  0
BLOCK_RECORD
  5
77
330
1
100
AcDbSymbolTableRecord
100
AcDbBlockTableRecord
  2
*D18
 70
    0
280
    1
281
    0
  0
BLOCK_RECORD
  5
7A
330
1
100
AcDbSymbolTableRecord
100
AcDbBlockTableRecord
  2
*D8
 70
    0
280
    1
281
    0
  0
BLOCK_RECORD
  5
7D
330
1
100
AcDbSymbolTableRecord
100
AcDbBlockTableRecord
  2
*D24
 70
    0
280
    1
281
    0
  0
BLOCK_RECORD
  5
80
330
1
100
AcDbSymbolTableRecord
100
AcDbBlockTableRecord
  2
*D25
 70
    0
280
    1
281
    0
  0
BLOCK_RECORD
  5
83
330
1
100
AcDbSymbolTableRecord
100
AcDbBlockTableRecord
  2
*D16
 70
    0
280
    1
281
    0
  0
BLOCK_RECORD
  5
86
330
1
100
AcDbSymbolTableRecord
100
AcDbBlockTableRecord
  2
*D19
 70
    0
280
    1
281
    0
  0
BLOCK_RECORD
  5
89
330
1
100
AcDbSymbolTableRecord
100
AcDbBlockTableRecord
  2
*D2
 70
    0
280
    1
281
    0
  0
BLOCK_RECORD
  5
8C
330
1
100
AcDbSymbolTableRecord
100
AcDbBlockTableRecord
  2
*D1
 70
    0
280
    1
281
    0
  0
BLOCK_RECORD
  5
8F
330
1
100
AcDbSymbolTableRecord
100
AcDbBlockTableRecord
  2
*D17
 70
    0
280
    1
281
    0
  0
BLOCK_RECORD
  5
92
330
1
100
AcDbSymbolTableRecord
100
AcDbBlockTableRecord
  2
*D4
 70
    0
280
    1
281
    0
  0
BLOCK_RECORD
  5
95
330
1
100
AcDbSymbolTableRecord
100
AcDbBlockTableRecord
  2
*D9
 70
    0
280
    1
281
    0
  0
BLOCK_RECORD
  5
98
330
1
100
AcDbSymbolTableRecord
100
AcDbBlockTableRecord
  2
*D12
 70
    0
280
    1
281
    0
  0
BLOCK_RECORD
  5
9B
330
1
100
AcDbSymbolTableRecord
100
AcDbBlockTableRecord
  2
*D21
 70
    0
280
    1
281
    0
  0
BLOCK_RECORD
  5
9E
330
1
100
AcDbSymbolTableRecord
100
AcDbBlockTableRecord
  2
*D13
 70
    0
280
    1
281
    0
  0
BLOCK_RECORD
  5
A1
330
1
100
AcDbSymbolTableRecord
100
AcDbBlockTableRecord
  2
*D6
 70
    0
280
    1
281
    0
  0
BLOCK_RECORD
  5
A4
330
1
100
AcDbSymbolTableRecord
100
AcDbBlockTableRecord
  2
*D22
 70
    0
280
    1
281
    0
  0
BLOCK_RECORD
  5
A7
330
1
100
AcDbSymbolTableRecord
100
AcDbBlockTableRecord
  2
Filled-1
 70
    0
280
    1
281
    0
  0
BLOCK_RECORD
  5
AA
330
1
100
AcDbSymbolTableRecord
100
AcDbBlockTableRecord
  2
DatumFilled45
 70
    0
280
    1
281
    0
  0
BLOCK_RECORD
  5
AD
330
1
100
AcDbSymbolTableRecord
100
AcDbBlockTableRecord
  2
Glasbearbeitung
 70
    0
280
    1
281
    0
  0
BLOCK_RECORD
  5
B0
330
1
100
AcDbSymbolTableRecord
100
AcDbBlockTableRecord
  2
unbemaßte_Kanten
 70
    0
280
    1
281
    0
  0
BLOCK_RECORD
  5
B3
330
1
100
AcDbSymbolTableRecord
100
AcDbBlockTableRecord
  2
Schleifrichtung
 70
    0
280
    1
281
    0
  0
BLOCK_RECORD
  5
B6
330
1
100
AcDbSymbolTableRecord
100
AcDbBlockTableRecord
  2
Senkung DIN 974-1 für Zylinderkopfschrauben
 70
    0
280
    1
281
    0
  0
BLOCK_RECORD
  5
B9
330
1
100
AcDbSymbolTableRecord
100
AcDbBlockTableRecord
  2
Senkung DIN 74-1 B (f) f. Senkschrauben
 70
    0
280
    1
281
    0
  0
BLOCK_RECORD
  5
BC
330
1
100
AcDbSymbolTableRecord
100
AcDbBlockTableRecord
  2
Rz4(Rz16)
 70
    0
280
    1
281
    0
  0
BLOCK_RECORD
  5
BF
330
1
100
AcDbSymbolTableRecord
100
AcDbBlockTableRecord
  2
Rz16(Rz4)
 70
    0
280
    1
281
    0
  0
BLOCK_RECORD
  5
C2
330
1
100
AcDbSymbolTableRecord
100
AcDbBlockTableRecord
  2
unbemaßte_Kanten 0_5
 70
    0
280
    1
281
    0
  0
BLOCK_RECORD
  5
C5
330
1
100
AcDbSymbolTableRecord
100
AcDbBlockTableRecord
  2
unbemaßte_Kanten 1
 70
    0
280
    1
281
    0
  0
BLOCK_RECORD
  5
C8
330
1
100
AcDbSymbolTableRecord
100
AcDbBlockTableRecord
  2
Schleifrichtung rund
 70
    0
280
    1
281
    0
  0
BLOCK_RECORD
  5
CB
330
1
100
AcDbSymbolTableRecord
100
AcDbBlockTableRecord
  2
Prototyp
 70
    0
280
    1
281
    0
  0
BLOCK_RECORD
  5
CE
330
1
100
AcDbSymbolTableRecord
100
AcDbBlockTableRecord
  2
Freigabe
 70
    0
280
    1
281
    0
  0
BLOCK_RECORD
  5
D1
330
1
100
AcDbSymbolTableRecord
100
AcDbBlockTableRecord
  2
Freigabe(Englisch)
 70
    0
280
    1
281
    0
  0
BLOCK_RECORD
  5
D4
330
1
100
AcDbSymbolTableRecord
100
AcDbBlockTableRecord
  2
Freigabe(Französisch)
 70
    0
280
    1
281
    0
  0
BLOCK_RECORD
  5
D7
330
1
100
AcDbSymbolTableRecord
100
AcDbBlockTableRecord
  2
Freigabe(Spanisch)
 70
    0
280
    1
281
    0
  0
BLOCK_RECORD
  5
DA
330
1
100
AcDbSymbolTableRecord
100
AcDbBlockTableRecord
  2
Schleifrichtung 30°
 70
    0
280
    1
281
    0
  0
BLOCK_RECORD
  5
DD
330
1
100
AcDbSymbolTableRecord
100
AcDbBlockTableRecord
  2
Schleifrichtung 60°
 70
    0
280
    1
281
    0
  0
BLOCK_RECORD
  5
E0
330
1
100
AcDbSymbolTableRecord
100
AcDbBlockTableRecord
  2
Schleifrichtung 40°
 70
    0
280
    1
281
    0
  0
BLOCK_RECORD
  5
E3
330
1
100
AcDbSymbolTableRecord
100
AcDbBlockTableRecord
  2
Schleifrichtung 90°
 70
    0
280
    1
281
    0
  0
BLOCK_RECORD
  5
E6
330
1
100
AcDbSymbolTableRecord
100
AcDbBlockTableRecord
  2
Schleifrichtung 20°
 70
    0
280
    1
281
    0
  0
BLOCK_RECORD
  5
E9
330
1
100
AcDbSymbolTableRecord
100
AcDbBlockTableRecord
  2
Schleifrichtung 15°
 70
    0
280
    1
281
    0
  0
BLOCK_RECORD
  5
EC
330
1
100
AcDbSymbolTableRecord
100
AcDbBlockTableRecord
  2
Schleifrichtung -30°
 70
    0
280
    1
281
    0
  0
BLOCK_RECORD
  5
EF
330
1
100
AcDbSymbolTableRecord
100
AcDbBlockTableRecord
  2
Schleifrichtung -15°
 70
    0
280
    1
281
    0
  0
BLOCK_RECORD
  5
F2
330
1
100
AcDbSymbolTableRecord
100
AcDbBlockTableRecord
  2
Schleifrichtung -40°
 70
    0
280
    1
281
    0
  0
BLOCK_RECORD
  5
F5
330
1
100
AcDbSymbolTableRecord
100
AcDbBlockTableRecord
  2
Schleifrichtung -60°
 70
    0
280
    1
281
    0
  0
BLOCK_RECORD
  5
F8
330
1
100
AcDbSymbolTableRecord
100
AcDbBlockTableRecord
  2
Schleifrichtung -50°
 70
    0
280
    1
281
    0
  0
BLOCK_RECORD
  5
FB
330
1
100
AcDbSymbolTableRecord
100
AcDbBlockTableRecord
  2
Flächen Galvanik
 70
    0
280
    1
281
    0
  0
BLOCK_RECORD
  5
FE
330
1
100
AcDbSymbolTableRecord
100
AcDbBlockTableRecord
  2
Duschenglas 8mm
 70
    0
280
    1
281
    0
  0
BLOCK_RECORD
  5
101
330
1
100
AcDbSymbolTableRecord
100
AcDbBlockTableRecord
  2
Außerhalb der AbZ 85
 70
    0
280
    1
281
    0
  0
BLOCK_RECORD
  5
104
330
1
100
AcDbSymbolTableRecord
100
AcDbBlockTableRecord
  2
Duschenglas 6mm
 70
    0
280
    1
281
    0
  0
BLOCK_RECORD
  5
107
330
1
100
AcDbSymbolTableRecord
100
AcDbBlockTableRecord
  2
unbemaßte Kanten R_0_2 runden
 70
    0
280
    1
281
    0
  0
BLOCK_RECORD
  5
10A
330
1
100
AcDbSymbolTableRecord
100
AcDbBlockTableRecord
  2
Prüfzertifikat nach DIN EN 10204 (3.1) erforderlich
 70
    0
280
    1
281
    0
  0
BLOCK_RECORD
  5
10D
330
1
100
AcDbSymbolTableRecord
100
AcDbBlockTableRecord
  2
Reinigen
 70
    0
280
    1
281
    0
  0
BLOCK_RECORD
  5
110
330
1
100
AcDbSymbolTableRecord
100
AcDbBlockTableRecord
  2
Schleifrichtung rund-2
 70
    0
280
    1
281
    0
  0
BLOCK_RECORD
  5
113
330
1
100
AcDbSymbolTableRecord
100
AcDbBlockTableRecord
  2
EPDM-washer
 70
    0
280
    1
281
    0
  0
BLOCK_RECORD
  5
116
330
1
100
AcDbSymbolTableRecord
100
AcDbBlockTableRecord
  2
isometric view
 70
    0
280
    1
281
    0
  0
BLOCK_RECORD
  5
119
330
1
100
AcDbSymbolTableRecord
100
AcDbBlockTableRecord
  2
glazing
 70
    0
280
    1
281
    0
  0
BLOCK_RECORD
  5
11C
330
1
100
AcDbSymbolTableRecord
100
AcDbBlockTableRecord
  2
countersink screw EN ISO A2
 70
    0
280
    1
281
    0
  0
BLOCK_RECORD
  5
11F
330
1
100
AcDbSymbolTableRecord
100
AcDbBlockTableRecord
  2
cylinder head screw EN ISO A2
 70
    0
280
    1
281
    0
  0
BLOCK_RECORD
  5
122
330
1
100
AcDbSymbolTableRecord
100
AcDbBlockTableRecord
  2
P+S glass clamp
 70
    0
280
    1
281
    0
  0
BLOCK_RECORD
  5
125
330
1
100
AcDbSymbolTableRecord
100
AcDbBlockTableRecord
  2
2DTransSchnitt2
 70
    0
280
    1
281
    0
  0
ENDTAB
  0
ENDSEC
  0
SECTION
  2
BLOCKS
  0
BLOCK
  5
20
330
1F
100
AcDbEntity
  8
0
100
AcDbBlockBegin
  2
*Model_Space
 70
    0
 10
0
 20
0
 30
0
  3
*Model_Space
  1

  0
ENDBLK
  5
21
330
1F
100
AcDbEntity
  8
0
100
AcDbBlockEnd
  0
BLOCK
  5
1C
330
1B
100
AcDbEntity
  8
0
100
AcDbBlockBegin
  2
*Paper_Space
 70
    0
 10
0
 20
0
 30
0
  3
*Paper_Space
  1

  0
ENDBLK
  5
1D
330
1F
100
AcDbEntity
  8
0
100
AcDbBlockEnd
  0
BLOCK
  5
5D
330
5C
100
AcDbEntity
  8
0
100
AcDbBlockBegin
  2
*D14
 70
    1
 10
0
 20
0
  3
*D14
  1

  0
LINE
  5
128
100
AcDbEntity
  8
Bemaßung (ISO)
  6
ByBlock
 62
    0
370
   -2
100
AcDbLine
 10
290.2265831746579
 20
288.2189481109843
 11
297.8247577677087
 21
280.6207735179337
  0
SOLID
  5
129
100
AcDbEntity
  8
Bemaßung (ISO)
  6
ByBlock
 62
    0
370
   -2
100
AcDbTrace
 10
290.2265831746579
 20
288.2189481109843
 30
0
 11
290.3750561499893
 21
288.1128626450886
 31
0
 12
290.3326686405536
 22
288.0704751356529
 32
0
 13
290.3326686405536
 23
288.0704751356529
 33
0
  0
SOLID
  5
12A
100
AcDbEntity
  8
Bemaßung (ISO)
  6
ByBlock
 62
    0
370
   -2
100
AcDbTrace
 10
305.7829323607593
 20
272.662598924883
 30
0
 11
305.6344593854279
 21
272.7686843907787
 31
0
 12
305.6768468948636
 22
272.8110719002144
 32
0
 13
305.6768468948636
 23
272.8110719002144
 33
0
  0
LINE
  5
12B
100
AcDbEntity
  8
Bemaßung (ISO)
  6
ByBlock
 62
    0
370
   -2
100
AcDbLine
 10
298.1847577677087
 20
280.2607735179337
 11
305.7829323607593
 21
272.662598924883
  0
MTEXT
  5
12C
100
AcDbEntity
  8
Bemaßung (ISO)
  6
CONTINUOUS
 62
    0
370
   -2
100
AcDbMText
 10
298.0047577677087
 20
280.4407735179337
 30
0
 40
0.18
 41
0.8400000000000001
 71
    5
 72
    1
  1
22.0000
  7
Standard
210
0
220
0
230
1
 50
0
 73
    2
 44
1
  0
LINE
  5
12D
100
AcDbEntity
  8
Bemaßung (ISO)
  6
ByBlock
 62
    0
370
   -2
100
AcDbLine
 10
257.7623553048077
 20
255.7547202411341
 11
290.3538623952714
 21
288.3462273315979
  0
LINE
  5
12E
100
AcDbEntity
  8
Bemaßung (ISO)
  6
ByBlock
 62
    0
370
   -2
100
AcDbLine
 10
273.3187044909059
 20
240.1983710550294
 11
305.9102115813729
 21
272.7898781454965
  0
ENDBLK
  5
5E
330
5C
100
AcDbEntity
  8
0
100
AcDbBlockEnd
  0
BLOCK
  5
60
330
5F
100
AcDbEntity
  8
0
100
AcDbBlockBegin
  2
*D3
 70
    1
 10
0
 20
0
  3
*D3
  1

  0
SOLID
  5
12F
100
AcDbEntity
  8
Bemaßung (ISO)
  6
ByBlock
 62
    0
370
   -2
100
AcDbTrace
 10
267.4125023360997
 20
124.9896582372825
 30
0
 11
267.5609753114312
 21
124.8835727713868
 31
0
 12
267.5185878019954
 22
124.8411852619511
 32
0
 13
267.5185878019954
 23
124.8411852619511
 33
0
  0
LINE
  5
130
100
AcDbEntity
  8
Bemaßung (ISO)
  6
ByBlock
 62
    0
370
   -2
100
AcDbLine
 10
273.7764633667796
 20
118.6256972066045
 11
267.4125023360997
 21
124.9896582372825
  0
MTEXT
  5
131
100
AcDbEntity
  8
Bemaßung (ISO)
  6
CONTINUOUS
 62
    0
370
   -2
100
AcDbMText
 10
259.5546214658936
 20
136.6866321374601
 30
0
 40
0.18
 41
0.7000000000000113
 71
    5
 72
    1
  1
9.0000
  7
Standard
210
0
220
0
230
1
 50
315.0000000000085
 73
    2
 44
1
  0
ENDBLK
  5
61
330
5F
100
AcDbEntity
  8
0
100
AcDbBlockEnd
  0
BLOCK
  5
63
330
62
100
AcDbEntity
  8
0
100
AcDbBlockBegin
  2
*D5
 70
    1
 10
0
 20
0
  3
*D5
  1

  0
LINE
  5
132
100
AcDbEntity
  8
Bemaßung (ISO)
  6
ByBlock
 62
    0
370
   -2
100
AcDbLine
 10
294.8450685010611
 20
121.6256972066045
 11
294.8450685010611
 21
101.8056972066045
  0
SOLID
  5
133
100
AcDbEntity
  8
Bemaßung (ISO)
  6
ByBlock
 62
    0
370
   -2
100
AcDbTrace
 10
294.8450685010611
 20
121.6256972066045
 30
0
 11
294.8750409964208
 21
121.4456972066045
 31
0
 12
294.8150960057015
 22
121.4456972066045
 32
0
 13
294.8150960057015
 23
121.4456972066045
 33
0
  0
SOLID
  5
134
100
AcDbEntity
  8
Bemaßung (ISO)
  6
ByBlock
 62
    0
370
   -2
100
AcDbTrace
 10
294.8450685010611
 20
81.62569720660449
 30
0
 11
294.8150960057015
 21
81.80569720660449
 31
0
 12
294.8750409964208
 22
81.80569720660449
 32
0
 13
294.8750409964208
 23
81.80569720660449
 33
0
  0
LINE
  5
135
100
AcDbEntity
  8
Bemaßung (ISO)
  6
ByBlock
 62
    0
370
   -2
100
AcDbLine
 10
294.8450685010611
 20
101.4456972066045
 11
294.8450685010611
 21
81.62569720660449
  0
MTEXT
  5
136
100
AcDbEntity
  8
Bemaßung (ISO)
  6
CONTINUOUS
 62
    0
370
   -2
100
AcDbMText
 10
294.8450685010611
 20
101.6256972066045
 30
0
 40
0.18
 41
0.8600000000000001
 71
    5
 72
    1
  1
40.0000
  7
Standard
210
0
220
0
230
1
 50
0
 73
    2
 44
1
  0
LINE
  5
137
100
AcDbEntity
  8
Bemaßung (ISO)
  6
ByBlock
 62
    0
370
   -2
100
AcDbLine
 10
301.1191170259597
 20
121.6256972066045
 11
294.6650685010611
 21
121.6256972066045
  0
LINE
  5
138
100
AcDbEntity
  8
Bemaßung (ISO)
  6
ByBlock
 62
    0
370
   -2
100
AcDbLine
 10
301.1191170259601
 20
81.62569720660449
 11
294.6650685010611
 21
81.62569720660449
  0
ENDBLK
  5
64
330
62
100
AcDbEntity
  8
0
100
AcDbBlockEnd
  0
BLOCK
  5
66
330
65
100
AcDbEntity
  8
0
100
AcDbBlockBegin
  2
*D7
 70
    1
 10
0
 20
0
  3
*D7
  1

  0
LINE
  5
139
100
AcDbEntity
  8
Bemaßung (ISO)
  6
ByBlock
 62
    0
370
   -2
100
AcDbLine
 10
349.4245402263284
 20
119.6256972066045
 11
349.4245402263284
 21
101.8056972066045
  0
SOLID
  5
13A
100
AcDbEntity
  8
Bemaßung (ISO)
  6
ByBlock
 62
    0
370
   -2
100
AcDbTrace
 10
349.4245402263284
 20
119.6256972066045
 30
0
 11
349.454512721688
 21
119.4456972066045
 31
0
 12
349.3945677309688
 22
119.4456972066045
 32
0
 13
349.3945677309688
 23
119.4456972066045
 33
0
  0
SOLID
  5
13B
100
AcDbEntity
  8
Bemaßung (ISO)
  6
ByBlock
 62
    0
370
   -2
100
AcDbTrace
 10
349.4245402263284
 20
83.62569720660451
 30
0
 11
349.3945677309688
 21
83.80569720660452
 31
0
 12
349.454512721688
 22
83.80569720660452
 32
0
 13
349.454512721688
 23
83.80569720660452
 33
0
  0
LINE
  5
13C
100
AcDbEntity
  8
Bemaßung (ISO)
  6
ByBlock
 62
    0
370
   -2
100
AcDbLine
 10
349.4245402263284
 20
101.4456972066045
 11
349.4245402263284
 21
83.62569720660451
  0
MTEXT
  5
13D
100
AcDbEntity
  8
Bemaßung (ISO)
  6
CONTINUOUS
 62
    0
370
   -2
100
AcDbMText
 10
349.4245402263284
 20
101.6256972066045
 30
0
 40
0.18
 41
0.8400000000000223
 71
    5
 72
    1
  1
36.0000
  7
Standard
210
0
220
0
230
1
 50
0
 73
    2
 44
1
  0
LINE
  5
13E
100
AcDbEntity
  8
Bemaßung (ISO)
  6
ByBlock
 62
    0
370
   -2
100
AcDbLine
 10
362.2139633667796
 20
119.6256972066045
 11
349.2445402263284
 21
119.6256972066045
  0
LINE
  5
13F
100
AcDbEntity
  8
Bemaßung (ISO)
  6
ByBlock
 62
    0
370
   -2
100
AcDbLine
 10
362.2139633667796
 20
83.62569720660451
 11
349.2445402263284
 21
83.62569720660451
  0
ENDBLK
  5
67
330
65
100
AcDbEntity
  8
0
100
AcDbBlockEnd
  0
BLOCK
  5
69
330
68
100
AcDbEntity
  8
0
100
AcDbBlockBegin
  2
*D20
 70
    1
 10
0
 20
0
  3
*D20
  1

  0
LINE
  5
140
100
AcDbEntity
  8
Bemaßung (ISO)
  6
ByBlock
 62
    0
370
   -2
100
AcDbLine
 10
281.1272563055364
 20
257.9064178062707
 11
278.4788291807903
 21
260.5548449310169
  0
SOLID
  5
141
100
AcDbEntity
  8
Bemaßung (ISO)
  6
ByBlock
 62
    0
370
   -2
100
AcDbTrace
 10
281.1272563055364
 20
257.9064178062707
 30
0
 11
280.9787833302049
 21
258.0125032721664
 31
0
 12
281.0211708396407
 22
258.0548907816022
 32
0
 13
281.0211708396407
 23
258.0548907816022
 33
0
  0
SOLID
  5
142
100
AcDbEntity
  8
Bemaßung (ISO)
  6
ByBlock
 62
    0
370
   -2
100
AcDbTrace
 10
275.470402056044
 20
263.5632720557632
 30
0
 11
275.6188750313754
 21
263.4571865898674
 31
0
 12
275.5764875219397
 22
263.4147990804317
 32
0
 13
275.5764875219397
 23
263.4147990804317
 33
0
  0
LINE
  5
143
100
AcDbEntity
  8
Bemaßung (ISO)
  6
ByBlock
 62
    0
370
   -2
100
AcDbLine
 10
278.1188291807903
 20
260.9148449310169
 11
275.470402056044
 21
263.5632720557632
  0
MTEXT
  5
144
100
AcDbEntity
  8
Bemaßung (ISO)
  6
CONTINUOUS
 62
    0
370
   -2
100
AcDbMText
 10
278.2988291807902
 20
260.7348449310169
 30
0
 40
0.18
 41
0.7
 71
    5
 72
    1
  1
8.0000
  7
Standard
210
0
220
0
230
1
 50
0
 73
    2
 44
1
  0
LINE
  5
145
100
AcDbEntity
  8
Bemaßung (ISO)
  6
ByBlock
 62
    0
370
   -2
100
AcDbLine
 10
275.4400248344683
 20
252.2191863352026
 11
281.2545355261499
 21
258.0336970268843
  0
LINE
  5
146
100
AcDbEntity
  8
Bemaßung (ISO)
  6
ByBlock
 62
    0
370
   -2
100
AcDbLine
 10
269.7831705849758
 20
257.876040584695
 11
275.5976812766575
 21
263.6905512763767
  0
ENDBLK
  5
6A
330
68
100
AcDbEntity
  8
0
100
AcDbBlockEnd
  0
BLOCK
  5
6C
330
6B
100
AcDbEntity
  8
0
100
AcDbBlockBegin
  2
*D10
 70
    1
 10
0
 20
0
  3
*D10
  1

  0
LINE
  5
147
100
AcDbEntity
  8
Bemaßung (ISO)
  6
ByBlock
 62
    0
370
   -2
100
AcDbLine
 10
237.7764633668304
 20
11.51424249190304
 11
237.7764633668304
 21
15.33424249190298
  0
SOLID
  5
148
100
AcDbEntity
  8
Bemaßung (ISO)
  6
ByBlock
 62
    0
370
   -2
100
AcDbTrace
 10
237.7764633668304
 20
11.51424249190304
 30
0
 11
237.7464908714707
 21
11.69424249190304
 31
0
 12
237.8064358621901
 22
11.69424249190304
 32
0
 13
237.8064358621901
 23
11.69424249190304
 33
0
  0
SOLID
  5
149
100
AcDbEntity
  8
Bemaßung (ISO)
  6
ByBlock
 62
    0
370
   -2
100
AcDbTrace
 10
237.7764633668304
 20
19.51424249190305
 30
0
 11
237.8064358621901
 21
19.33424249190305
 31
0
 12
237.7464908714707
 22
19.33424249190305
 32
0
 13
237.7464908714707
 23
19.33424249190305
 33
0
  0
LINE
  5
14A
100
AcDbEntity
  8
Bemaßung (ISO)
  6
ByBlock
 62
    0
370
   -2
100
AcDbLine
 10
237.7764633668304
 20
15.69424249190298
 11
237.7764633668304
 21
19.51424249190305
  0
MTEXT
  5
14B
100
AcDbEntity
  8
Bemaßung (ISO)
  6
CONTINUOUS
 62
    0
370
   -2
100
AcDbMText
 10
237.7764633668303
 20
15.51424249190298
 30
0
 40
0.18
 41
0.7
 71
    5
 72
    1
  1
8.0000
  7
Standard
210
0
220
0
230
1
 50
0
 73
    2
 44
1
  0
LINE
  5
14C
100
AcDbEntity
  8
Bemaßung (ISO)
  6
ByBlock
 62
    0
370
   -2
100
AcDbLine
 10
247.7139633668303
 20
11.51424249190304
 11
237.5964633668304
 21
11.51424249190304
  0
LINE
  5
14D
100
AcDbEntity
  8
Bemaßung (ISO)
  6
ByBlock
 62
    0
370
   -2
100
AcDbLine
 10
247.7139633668303
 20
19.51424249190305
 11
237.5964633668304
 21
19.51424249190305
  0
ENDBLK
  5
6D
330
6B
100
AcDbEntity
  8
0
100
AcDbBlockEnd
  0
BLOCK
  5
6F
330
6E
100
AcDbEntity
  8
0
100
AcDbBlockBegin
  2
*D11
 70
    1
 10
0
 20
0
  3
*D11
  1

  0
LINE
  5
14E
100
AcDbEntity
  8
Bemaßung (ISO)
  6
ByBlock
 62
    0
370
   -2
100
AcDbLine
 10
401.7764633668304
 20
11.51424249190304
 11
401.7764633668304
 21
15.33424249190294
  0
SOLID
  5
14F
100
AcDbEntity
  8
Bemaßung (ISO)
  6
ByBlock
 62
    0
370
   -2
100
AcDbTrace
 10
401.7764633668304
 20
11.51424249190304
 30
0
 11
401.7464908714708
 21
11.69424249190304
 31
0
 12
401.80643586219
 22
11.69424249190304
 32
0
 13
401.80643586219
 23
11.69424249190304
 33
0
  0
SOLID
  5
150
100
AcDbEntity
  8
Bemaßung (ISO)
  6
ByBlock
 62
    0
370
   -2
100
AcDbTrace
 10
401.7764633668304
 20
19.51424249190305
 30
0
 11
401.80643586219
 21
19.33424249190305
 31
0
 12
401.7464908714708
 22
19.33424249190305
 32
0
 13
401.7464908714708
 23
19.33424249190305
 33
0
  0
LINE
  5
151
100
AcDbEntity
  8
Bemaßung (ISO)
  6
ByBlock
 62
    0
370
   -2
100
AcDbLine
 10
401.7764633668304
 20
15.69424249190294
 11
401.7764633668304
 21
19.51424249190305
  0
MTEXT
  5
152
100
AcDbEntity
  8
Bemaßung (ISO)
  6
CONTINUOUS
 62
    0
370
   -2
100
AcDbMText
 10
401.7764633668303
 20
15.51424249190294
 30
0
 40
0.18
 41
0.7
 71
    5
 72
    1
  1
8.0000
  7
Standard
210
0
220
0
230
1
 50
0
 73
    2
 44
1
  0
LINE
  5
153
100
AcDbEntity
  8
Bemaßung (ISO)
  6
ByBlock
 62
    0
370
   -2
100
AcDbLine
 10
391.8389633668303
 20
11.51424249190304
 11
401.9564633668304
 21
11.51424249190304
  0
LINE
  5
154
100
AcDbEntity
  8
Bemaßung (ISO)
  6
ByBlock
 62
    0
370
   -2
100
AcDbLine
 10
391.8389633668303
 20
19.51424249190305
 11
401.9564633668304
 21
19.51424249190305
  0
ENDBLK
  5
70
330
6E
100
AcDbEntity
  8
0
100
AcDbBlockEnd
  0
BLOCK
  5
72
330
71
100
AcDbEntity
  8
0
100
AcDbBlockBegin
  2
*D23
 70
    1
 10
0
 20
0
  3
*D23
  1

  0
SOLID
  5
155
100
AcDbEntity
  8
Bemaßung (ISO)
  6
ByBlock
 62
    0
370
   -2
100
AcDbTrace
 10
314.3119972727129
 20
135.1612311125367
 30
0
 11
314.2059118068172
 21
135.0127581372053
 31
0
 12
314.1635242973815
 22
135.0551456466411
 32
0
 13
314.1635242973815
 23
135.0551456466411
 33
0
  0
LINE
  5
156
100
AcDbEntity
  8
Bemaßung (ISO)
  6
ByBlock
 62
    0
370
   -2
100
AcDbLine
 10
310.7764633667796
 20
131.6256972066045
 11
314.3119972727129
 21
135.1612311125367
  0
MTEXT
  5
157
100
AcDbEntity
  8
Bemaßung (ISO)
  6
CONTINUOUS
 62
    0
370
   -2
100
AcDbMText
 10
322.1825395024783
 20
146.8600137783657
 30
0
 40
0.18
 41
0.7000000000000112
 71
    5
 72
    1
  1
5.0000
  7
Standard
210
0
220
0
230
1
 50
44.99999999999079
 73
    2
 44
1
  0
ENDBLK
  5
73
330
71
100
AcDbEntity
  8
0
100
AcDbBlockEnd
  0
BLOCK
  5
75
330
74
100
AcDbEntity
  8
0
100
AcDbBlockBegin
  2
*D15
 70
    1
 10
0
 20
0
  3
*D15
  1

  0
LINE
  5
158
100
AcDbEntity
  8
Bemaßung (ISO)
  6
ByBlock
 62
    0
370
   -2
100
AcDbLine
 10
115.9182868744168
 20
184.0064496664562
 11
115.9182868744168
 21
187.3264496664563
  0
SOLID
  5
159
100
AcDbEntity
  8
Bemaßung (ISO)
  6
ByBlock
 62
    0
370
   -2
100
AcDbTrace
 10
115.9182868744168
 20
184.0064496664562
 30
0
 11
115.8883143790571
 21
184.1864496664562
 31
0
 12
115.9482593697764
 22
184.1864496664562
 32
0
 13
115.9482593697764
 23
184.1864496664562
 33
0
  0
SOLID
  5
15A
100
AcDbEntity
  8
Bemaßung (ISO)
  6
ByBlock
 62
    0
370
   -2
100
AcDbTrace
 10
115.9182868744168
 20
191.0064496664564
 30
0
 11
115.9482593697764
 21
190.8264496664564
 31
0
 12
115.8883143790571
 22
190.8264496664564
 32
0
 13
115.8883143790571
 23
190.8264496664564
 33
0
  0
LINE
  5
15B
100
AcDbEntity
  8
Bemaßung (ISO)
  6
ByBlock
 62
    0
370
   -2
100
AcDbLine
 10
115.9182868744168
 20
187.6864496664563
 11
115.9182868744168
 21
191.0064496664564
  0
MTEXT
  5
15C
100
AcDbEntity
  8
Bemaßung (ISO)
  6
CONTINUOUS
 62
    0
370
   -2
100
AcDbMText
 10
115.9182868744169
 20
187.5064496664563
 30
0
 40
0.18
 41
0.7
 71
    5
 72
    1
  1
7.0000
  7
Standard
210
0
220
0
230
1
 50
0
 73
    2
 44
1
  0
LINE
  5
15D
100
AcDbEntity
  8
Bemaßung (ISO)
  6
ByBlock
 62
    0
370
   -2
100
AcDbLine
 10
160.4515847301266
 20
184.0064496664562
 11
115.7382868744168
 21
184.0064496664562
  0
LINE
  5
15E
100
AcDbEntity
  8
Bemaßung (ISO)
  6
ByBlock
 62
    0
370
   -2
100
AcDbLine
 10
145.7015847301261
 20
191.0064496664564
 11
115.7382868744168
 21
191.0064496664564
  0
ENDBLK
  5
76
330
74
100
AcDbEntity
  8
0
100
AcDbBlockEnd
  0
BLOCK
  5
78
330
77
100
AcDbEntity
  8
0
100
AcDbBlockBegin
  2
*D18
 70
    1
 10
0
 20
0
  3
*D18
  1

  0
LINE
  5
15F
100
AcDbEntity
  8
Bemaßung (ISO)
  6
ByBlock
 62
    0
370
   -2
100
AcDbLine
 10
286.0024323784395
 20
227.4262548198478
 11
258.1156398388777
 21
199.5394622802852
  0
SOLID
  5
160
100
AcDbEntity
  8
Bemaßung (ISO)
  6
ByBlock
 62
    0
370
   -2
100
AcDbTrace
 10
286.0024323784395
 20
227.4262548198478
 30
0
 11
285.8963469125438
 21
227.2777818445163
 31
0
 12
285.853959403108
 22
227.3201693539521
 32
0
 13
285.853959403108
 23
227.3201693539521
 33
0
  0
SOLID
  5
161
100
AcDbEntity
  8
Bemaßung (ISO)
  6
ByBlock
 62
    0
370
   -2
100
AcDbTrace
 10
229.8547051636923
 20
171.2785276050989
 30
0
 11
229.960790629588
 21
171.4270005804304
 31
0
 12
230.0031781390238
 22
171.3846130709946
 32
0
 13
230.0031781390238
 23
171.3846130709946
 33
0
  0
LINE
  5
162
100
AcDbEntity
  8
Bemaßung (ISO)
  6
ByBlock
 62
    0
370
   -2
100
AcDbLine
 10
257.7556398388777
 20
199.1794622802852
 11
229.8547051636923
 21
171.2785276050989
  0
MTEXT
  5
163
100
AcDbEntity
  8
Bemaßung (ISO)
  6
CONTINUOUS
 62
    0
370
   -2
100
AcDbMText
 10
257.9356398388778
 20
199.3594622802852
 30
0
 40
0.18
 41
0.88
 71
    5
 72
    1
  1
79.4049
  7
Standard
210
0
220
0
230
1
 50
0
 73
    2
 44
1
  0
LINE
  5
164
100
AcDbEntity
  8
Bemaßung (ISO)
  6
ByBlock
 62
    0
370
   -2
100
AcDbLine
 10
273.3187044909059
 20
240.109982707381
 11
286.1297115990531
 21
227.2989755992342
  0
LINE
  5
165
100
AcDbEntity
  8
Bemaßung (ISO)
  6
ByBlock
 62
    0
370
   -2
100
AcDbLine
 10
217.1709772761588
 20
183.9622554926321
 11
229.9819843843059
 21
171.1512483844853
  0
ENDBLK
  5
79
330
77
100
AcDbEntity
  8
0
100
AcDbBlockEnd
  0
BLOCK
  5
7B
330
7A
100
AcDbEntity
  8
0
100
AcDbBlockBegin
  2
*D8
 70
    1
 10
0
 20
0
  3
*D8
  1

  0
LINE
  5
166
100
AcDbEntity
  8
Bemaßung (ISO)
  6
ByBlock
 62
    0
370
   -2
100
AcDbLine
 10
284.2764633667796
 20
118.6256972066045
 11
284.2764633667796
 21
101.8056972066045
  0
SOLID
  5
167
100
AcDbEntity
  8
Bemaßung (ISO)
  6
ByBlock
 62
    0
370
   -2
100
AcDbTrace
 10
284.2764633667796
 20
118.6256972066045
 30
0
 11
284.3064358621392
 21
118.4456972066045
 31
0
 12
284.24649087142
 22
118.4456972066045
 32
0
 13
284.24649087142
 23
118.4456972066045
 33
0
  0
SOLID
  5
168
100
AcDbEntity
  8
Bemaßung (ISO)
  6
ByBlock
 62
    0
370
   -2
100
AcDbTrace
 10
284.2764633667796
 20
84.62569720660449
 30
0
 11
284.24649087142
 21
84.80569720660449
 31
0
 12
284.3064358621392
 22
84.80569720660449
 32
0
 13
284.3064358621392
 23
84.80569720660449
 33
0
  0
LINE
  5
169
100
AcDbEntity
  8
Bemaßung (ISO)
  6
ByBlock
 62
    0
370
   -2
100
AcDbLine
 10
284.2764633667796
 20
101.4456972066045
 11
284.2764633667796
 21
84.62569720660449
  0
MTEXT
  5
16A
100
AcDbEntity
  8
Bemaßung (ISO)
  6
CONTINUOUS
 62
    0
370
   -2
100
AcDbMText
 10
284.2764633667796
 20
101.6256972066045
 30
0
 40
0.18
 41
0.8600000000000112
 71
    5
 72
    1
  1
34.0000
  7
Standard
210
0
220
0
230
1
 50
0
 73
    2
 44
1
  0
LINE
  5
16B
100
AcDbEntity
  8
Bemaßung (ISO)
  6
ByBlock
 62
    0
370
   -2
100
AcDbLine
 10
274.3389633667796
 20
118.6256972066045
 11
284.4564633667796
 21
118.6256972066045
  0
LINE
  5
16C
100
AcDbEntity
  8
Bemaßung (ISO)
  6
ByBlock
 62
    0
370
   -2
100
AcDbLine
 10
274.3389633667796
 20
84.62569720660449
 11
284.4564633667796
 21
84.62569720660449
  0
ENDBLK
  5
7C
330
7A
100
AcDbEntity
  8
0
100
AcDbBlockEnd
  0
BLOCK
  5
7E
330
7D
100
AcDbEntity
  8
0
100
AcDbBlockBegin
  2
*D24
 70
    1
 10
0
 20
0
  3
*D24
  1

  0
LINE
  5
16D
100
AcDbEntity
  8
Bemaßung (ISO)
  6
ByBlock
 62
    0
370
   -2
100
AcDbLine
 10
328.7764633667797
 20
131.6256972066045
 11
328.7764633667797
 21
101.8056972066045
  0
SOLID
  5
16E
100
AcDbEntity
  8
Bemaßung (ISO)
  6
ByBlock
 62
    0
370
   -2
100
AcDbTrace
 10
328.7764633667797
 20
131.6256972066045
 30
0
 11
328.8064358621393
 21
131.4456972066045
 31
0
 12
328.7464908714201
 22
131.4456972066045
 32
0
 13
328.7464908714201
 23
131.4456972066045
 33
0
  0
SOLID
  5
16F
100
AcDbEntity
  8
Bemaßung (ISO)
  6
ByBlock
 62
    0
370
   -2
100
AcDbTrace
 10
328.7764633667797
 20
71.62569720660451
 30
0
 11
328.7464908714201
 21
71.80569720660452
 31
0
 12
328.8064358621393
 22
71.80569720660452
 32
0
 13
328.8064358621393
 23
71.80569720660452
 33
0
  0
LINE
  5
170
100
AcDbEntity
  8
Bemaßung (ISO)
  6
ByBlock
 62
    0
370
   -2
100
AcDbLine
 10
328.7764633667797
 20
101.4456972066045
 11
328.7764633667797
 21
71.62569720660451
  0
MTEXT
  5
171
100
AcDbEntity
  8
Bemaßung (ISO)
  6
CONTINUOUS
 62
    0
370
   -2
100
AcDbMText
 10
328.7764633667796
 20
101.6256972066045
 30
0
 40
0.18
 41
0.8400000000000112
 71
    5
 72
    1
  1
60.0000
  7
Standard
210
0
220
0
230
1
 50
0
 73
    2
 44
1
  0
LINE
  5
172
100
AcDbEntity
  8
Bemaßung (ISO)
  6
ByBlock
 62
    0
370
   -2
100
AcDbLine
 10
317.3389633667796
 20
131.6256972066045
 11
328.9564633667797
 21
131.6256972066045
  0
LINE
  5
173
100
AcDbEntity
  8
Bemaßung (ISO)
  6
ByBlock
 62
    0
370
   -2
100
AcDbLine
 10
317.3389633667796
 20
71.62569720660451
 11
328.9564633667797
 21
71.62569720660451
  0
ENDBLK
  5
7F
330
7D
100
AcDbEntity
  8
0
100
AcDbBlockEnd
  0
BLOCK
  5
81
330
80
100
AcDbEntity
  8
0
100
AcDbBlockBegin
  2
*D25
 70
    1
 10
0
 20
0
  3
*D25
  1

  0
LINE
  5
174
100
AcDbEntity
  8
Bemaßung (ISO)
  6
ByBlock
 62
    0
370
   -2
100
AcDbLine
 10
108.2252669737392
 20
124.0957205283716
 11
108.2252669737392
 21
92.26572052837167
  0
SOLID
  5
175
100
AcDbEntity
  8
Bemaßung (ISO)
  6
ByBlock
 62
    0
370
   -2
100
AcDbTrace
 10
108.2252669737392
 20
124.0957205283716
 30
0
 11
108.2552394690988
 21
123.9157205283716
 31
0
 12
108.1952944783796
 22
123.9157205283716
 32
0
 13
108.1952944783796
 23
123.9157205283716
 33
0
  0
SOLID
  5
176
100
AcDbEntity
  8
Bemaßung (ISO)
  6
ByBlock
 62
    0
370
   -2
100
AcDbTrace
 10
108.2252669737392
 20
60.09572052837167
 30
0
 11
108.1952944783796
 21
60.27572052837167
 31
0
 12
108.2552394690988
 22
60.27572052837167
 32
0
 13
108.2552394690988
 23
60.27572052837167
 33
0
  0
LINE
  5
177
100
AcDbEntity
  8
Bemaßung (ISO)
  6
ByBlock
 62
    0
370
   -2
100
AcDbLine
 10
108.2252669737392
 20
91.90572052837166
 11
108.2252669737392
 21
60.09572052837167
  0
MTEXT
  5
178
100
AcDbEntity
  8
Bemaßung (ISO)
  6
CONTINUOUS
 62
    0
370
   -2
100
AcDbMText
 10
108.2252669737392
 20
92.08572052837167
 30
0
 40
0.18
 41
0.8600000000000112
 71
    5
 72
    1
  1
64.0000
  7
Standard
210
0
220
0
230
1
 50
0
 73
    2
 44
1
  0
LINE
  5
179
100
AcDbEntity
  8
Bemaßung (ISO)
  6
ByBlock
 62
    0
370
   -2
100
AcDbLine
 10
118.1627669737392
 20
124.0957205283716
 11
108.0452669737392
 21
124.0957205283716
  0
LINE
  5
17A
100
AcDbEntity
  8
Bemaßung (ISO)
  6
ByBlock
 62
    0
370
   -2
100
AcDbLine
 10
118.1627669737392
 20
60.09572052837167
 11
108.0452669737392
 21
60.09572052837167
  0
ENDBLK
  5
82
330
80
100
AcDbEntity
  8
0
100
AcDbBlockEnd
  0
BLOCK
  5
84
330
83
100
AcDbEntity
  8
0
100
AcDbBlockBegin
  2
*D16
 70
    1
 10
0
 20
0
  3
*D16
  1

  0
LINE
  5
17B
100
AcDbEntity
  8
Bemaßung (ISO)
  6
ByBlock
 62
    0
370
   -2
100
AcDbLine
 10
124.7704238275478
 20
199.0064496664565
 11
124.7704238275478
 21
202.3264496664565
  0
SOLID
  5
17C
100
AcDbEntity
  8
Bemaßung (ISO)
  6
ByBlock
 62
    0
370
   -2
100
AcDbTrace
 10
124.7704238275478
 20
199.0064496664565
 30
0
 11
124.7404513321882
 21
199.1864496664565
 31
0
 12
124.8003963229074
 22
199.1864496664565
 32
0
 13
124.8003963229074
 23
199.1864496664565
 33
0
  0
SOLID
  5
17D
100
AcDbEntity
  8
Bemaßung (ISO)
  6
ByBlock
 62
    0
370
   -2
100
AcDbTrace
 10
124.7704238275478
 20
206.0064496664563
 30
0
 11
124.8003963229074
 21
205.8264496664563
 31
0
 12
124.7404513321882
 22
205.8264496664563
 32
0
 13
124.7404513321882
 23
205.8264496664563
 33
0
  0
LINE
  5
17E
100
AcDbEntity
  8
Bemaßung (ISO)
  6
ByBlock
 62
    0
370
   -2
100
AcDbLine
 10
124.7704238275478
 20
202.6864496664565
 11
124.7704238275478
 21
206.0064496664563
  0
MTEXT
  5
17F
100
AcDbEntity
  8
Bemaßung (ISO)
  6
CONTINUOUS
 62
    0
370
   -2
100
AcDbMText
 10
124.7704238275479
 20
202.5064496664565
 30
0
 40
0.18
 41
0.7
 71
    5
 72
    1
  1
7.0000
  7
Standard
210
0
220
0
230
1
 50
0
 73
    2
 44
1
  0
LINE
  5
180
100
AcDbEntity
  8
Bemaßung (ISO)
  6
ByBlock
 62
    0
370
   -2
100
AcDbLine
 10
145.7015847301261
 20
199.0064496664565
 11
124.5904238275478
 21
199.0064496664565
  0
LINE
  5
181
100
AcDbEntity
  8
Bemaßung (ISO)
  6
ByBlock
 62
    0
370
   -2
100
AcDbLine
 10
160.4515847301266
 20
206.0064496664563
 11
124.5904238275478
 21
206.0064496664563
  0
ENDBLK
  5
85
330
83
100
AcDbEntity
  8
0
100
AcDbBlockEnd
  0
BLOCK
  5
87
330
86
100
AcDbEntity
  8
0
100
AcDbBlockBegin
  2
*D19
 70
    1
 10
0
 20
0
  3
*D19
  1

  0
LINE
  5
182
100
AcDbEntity
  8
Bemaßung (ISO)
  6
ByBlock
 62
    0
370
   -2
100
AcDbLine
 10
229.4875775303404
 20
183.5319467394612
 11
227.2630825937306
 21
181.3074518028514
  0
SOLID
  5
183
100
AcDbEntity
  8
Bemaßung (ISO)
  6
ByBlock
 62
    0
370
   -2
100
AcDbTrace
 10
229.4875775303404
 20
183.5319467394612
 30
0
 11
229.3814920644447
 21
183.3834737641297
 31
0
 12
229.3391045550089
 22
183.4258612735655
 32
0
 13
229.3391045550089
 23
183.4258612735655
 33
0
  0
SOLID
  5
184
100
AcDbEntity
  8
Bemaßung (ISO)
  6
ByBlock
 62
    0
370
   -2
100
AcDbTrace
 10
227.2630825937306
 20
181.3074518028514
 30
0
 11
227.3691680596263
 21
181.4559247781829
 31
0
 12
227.4115555690621
 22
181.4135372687471
 32
0
 13
227.4115555690621
 23
181.4135372687471
 33
0
  0
MTEXT
  5
185
100
AcDbEntity
  8
Bemaßung (ISO)
  6
CONTINUOUS
 62
    0
370
   -2
100
AcDbMText
 10
240.577264395589
 20
194.6216336047097
 30
0
 40
0.18
 41
0.6800000000000224
 71
    5
 72
    1
  1
3.1459
  7
Standard
210
0
220
0
230
1
 50
0
 73
    2
 44
1
  0
LINE
  5
186
100
AcDbEntity
  8
Bemaßung (ISO)
  6
ByBlock
 62
    0
370
   -2
100
AcDbLine
 10
217.5986901334087
 20
195.420834136393
 11
229.614856750954
 21
183.4046675188476
  0
LINE
  5
187
100
AcDbEntity
  8
Bemaßung (ISO)
  6
ByBlock
 62
    0
370
   -2
100
AcDbLine
 10
215.8082789039502
 20
192.762255492632
 11
227.3903618143442
 21
181.1801725822378
  0
ENDBLK
  5
88
330
86
100
AcDbEntity
  8
0
100
AcDbBlockEnd
  0
BLOCK
  5
8A
330
89
100
AcDbEntity
  8
0
100
AcDbBlockBegin
  2
*D2
 70
    1
 10
0
 20
0
  3
*D2
  1

  0
LINE
  5
188
100
AcDbEntity
  8
Bemaßung (ISO)
  6
ByBlock
 62
    0
370
   -2
100
AcDbLine
 10
310.7764633667796
 20
41.62569720660424
 11
336.26646336678
 21
41.62569720660424
  0
SOLID
  5
189
100
AcDbEntity
  8
Bemaßung (ISO)
  6
ByBlock
 62
    0
370
   -2
100
AcDbTrace
 10
310.7764633667796
 20
41.62569720660424
 30
0
 11
310.9564633667796
 21
41.65566970196388
 31
0
 12
310.9564633667796
 22
41.59572471124459
 32
0
 13
310.9564633667796
 23
41.59572471124459
 33
0
  0
SOLID
  5
18A
100
AcDbEntity
  8
Bemaßung (ISO)
  6
ByBlock
 62
    0
370
   -2
100
AcDbTrace
 10
362.7764633667796
 20
41.62569720660423
 30
0
 11
362.5964633667796
 21
41.59572471124459
 31
0
 12
362.5964633667796
 22
41.65566970196387
 32
0
 13
362.5964633667796
 23
41.65566970196387
 33
0
  0
LINE
  5
18B
100
AcDbEntity
  8
Bemaßung (ISO)
  6
ByBlock
 62
    0
370
   -2
100
AcDbLine
 10
337.28646336678
 20
41.62569720660424
 11
362.7764633667796
 21
41.62569720660423
  0
MTEXT
  5
18C
100
AcDbEntity
  8
Bemaßung (ISO)
  6
CONTINUOUS
 62
    0
370
   -2
100
AcDbMText
 10
336.77646336678
 20
41.62569720660423
 30
0
 40
0.18
 41
0.8400000000000112
 71
    5
 72
    1
  1
52.0000
  7
Standard
210
0
220
0
230
1
 50
0
 73
    2
 44
1
  0
LINE
  5
18D
100
AcDbEntity
  8
Bemaßung (ISO)
  6
ByBlock
 62
    0
370
   -2
100
AcDbLine
 10
310.7764633667796
 20
51.56319720660451
 11
310.7764633667796
 21
41.44569720660424
  0
LINE
  5
18E
100
AcDbEntity
  8
Bemaßung (ISO)
  6
ByBlock
 62
    0
370
   -2
100
AcDbLine
 10
362.7764633667796
 20
74.06319720660453
 11
362.7764633667796
 21
41.44569720660423
  0
ENDBLK
  5
8B
330
89
100
AcDbEntity
  8
0
100
AcDbBlockEnd
  0
BLOCK
  5
8D
330
8C
100
AcDbEntity
  8
0
100
AcDbBlockBegin
  2
*D1
 70
    1
 10
0
 20
0
  3
*D1
  1

  0
LINE
  5
18F
100
AcDbEntity
  8
Bemaßung (ISO)
  6
ByBlock
 62
    0
370
   -2
100
AcDbLine
 10
307.7764633667797
 20
41.62569720660419
 11
291.29646336678
 21
41.6256972066042
  0
SOLID
  5
190
100
AcDbEntity
  8
Bemaßung (ISO)
  6
ByBlock
 62
    0
370
   -2
100
AcDbTrace
 10
307.7764633667797
 20
41.62569720660419
 30
0
 11
307.5964633667797
 21
41.59572471124455
 31
0
 12
307.5964633667797
 22
41.65566970196384
 32
0
 13
307.5964633667797
 23
41.65566970196384
 33
0
  0
SOLID
  5
191
100
AcDbEntity
  8
Bemaßung (ISO)
  6
ByBlock
 62
    0
370
   -2
100
AcDbTrace
 10
273.7764633667796
 20
41.6256972066042
 30
0
 11
273.9564633667796
 21
41.65566970196384
 31
0
 12
273.9564633667796
 22
41.59572471124456
 32
0
 13
273.9564633667796
 23
41.59572471124456
 33
0
  0
LINE
  5
192
100
AcDbEntity
  8
Bemaßung (ISO)
  6
ByBlock
 62
    0
370
   -2
100
AcDbLine
 10
290.25646336678
 20
41.6256972066042
 11
273.7764633667796
 21
41.6256972066042
  0
MTEXT
  5
193
100
AcDbEntity
  8
Bemaßung (ISO)
  6
CONTINUOUS
 62
    0
370
   -2
100
AcDbMText
 10
290.77646336678
 20
41.6256972066042
 30
0
 40
0.18
 41
0.8600000000000112
 71
    5
 72
    1
  1
34.0000
  7
Standard
210
0
220
0
230
1
 50
0
 73
    2
 44
1
  0
LINE
  5
194
100
AcDbEntity
  8
Bemaßung (ISO)
  6
ByBlock
 62
    0
370
   -2
100
AcDbLine
 10
307.7764633667797
 20
51.56319720660449
 11
307.7764633667797
 21
41.44569720660419
  0
LINE
  5
195
100
AcDbEntity
  8
Bemaßung (ISO)
  6
ByBlock
 62
    0
370
   -2
100
AcDbLine
 10
273.7764633667796
 20
74.06319720660449
 11
273.7764633667796
 21
41.4456972066042
  0
ENDBLK
  5
8E
330
8C
100
AcDbEntity
  8
0
100
AcDbBlockEnd
  0
BLOCK
  5
90
330
8F
100
AcDbEntity
  8
0
100
AcDbBlockBegin
  2
*D17
 70
    1
 10
0
 20
0
  3
*D17
  1

  0
LINE
  5
196
100
AcDbEntity
  8
Bemaßung (ISO)
  6
ByBlock
 62
    0
370
   -2
100
AcDbLine
 10
217.1267831023346
 20
174.0064496664563
 11
189.3104339162306
 21
174.0064496664563
  0
SOLID
  5
197
100
AcDbEntity
  8
Bemaßung (ISO)
  6
ByBlock
 62
    0
370
   -2
100
AcDbTrace
 10
217.1267831023346
 20
174.0064496664563
 30
0
 11
216.9467831023346
 21
173.9764771710966
 31
0
 12
216.9467831023346
 22
174.0364221618159
 32
0
 13
216.9467831023346
 23
174.0364221618159
 33
0
  0
SOLID
  5
198
100
AcDbEntity
  8
Bemaßung (ISO)
  6
ByBlock
 62
    0
370
   -2
100
AcDbTrace
 10
160.5140847301266
 20
174.0064496664563
 30
0
 11
160.6940847301266
 21
174.0364221618159
 31
0
 12
160.6940847301266
 22
173.9764771710966
 32
0
 13
160.6940847301266
 23
173.9764771710966
 33
0
  0
LINE
  5
199
100
AcDbEntity
  8
Bemaßung (ISO)
  6
ByBlock
 62
    0
370
   -2
100
AcDbLine
 10
188.3304339162306
 20
174.0064496664563
 11
160.5140847301266
 21
174.0064496664563
  0
MTEXT
  5
19A
100
AcDbEntity
  8
Bemaßung (ISO)
  6
CONTINUOUS
 62
    0
370
   -2
100
AcDbMText
 10
188.8204339162306
 20
174.0064496664563
 30
0
 40
0.18
 41
0.8000000000000336
 71
    5
 72
    1
  1
56.6127
  7
Standard
210
0
220
0
230
1
 50
0
 73
    2
 44
1
  0
LINE
  5
19B
100
AcDbEntity
  8
Bemaßung (ISO)
  6
ByBlock
 62
    0
370
   -2
100
AcDbLine
 10
217.1267831023346
 20
183.9439496664563
 11
217.1267831023346
 21
173.8264496664563
  0
LINE
  5
19C
100
AcDbEntity
  8
Bemaßung (ISO)
  6
ByBlock
 62
    0
370
   -2
100
AcDbLine
 10
160.5140847301266
 20
183.9439496664562
 11
160.5140847301266
 21
173.8264496664563
  0
ENDBLK
  5
91
330
8F
100
AcDbEntity
  8
0
100
AcDbBlockEnd
  0
BLOCK
  5
93
330
92
100
AcDbEntity
  8
0
100
AcDbBlockBegin
  2
*D4
 70
    1
 10
0
 20
0
  3
*D4
  1

  0
SOLID
  5
19D
100
AcDbEntity
  8
Bemaßung (ISO)
  6
ByBlock
 62
    0
370
   -2
100
AcDbTrace
 10
368.4333176162729
 20
125.2825514560961
 30
0
 11
368.3272321503772
 21
125.1340784807647
 31
0
 12
368.2848446409415
 22
125.1764659902004
 32
0
 13
368.2848446409415
 23
125.1764659902004
 33
0
  0
LINE
  5
19E
100
AcDbEntity
  8
Bemaßung (ISO)
  6
ByBlock
 62
    0
370
   -2
100
AcDbLine
 10
362.7764633667797
 20
119.6256972066046
 11
368.4333176162729
 21
125.2825514560961
  0
MTEXT
  5
19F
100
AcDbEntity
  8
Bemaßung (ISO)
  6
CONTINUOUS
 62
    0
370
   -2
100
AcDbMText
 10
376.291198486479
 20
136.9795253562738
 30
0
 40
0.18
 41
0.7
 71
    5
 72
    1
  1
8.0000
  7
Standard
210
0
220
0
230
1
 50
44.99999999999129
 73
    2
 44
1
  0
ENDBLK
  5
94
330
92
100
AcDbEntity
  8
0
100
AcDbBlockEnd
  0
BLOCK
  5
96
330
95
100
AcDbEntity
  8
0
100
AcDbBlockBegin
  2
*D9
 70
    1
 10
0
 20
0
  3
*D9
  1

  0
LINE
  5
1A0
100
AcDbEntity
  8
Bemaßung (ISO)
  6
ByBlock
 62
    0
370
   -2
100
AcDbLine
 10
310.7764633667796
 20
156.0508316982441
 11
309.7164633667796
 21
156.0508316982441
  0
SOLID
  5
1A1
100
AcDbEntity
  8
Bemaßung (ISO)
  6
ByBlock
 62
    0
370
   -2
100
AcDbTrace
 10
310.7764633667796
 20
156.0508316982441
 30
0
 11
310.5964633667796
 21
156.0208592028845
 31
0
 12
310.5964633667796
 22
156.0808041936038
 32
0
 13
310.5964633667796
 23
156.0808041936038
 33
0
  0
SOLID
  5
1A2
100
AcDbEntity
  8
Bemaßung (ISO)
  6
ByBlock
 62
    0
370
   -2
100
AcDbTrace
 10
307.7764633667796
 20
156.0508316982441
 30
0
 11
307.9564633667796
 21
156.0808041936038
 31
0
 12
307.9564633667796
 22
156.0208592028845
 32
0
 13
307.9564633667796
 23
156.0208592028845
 33
0
  0
LINE
  5
1A3
100
AcDbEntity
  8
Bemaßung (ISO)
  6
ByBlock
 62
    0
370
   -2
100
AcDbLine
 10
308.8364633667796
 20
156.0508316982441
 11
307.7764633667796
 21
156.0508316982441
  0
MTEXT
  5
1A4
100
AcDbEntity
  8
Bemaßung (ISO)
  6
CONTINUOUS
 62
    0
370
   -2
100
AcDbMText
 10
309.2764633667796
 20
156.0508316982441
 30
0
 40
0.18
 41
0.7000000000000112
 71
    5
 72
    1
  1
3.0000
  7
Standard
210
0
220
0
230
1
 50
0
 73
    2
 44
1
  0
LINE
  5
1A5
100
AcDbEntity
  8
Bemaßung (ISO)
  6
ByBlock
 62
    0
370
   -2
100
AcDbLine
 10
310.7764633667796
 20
151.6881972066044
 11
310.7764633667796
 21
156.2308316982441
  0
LINE
  5
1A6
100
AcDbEntity
  8
Bemaßung (ISO)
  6
ByBlock
 62
    0
370
   -2
100
AcDbLine
 10
307.7764633667796
 20
151.6881972066044
 11
307.7764633667796
 21
156.2308316982441
  0
ENDBLK
  5
97
330
95
100
AcDbEntity
  8
0
100
AcDbBlockEnd
  0
BLOCK
  5
99
330
98
100
AcDbEntity
  8
0
100
AcDbBlockBegin
  2
*D12
 70
    1
 10
0
 20
0
  3
*D12
  1

  0
LINE
  5
1A7
100
AcDbEntity
  8
Bemaßung (ISO)
  6
ByBlock
 62
    0
370
   -2
100
AcDbLine
 10
135.7640847301261
 20
199.0064496664564
 11
135.7640847301261
 21
195.1864496664565
  0
SOLID
  5
1A8
100
AcDbEntity
  8
Bemaßung (ISO)
  6
ByBlock
 62
    0
370
   -2
100
AcDbTrace
 10
135.7640847301261
 20
199.0064496664564
 30
0
 11
135.7940572254857
 21
198.8264496664564
 31
0
 12
135.7341122347664
 22
198.8264496664564
 32
0
 13
135.7341122347664
 23
198.8264496664564
 33
0
  0
SOLID
  5
1A9
100
AcDbEntity
  8
Bemaßung (ISO)
  6
ByBlock
 62
    0
370
   -2
100
AcDbTrace
 10
135.7640847301261
 20
191.0064496664564
 30
0
 11
135.7341122347664
 21
191.1864496664564
 31
0
 12
135.7940572254857
 22
191.1864496664564
 32
0
 13
135.7940572254857
 23
191.1864496664564
 33
0
  0
LINE
  5
1AA
100
AcDbEntity
  8
Bemaßung (ISO)
  6
ByBlock
 62
    0
370
   -2
100
AcDbLine
 10
135.7640847301261
 20
194.8264496664565
 11
135.7640847301261
 21
191.0064496664564
  0
MTEXT
  5
1AB
100
AcDbEntity
  8
Bemaßung (ISO)
  6
CONTINUOUS
 62
    0
370
   -2
100
AcDbMText
 10
135.7640847301261
 20
195.0064496664565
 30
0
 40
0.18
 41
0.7
 71
    5
 72
    1
  1
8.0000
  7
Standard
210
0
220
0
230
1
 50
0
 73
    2
 44
1
  0
LINE
  5
1AC
100
AcDbEntity
  8
Bemaßung (ISO)
  6
ByBlock
 62
    0
370
   -2
100
AcDbLine
 10
145.7015847301261
 20
199.0064496664564
 11
135.5840847301261
 21
199.0064496664564
  0
LINE
  5
1AD
100
AcDbEntity
  8
Bemaßung (ISO)
  6
ByBlock
 62
    0
370
   -2
100
AcDbLine
 10
145.7015847301261
 20
191.0064496664564
 11
135.5840847301261
 21
191.0064496664564
  0
ENDBLK
  5
9A
330
98
100
AcDbEntity
  8
0
100
AcDbBlockEnd
  0
BLOCK
  5
9C
330
9B
100
AcDbEntity
  8
0
100
AcDbBlockBegin
  2
*D21
 70
    1
 10
0
 20
0
  3
*D21
  1

  0
LINE
  5
1AE
100
AcDbEntity
  8
Bemaßung (ISO)
  6
ByBlock
 62
    0
370
   -2
100
AcDbLine
 10
282.4668984725096
 20
270.5597684722288
 11
280.1720247383577
 21
272.8546422063806
  0
SOLID
  5
1AF
100
AcDbEntity
  8
Bemaßung (ISO)
  6
ByBlock
 62
    0
370
   -2
100
AcDbTrace
 10
282.4668984725096
 20
270.5597684722288
 30
0
 11
282.3184254971781
 21
270.6658539381245
 31
0
 12
282.3608130066139
 22
270.7082414475602
 32
0
 13
282.3608130066139
 23
270.7082414475602
 33
0
  0
SOLID
  5
1B0
100
AcDbEntity
  8
Bemaßung (ISO)
  6
ByBlock
 62
    0
370
   -2
100
AcDbTrace
 10
277.517151004206
 20
275.5095159405324
 30
0
 11
277.6656239795374
 21
275.4034304746367
 31
0
 12
277.6232364701017
 22
275.3610429652009
 32
0
 13
277.6232364701017
 23
275.3610429652009
 33
0
  0
LINE
  5
1B1
100
AcDbEntity
  8
Bemaßung (ISO)
  6
ByBlock
 62
    0
370
   -2
100
AcDbLine
 10
279.8120247383576
 20
273.2146422063806
 11
277.517151004206
 21
275.5095159405324
  0
MTEXT
  5
1B2
100
AcDbEntity
  8
Bemaßung (ISO)
  6
CONTINUOUS
 62
    0
370
   -2
100
AcDbMText
 10
279.9920247383578
 20
273.0346422063806
 30
0
 40
0.18
 41
0.7
 71
    5
 72
    1
  1
7.0000
  7
Standard
210
0
220
0
230
1
 50
0
 73
    2
 44
1
  0
LINE
  5
1B3
100
AcDbEntity
  8
Bemaßung (ISO)
  6
ByBlock
 62
    0
370
   -2
100
AcDbLine
 10
269.7831705849758
 20
257.876040584695
 11
282.5941776931231
 21
270.6870476928423
  0
LINE
  5
1B4
100
AcDbEntity
  8
Bemaßung (ISO)
  6
ByBlock
 62
    0
370
   -2
100
AcDbLine
 10
257.7623553048077
 20
255.7547202411341
 11
277.6444302248195
 21
275.6367951611459
  0
ENDBLK
  5
9D
330
9B
100
AcDbEntity
  8
0
100
AcDbBlockEnd
  0
BLOCK
  5
9F
330
9E
100
AcDbEntity
  8
0
100
AcDbBlockBegin
  2
*D13
 70
    1
 10
0
 20
0
  3
*D13
  1

  0
LINE
  5
1B5
100
AcDbEntity
  8
Bemaßung (ISO)
  6
ByBlock
 62
    0
370
   -2
100
AcDbLine
 10
105.109361752699
 20
206.0064496664563
 11
105.109361752699
 21
195.1864496664563
  0
SOLID
  5
1B6
100
AcDbEntity
  8
Bemaßung (ISO)
  6
ByBlock
 62
    0
370
   -2
100
AcDbTrace
 10
105.109361752699
 20
206.0064496664563
 30
0
 11
105.1393342480586
 21
205.8264496664563
 31
0
 12
105.0793892573394
 22
205.8264496664563
 32
0
 13
105.0793892573394
 23
205.8264496664563
 33
0
  0
SOLID
  5
1B7
100
AcDbEntity
  8
Bemaßung (ISO)
  6
ByBlock
 62
    0
370
   -2
100
AcDbTrace
 10
105.109361752699
 20
184.0064496664562
 30
0
 11
105.0793892573394
 21
184.1864496664562
 31
0
 12
105.1393342480586
 22
184.1864496664562
 32
0
 13
105.1393342480586
 23
184.1864496664562
 33
0
  0
LINE
  5
1B8
100
AcDbEntity
  8
Bemaßung (ISO)
  6
ByBlock
 62
    0
370
   -2
100
AcDbLine
 10
105.109361752699
 20
194.8264496664563
 11
105.109361752699
 21
184.0064496664562
  0
MTEXT
  5
1B9
100
AcDbEntity
  8
Bemaßung (ISO)
  6
CONTINUOUS
 62
    0
370
   -2
100
AcDbMText
 10
105.109361752699
 20
195.0064496664563
 30
0
 40
0.18
 41
0.8400000000000001
 71
    5
 72
    1
  1
22.0000
  7
Standard
210
0
220
0
230
1
 50
0
 73
    2
 44
1
  0
LINE
  5
1BA
100
AcDbEntity
  8
Bemaßung (ISO)
  6
ByBlock
 62
    0
370
   -2
100
AcDbLine
 10
160.4515847301266
 20
206.0064496664563
 11
104.929361752699
 21
206.0064496664563
  0
LINE
  5
1BB
100
AcDbEntity
  8
Bemaßung (ISO)
  6
ByBlock
 62
    0
370
   -2
100
AcDbLine
 10
160.4515847301266
 20
184.0064496664562
 11
104.929361752699
 21
184.0064496664562
  0
ENDBLK
  5
A0
330
9E
100
AcDbEntity
  8
0
100
AcDbBlockEnd
  0
BLOCK
  5
A2
330
A1
100
AcDbEntity
  8
0
100
AcDbBlockBegin
  2
*D6
 70
    1
 10
0
 20
0
  3
*D6
  1

  0
LINE
  5
1BC
100
AcDbEntity
  8
Bemaßung (ISO)
  6
ByBlock
 62
    0
370
   -2
100
AcDbLine
 10
338.6875949688988
 20
124.6256972066045
 11
338.6875949688988
 21
101.8056972066045
  0
SOLID
  5
1BD
100
AcDbEntity
  8
Bemaßung (ISO)
  6
ByBlock
 62
    0
370
   -2
100
AcDbTrace
 10
338.6875949688988
 20
124.6256972066045
 30
0
 11
338.7175674642584
 21
124.4456972066045
 31
0
 12
338.6576224735392
 22
124.4456972066045
 32
0
 13
338.6576224735392
 23
124.4456972066045
 33
0
  0
SOLID
  5
1BE
100
AcDbEntity
  8
Bemaßung (ISO)
  6
ByBlock
 62
    0
370
   -2
100
AcDbTrace
 10
338.6875949688988
 20
78.62569720660451
 30
0
 11
338.6576224735392
 21
78.80569720660452
 31
0
 12
338.7175674642584
 22
78.80569720660452
 32
0
 13
338.7175674642584
 23
78.80569720660452
 33
0
  0
LINE
  5
1BF
100
AcDbEntity
  8
Bemaßung (ISO)
  6
ByBlock
 62
    0
370
   -2
100
AcDbLine
 10
338.6875949688988
 20
101.4456972066045
 11
338.6875949688988
 21
78.62569720660451
  0
MTEXT
  5
1C0
100
AcDbEntity
  8
Bemaßung (ISO)
  6
CONTINUOUS
 62
    0
370
   -2
100
AcDbMText
 10
338.6875949688987
 20
101.6256972066045
 30
0
 40
0.18
 41
0.8600000000000112
 71
    5
 72
    1
  1
46.0000
  7
Standard
210
0
220
0
230
1
 50
0
 73
    2
 44
1
  0
LINE
  5
1C1
100
AcDbEntity
  8
Bemaßung (ISO)
  6
ByBlock
 62
    0
370
   -2
100
AcDbLine
 10
333.2208109281707
 20
124.6256972066045
 11
338.8675949688988
 21
124.6256972066045
  0
LINE
  5
1C2
100
AcDbEntity
  8
Bemaßung (ISO)
  6
ByBlock
 62
    0
370
   -2
100
AcDbLine
 10
333.2208109281707
 20
78.62569720660451
 11
338.8675949688988
 21
78.62569720660451
  0
ENDBLK
  5
A3
330
A1
100
AcDbEntity
  8
0
100
AcDbBlockEnd
  0
BLOCK
  5
A5
330
A4
100
AcDbEntity
  8
0
100
AcDbBlockBegin
  2
*D22
 70
    1
 10
0
 20
0
  3
*D22
  1

  0
LINE
  5
1C3
100
AcDbEntity
  8
Bemaßung (ISO)
  6
ByBlock
 62
    0
370
   -2
100
AcDbLine
 10
298.7303544397996
 20
265.6100210039232
 11
296.4354807056469
 21
267.9048947380759
  0
SOLID
  5
1C4
100
AcDbEntity
  8
Bemaßung (ISO)
  6
ByBlock
 62
    0
370
   -2
100
AcDbTrace
 10
298.7303544397996
 20
265.6100210039232
 30
0
 11
298.5818814644682
 21
265.7161064698189
 31
0
 12
298.6242689739039
 22
265.7584939792546
 32
0
 13
298.6242689739039
 23
265.7584939792546
 33
0
  0
SOLID
  5
1C5
100
AcDbEntity
  8
Bemaßung (ISO)
  6
ByBlock
 62
    0
370
   -2
100
AcDbTrace
 10
293.7806069714942
 20
270.5597684722286
 30
0
 11
293.9290799468257
 21
270.4536830063329
 31
0
 12
293.8866924373899
 22
270.4112954968971
 32
0
 13
293.8866924373899
 23
270.4112954968971
 33
0
  0
LINE
  5
1C6
100
AcDbEntity
  8
Bemaßung (ISO)
  6
ByBlock
 62
    0
370
   -2
100
AcDbLine
 10
296.0754807056469
 20
268.2648947380759
 11
293.7806069714942
 21
270.5597684722286
  0
MTEXT
  5
1C7
100
AcDbEntity
  8
Bemaßung (ISO)
  6
CONTINUOUS
 62
    0
370
   -2
100
AcDbMText
 10
296.2554807056469
 20
268.0848947380759
 30
0
 40
0.18
 41
0.7
 71
    5
 72
    1
  1
7.0000
  7
Standard
210
0
220
0
230
1
 50
0
 73
    2
 44
1
  0
LINE
  5
1C8
100
AcDbEntity
  8
Bemaßung (ISO)
  6
ByBlock
 62
    0
370
   -2
100
AcDbLine
 10
273.3187044909059
 20
240.1983710550294
 11
298.8576336604132
 21
265.7373002245367
  0
LINE
  5
1C9
100
AcDbEntity
  8
Bemaßung (ISO)
  6
ByBlock
 62
    0
370
   -2
100
AcDbLine
 10
275.4400248344683
 20
252.2191863352026
 11
293.9078861921078
 21
270.6870476928422
  0
ENDBLK
  5
A6
330
A4
100
AcDbEntity
  8
0
100
AcDbBlockEnd
  0
BLOCK
  5
A8
330
A7
100
AcDbEntity
  8
0
100
AcDbBlockBegin
  2
Filled-1
 70
    0
 10
0
 20
0
  3
Filled-1
  1

  0
LINE
  5
1CA
100
AcDbEntity
  8
0
  6
ByLayer
 62
    0
370
   -1
100
AcDbLine
 10
-1
 20
0
 11
0
 21
0
  0
LWPOLYLINE
  5
1CB
100
AcDbEntity
  8
0
  6
ByLayer
 62
    0
370
   -1
100
AcDbPolyline
 90
    4
 70
    0
 43
0
 10
-1
 20
-0.1
 10
0
 20
0
 10
-1
 20
0.1
 10
-1
 20
-0.1
  0
SOLID
  5
1CC
100
AcDbEntity
  8
0
  6
ByLayer
 62
    0
370
   -1
100
AcDbTrace
 10
-1
 20
-0.1
 30
0
 11
0
 21
0
 31
0
 12
-1
 22
0.1
 32
0
 13
-1
 23
-0.1
 33
0
  0
LINE
  5
1CD
100
AcDbEntity
  8
0
  6
ByLayer
 62
    0
370
   -1
100
AcDbLine
 10
-1
 20
-0.1
 11
0
 21
0
  0
LINE
  5
1CE
100
AcDbEntity
  8
0
  6
ByLayer
 62
    0
370
   -1
100
AcDbLine
 10
0
 20
0
 11
-1
 21
0.1
  0
LINE
  5
1CF
100
AcDbEntity
  8
0
  6
ByLayer
 62
    0
370
   -1
100
AcDbLine
 10
-1
 20
0.1
 11
-1
 21
-0.1
  0
ENDBLK
  5
A9
330
A7
100
AcDbEntity
  8
0
100
AcDbBlockEnd
  0
BLOCK
  5
AB
330
AA
100
AcDbEntity
  8
0
100
AcDbBlockBegin
  2
DatumFilled45
 70
    0
 10
0
 20
0
  3
DatumFilled45
  1

  0
LWPOLYLINE
  5
1D0
100
AcDbEntity
  8
0
  6
ByLayer
 62
    0
370
   -1
100
AcDbPolyline
 90
    4
 70
    0
 43
0
 10
0
 20
1
 10
0
 20
-1
 10
-1
 20
0
 10
0
 20
1
  0
SOLID
  5
1D1
100
AcDbEntity
  8
0
  6
ByLayer
 62
    0
370
   -1
100
AcDbTrace
 10
0
 20
1
 30
0
 11
0
 21
-1
 31
0
 12
-1
 22
0
 32
0
 13
0
 23
1
 33
0
  0
ENDBLK
  5
AC
330
AA
100
AcDbEntity
  8
0
100
AcDbBlockEnd
  0
BLOCK
  5
AE
330
AD
100
AcDbEntity
  8
0
100
AcDbBlockBegin
  2
Glasbearbeitung
 70
    0
 10
0
 20
0
  3
Glasbearbeitung
  1

  0
MTEXT
  5
1D2
100
AcDbEntity
  8
Symbole(DIN)
  6
ByLayer
 62
    7
370
   -1
100
AcDbMText
 10
-36.95807933807373
 20
2.29287352412939
 30
0
 40
3.499999940395355
 41
131.0555551236998
 71
    1
 72
    1
  1
\fArial|b0|i0;\H3.5000;Alle Kanten geschliffen und poliert
  7
aktuell-din
210
0
220
0
230
1
 50
0
 73
    1
 44
1
  0
ENDBLK
  5
AF
330
AD
100
AcDbEntity
  8
0
100
AcDbBlockEnd
  0
BLOCK
  5
B1
330
B0
100
AcDbEntity
  8
0
100
AcDbBlockBegin
  2
unbemaßte_Kanten
 70
    0
 10
0
 20
0
  3
unbemaßte_Kanten
  1

  0
MTEXT
  5
1D3
100
AcDbEntity
  8
Symbole(DIN)
  6
ByLayer
 62
    7
370
   -1
100
AcDbMText
 10
-25.81729110330343
 20
1.518673673272132
 30
0
 40
2.5
 41
124.9305568412757
 71
    1
 72
    1
  1
unbemaßte Kanten 0,2x45\fAIGDT|b0|i0;\H2.5000;~\fArial|b0|i0;\H2.5000; fasen
  7
aktuell-din
210
0
220
0
230
1
 50
0
 73
    1
 44
1
  0
ENDBLK
  5
B2
330
B0
100
AcDbEntity
  8
0
100
AcDbBlockEnd
  0
BLOCK
  5
B4
330
B3
100
AcDbEntity
  8
0
100
AcDbBlockBegin
  2
Schleifrichtung
 70
    0
 10
0
 20
0
  3
Schleifrichtung
  1

  0
HATCH
  5
1D4
100
AcDbEntity
  8
Schraffur
  6
ByLayer
 62
  179
420
2500185
370
   -1
100
AcDbHatch
 10
0
 20
0
 30
0
210
0
220
0
230
1
  2
SOLID
 70
    1
 71
    0
 91
    1
 92
    0
 93
    3
 72
    1
 10
0
 20
5
 11
-0.4999999999999983
 21
2.78774508444858
 72
    1
 10
-0.4999999999999983
 20
2.78774508444858
 11
0.4999999999999983
 21
2.78774508444858
 72
    1
 10
0.4999999999999983
 20
2.78774508444858
 11
0
 21
5
 97
    0
 75
    0
 76
    1
 98
    0
  0
HATCH
  5
1D5
100
AcDbEntity
  8
Schraffur
  6
ByLayer
 62
  179
420
2500185
370
   -1
100
AcDbHatch
 10
0
 20
0
 30
0
210
0
220
0
230
1
  2
SOLID
 70
    1
 71
    0
 91
    1
 92
    0
 93
    3
 72
    1
 10
0
 20
-5
 11
0.4999999999999983
 21
-2.78774508444858
 72
    1
 10
0.4999999999999983
 20
-2.78774508444858
 11
-0.4999999999999983
 21
-2.78774508444858
 72
    1
 10
-0.4999999999999983
 20
-2.78774508444858
 11
0
 21
-5
 97
    0
 75
    0
 76
    1
 98
    0
  0
LINE
  5
1D6
100
AcDbEntity
  8
Skizziergeometrie(DIN)
  6
ByLayer
 62
  256
370
   -1
100
AcDbLine
 10
0
 20
5
 11
0
 21
-5
  0
LINE
  5
1D7
100
AcDbEntity
  8
Skizziergeometrie(DIN)
  6
ByLayer
 62
  256
370
   -1
100
AcDbLine
 10
0
 20
5
 11
-0.4999999999999983
 21
2.78774508444858
  0
LINE
  5
1D8
100
AcDbEntity
  8
Skizziergeometrie(DIN)
  6
ByLayer
 62
  256
370
   -1
100
AcDbLine
 10
-0.4999999999999983
 20
2.78774508444858
 11
0.4999999999999983
 21
2.78774508444858
  0
LINE
  5
1D9
100
AcDbEntity
  8
Skizziergeometrie(DIN)
  6
ByLayer
 62
  256
370
   -1
100
AcDbLine
 10
0.4999999999999983
 20
2.78774508444858
 11
0
 21
5
  0
LINE
  5
1DA
100
AcDbEntity
  8
Skizziergeometrie(DIN)
  6
ByLayer
 62
  256
370
   -1
100
AcDbLine
 10
0
 20
-5
 11
-0.4999999999999983
 21
-2.78774508444858
  0
LINE
  5
1DB
100
AcDbEntity
  8
Skizziergeometrie(DIN)
  6
ByLayer
 62
  256
370
   -1
100
AcDbLine
 10
-0.4999999999999983
 20
-2.78774508444858
 11
0.4999999999999983
 21
-2.78774508444858
  0
LINE
  5
1DC
100
AcDbEntity
  8
Skizziergeometrie(DIN)
  6
ByLayer
 62
  256
370
   -1
100
AcDbLine
 10
0.4999999999999983
 20
-2.78774508444858
 11
0
 21
-5
  0
ENDBLK
  5
B5
330
B3
100
AcDbEntity
  8
0
100
AcDbBlockEnd
  0
BLOCK
  5
B7
330
B6
100
AcDbEntity
  8
0
100
AcDbBlockBegin
  2
Senkung DIN 974-1 für Zylinderkopfschrauben
 70
    0
 10
0
 20
0
  3
Senkung DIN 974-1 für Zylinderkopfschrauben
  1

  0
MTEXT
  5
1DD
100
AcDbEntity
  8
Symbole(DIN)
  6
ByLayer
 62
    7
370
   -1
100
AcDbMText
 10
-22.51524209976196
 20
1.639672182500362
 30
0
 40
2.5
 41
45.90277696999526
 71
    1
 72
    1
  1
Senkung DIN 974-1 (Reihe1)
  7
aktuell-din
210
0
220
0
230
1
 50
0
 73
    1
 44
1
  0
ENDBLK
  5
B8
330
B6
100
AcDbEntity
  8
0
100
AcDbBlockEnd
  0
BLOCK
  5
BA
330
B9
100
AcDbEntity
  8
0
100
AcDbBlockBegin
  2
Senkung DIN 74-1 B (f) f. Senkschrauben
 70
    0
 10
0
 20
0
  3
Senkung DIN 74-1 B (f) f. Senkschrauben
  1

  0
MTEXT
  5
1DE
100
AcDbEntity
  8
Symbole(DIN)
  6
ByLayer
 62
    7
370
   -1
100
AcDbMText
 10
-18.14691185951233
 20
1.639672182500362
 30
0
 40
2.5
 41
39.4444436366618
 71
    1
 72
    1
  1
Senkung DIN 74-1 B (f)
  7
aktuell-din
210
0
220
0
230
1
 50
0
 73
    1
 44
1
  0
ENDBLK
  5
BB
330
B9
100
AcDbEntity
  8
0
100
AcDbBlockEnd
  0
BLOCK
  5
BD
330
BC
100
AcDbEntity
  8
0
100
AcDbBlockBegin
  2
Rz4(Rz16)
 70
    0
 10
0
 20
0
  3
Rz4(Rz16)
  1

  0
LINE
  5
1DF
100
AcDbEntity
  8
Skizziergeometrie(DIN)
  6
ByLayer
 62
  256
370
   -1
100
AcDbLine
 10
-13.35665995719496
 20
-0.624154925091176
 11
-11.35665995719495
 21
-4.124154925091172
  0
LINE
  5
1E0
100
AcDbEntity
  8
Skizziergeometrie(DIN)
  6
ByLayer
 62
  256
370
   -1
100
AcDbLine
 10
-11.35665995719495
 20
-4.124154925091172
 11
-9.356659957194953
 21
-0.624154925091176
  0
LINE
  5
1E1
100
AcDbEntity
  8
Skizziergeometrie(DIN)
  6
ByLayer
 62
  256
370
   -1
100
AcDbLine
 10
-9.356659957194953
 20
-0.624154925091176
 11
-13.35665995719496
 21
-0.624154925091176
  0
LINE
  5
1E2
100
AcDbEntity
  8
Skizziergeometrie(DIN)
  6
ByLayer
 62
  256
370
   -1
100
AcDbLine
 10
-9.356659957194953
 20
-0.624154925091176
 11
-6.643340042805041
 21
4.12415492509119
  0
LINE
  5
1E3
100
AcDbEntity
  8
Skizziergeometrie(DIN)
  6
ByLayer
 62
  256
370
   -1
100
AcDbLine
 10
-6.643340042805041
 20
4.12415492509119
 11
13.35665995719496
 21
4.124154925091172
  0
MTEXT
  5
1E4
100
AcDbEntity
  8
Symbole(DIN)
  6
ByLayer
 62
    7
370
   -1
100
AcDbMText
 10
-6.476606384140213
 20
3.265635088166192
 30
0
 40
2.5
 41
20.90277750000016
 71
    1
 72
    1
  1
Rz 4 (Rz 16)
  7
aktuell-din
210
0
220
0
230
1
 50
0
 73
    1
 44
1
  0
ENDBLK
  5
BE
330
BC
100
AcDbEntity
  8
0
100
AcDbBlockEnd
  0
BLOCK
  5
C0
330
BF
100
AcDbEntity
  8
0
100
AcDbBlockBegin
  2
Rz16(Rz4)
 70
    0
 10
0
 20
0
  3
Rz16(Rz4)
  1

  0
LINE
  5
1E5
100
AcDbEntity
  8
Skizziergeometrie(DIN)
  6
ByLayer
 62
  256
370
   -1
100
AcDbLine
 10
-13.35665995719496
 20
-0.624154925091176
 11
-11.35665995719495
 21
-4.124154925091172
  0
LINE
  5
1E6
100
AcDbEntity
  8
Skizziergeometrie(DIN)
  6
ByLayer
 62
  256
370
   -1
100
AcDbLine
 10
-11.35665995719495
 20
-4.124154925091172
 11
-9.356659957194953
 21
-0.624154925091176
  0
LINE
  5
1E7
100
AcDbEntity
  8
Skizziergeometrie(DIN)
  6
ByLayer
 62
  256
370
   -1
100
AcDbLine
 10
-9.356659957194953
 20
-0.624154925091176
 11
-13.35665995719496
 21
-0.624154925091176
  0
LINE
  5
1E8
100
AcDbEntity
  8
Skizziergeometrie(DIN)
  6
ByLayer
 62
  256
370
   -1
100
AcDbLine
 10
-9.356659957194953
 20
-0.624154925091176
 11
-6.643340042805041
 21
4.12415492509119
  0
LINE
  5
1E9
100
AcDbEntity
  8
Skizziergeometrie(DIN)
  6
ByLayer
 62
  256
370
   -1
100
AcDbLine
 10
-6.643340042805041
 20
4.12415492509119
 11
13.35665995719496
 21
4.124154925091172
  0
MTEXT
  5
1EA
100
AcDbEntity
  8
Symbole(DIN)
  6
ByLayer
 62
    7
370
   -1
100
AcDbMText
 10
-6.476606384140213
 20
3.265635088166192
 30
0
 40
2.5
 41
20.90277750000016
 71
    1
 72
    1
  1
Rz 16 (Rz 4)
  7
aktuell-din
210
0
220
0
230
1
 50
0
 73
    1
 44
1
  0
ENDBLK
  5
C1
330
BF
100
AcDbEntity
  8
0
100
AcDbBlockEnd
  0
BLOCK
  5
C3
330
C2
100
AcDbEntity
  8
0
100
AcDbBlockBegin
  2
unbemaßte_Kanten 0_5
 70
    0
 10
0
 20
0
  3
unbemaßte_Kanten 0_5
  1

  0
MTEXT
  5
1EB
100
AcDbEntity
  8
Symbole(DIN)
  6
ByLayer
 62
    7
370
   -1
100
AcDbMText
 10
-25.81729110330343
 20
1.518673673272132
 30
0
 40
2.5
 41
124.9305568412758
 71
    1
 72
    1
  1
unbemaßte Kanten 0,5x45\fAIGDT|b0|i0;\H2.5000;~\fArial|b0|i0;\H2.5000; fasen
  7
aktuell-din
210
0
220
0
230
1
 50
0
 73
    1
 44
1
  0
ENDBLK
  5
C4
330
C2
100
AcDbEntity
  8
0
100
AcDbBlockEnd
  0
BLOCK
  5
C6
330
C5
100
AcDbEntity
  8
0
100
AcDbBlockBegin
  2
unbemaßte_Kanten 1
 70
    0
 10
0
 20
0
  3
unbemaßte_Kanten 1
  1

  0
MTEXT
  5
1EC
100
AcDbEntity
  8
Symbole(DIN)
  6
ByLayer
 62
    7
370
   -1
100
AcDbMText
 10
-24.36149891465902
 20
1.291920635849237
 30
0
 40
2.5
 41
121.4583346190534
 71
    1
 72
    1
  1
unbemaßte Kanten 1x45\fAIGDT|b0|i0;\H2.5000;~\fArial|b0|i0;\H2.5000; fasen
  7
aktuell-din
210
0
220
0
230
1
 50
0
 73
    1
 44
1
  0
ENDBLK
  5
C7
330
C5
100
AcDbEntity
  8
0
100
AcDbBlockEnd
  0
BLOCK
  5
C9
330
C8
100
AcDbEntity
  8
0
100
AcDbBlockBegin
  2
Schleifrichtung rund
 70
    0
 10
0
 20
0
  3
Schleifrichtung rund
  1

  0
HATCH
  5
1ED
100
AcDbEntity
  8
Schraffur
  6
ByLayer
 62
  179
420
2500185
370
   -1
100
AcDbHatch
 10
0
 20
0
 30
0
210
0
220
0
230
1
  2
SOLID
 70
    1
 71
    0
 91
    1
 92
    0
 93
    3
 72
    1
 10
2.685970543868814
 20
1.033598154028645
 11
1.500695516670456
 21
2.910062754248521
 72
    1
 10
1.500695516670456
 20
2.910062754248521
 11
0.8087002570814227
 21
2.218067494659514
 72
    1
 10
0.8087002570814227
 20
2.218067494659514
 11
2.685970543868814
 21
1.033598154028645
 97
    0
 75
    0
 76
    1
 98
    0
  0
HATCH
  5
1EE
100
AcDbEntity
  8
Schraffur
  6
ByLayer
 62
  179
420
2500185
370
   -1
100
AcDbHatch
 10
0
 20
0
 30
0
210
0
220
0
230
1
  2
SOLID
 70
    1
 71
    0
 91
    1
 92
    0
 93
    3
 72
    1
 10
2.746159792612967
 20
-0.9654959543953012
 11
0.9437208322689283
 21
-2.260567411965119
 72
    1
 10
0.9437208322689283
 20
-2.260567411965119
 11
1.675752716096035
 21
-2.910062754248556
 72
    1
 10
1.675752716096035
 20
-2.910062754248556
 11
2.746159792612967
 21
-0.9654959543953012
 97
    0
 75
    0
 76
    1
 98
    0
  0
LINE
  5
1EF
100
AcDbEntity
  8
Skizziergeometrie(DIN)
  6
ByLayer
 62
  256
370
   -1
100
AcDbLine
 10
2.685970543868814
 20
1.033598154028645
 11
1.500695516670456
 21
2.910062754248521
  0
LINE
  5
1F0
100
AcDbEntity
  8
Skizziergeometrie(DIN)
  6
ByLayer
 62
  256
370
   -1
100
AcDbLine
 10
1.500695516670456
 20
2.910062754248521
 11
0.8087002570814227
 21
2.218067494659514
  0
LINE
  5
1F1
100
AcDbEntity
  8
Skizziergeometrie(DIN)
  6
ByLayer
 62
  256
370
   -1
100
AcDbLine
 10
0.8087002570814227
 20
2.218067494659514
 11
2.685970543868814
 21
1.033598154028645
  0
LINE
  5
1F2
100
AcDbEntity
  8
Skizziergeometrie(DIN)
  6
ByLayer
 62
  256
370
   -1
100
AcDbLine
 10
2.746159792612967
 20
-0.9654959543953012
 11
1.675752716096035
 21
-2.910062754248556
  0
LINE
  5
1F3
100
AcDbEntity
  8
Skizziergeometrie(DIN)
  6
ByLayer
 62
  256
370
   -1
100
AcDbLine
 10
1.675752716096035
 20
-2.910062754248556
 11
0.9437208322689283
 21
-2.260567411965119
  0
LINE
  5
1F4
100
AcDbEntity
  8
Skizziergeometrie(DIN)
  6
ByLayer
 62
  256
370
   -1
100
AcDbLine
 10
0.9437208322689283
 20
-2.260567411965119
 11
2.746159792612967
 21
-0.9654959543953012
  0
ARC
  5
1F5
100
AcDbEntity
  8
Skizziergeometrie (ISO)
  6
ByLayer
 62
  256
370
   -1
100
AcDbCircle
 10
0.07706842498974351
 20
-0.0454045049720975
 40
2.823228117602702
100
AcDbArc
 50
67.56090338518598
 51
295.8882073090315
  0
ENDBLK
  5
CA
330
C8
100
AcDbEntity
  8
0
100
AcDbBlockEnd
  0
BLOCK
  5
CC
330
CB
100
AcDbEntity
  8
0
100
AcDbBlockBegin
  2
Prototyp
 70
    0
 10
0
 20
0
  3
Prototyp
  1

  0
MTEXT
  5
1F6
100
AcDbEntity
  8
Symbol (ISO)
  6
ByLayer
 62
    1
370
   -1
100
AcDbMText
 10
-38.43368768692016
 20
5.167682543396949
 30
0
 40
10
 41
232.2222222222232
 71
    1
 72
    1
  1
\fArial|b1|i0;\H10.0000;\LPROTOTYP\l
  7
notiztext (din)
210
0
220
0
230
1
 50
0
 73
    1
 44
1
  0
ENDBLK
  5
CD
330
CB
100
AcDbEntity
  8
0
100
AcDbBlockEnd
  0
BLOCK
  5
CF
330
CE
100
AcDbEntity
  8
0
100
AcDbBlockBegin
  2
Freigabe
 70
    0
 10
0
 20
0
  3
Freigabe
  1

  0
MTEXT
  5
1F7
100
AcDbEntity
  8
Symbole(DIN)
  6
ByLayer
 62
    7
370
   -1
100
AcDbMText
 10
-44.64234352111816
 20
18.7593937292695
 30
0
 40
3.499999940395355
 41
191.6249967366486
 71
    1
 72
    1
  1
\fArial|b1|i0;\H3.5000;\LWir bitten um Freigabe zur Fertigung:\l\fArial|b1|i0;\H3.5000;\P\fArial|b0|i0;\H3.5000; \PDatum:___________________________\P \PName: ___________________________\P \PUnterschrift:_______________________
  7
aktuell-din
210
0
220
0
230
1
 50
0
 73
    2
 44
0.9442214965820312
  0
ENDBLK
  5
D0
330
CE
100
AcDbEntity
  8
0
100
AcDbBlockEnd
  0
BLOCK
  5
D2
330
D1
100
AcDbEntity
  8
0
100
AcDbBlockBegin
  2
Freigabe(Englisch)
 70
    0
 10
0
 20
0
  3
Freigabe(Englisch)
  1

  0
MTEXT
  5
1F8
100
AcDbEntity
  8
Symbole(DIN)
  6
ByLayer
 62
    7
370
   -1
100
AcDbMText
 10
-44.64234352111816
 20
18.75806000083685
 30
0
 40
3.499999940395355
 41
161.6805528021524
 71
    1
 72
    1
  1
\fArial|b1|i0;\H3.5000;\LWe ask for release for our production:\P\l\fArial|b0|i0;\H3.5000; \PDate:___________________________\P \PName: ___________________________\P \PSignature:_______________________
  7
aktuell-din
210
0
220
0
230
1
 50
0
 73
    2
 44
0.9442214965820312
  0
ENDBLK
  5
D3
330
D1
100
AcDbEntity
  8
0
100
AcDbBlockEnd
  0
BLOCK
  5
D5
330
D4
100
AcDbEntity
  8
0
100
AcDbBlockBegin
  2
Freigabe(Französisch)
 70
    0
 10
0
 20
0
  3
Freigabe(Französisch)
  1

  0
MTEXT
  5
1F9
100
AcDbEntity
  8
Symbole(DIN)
  6
ByLayer
 62
    7
370
   -1
100
AcDbMText
 10
-59.52934741973876
 20
18.78740441054105
 30
0
 40
3.499999940395355
 41
171.4027802588235
 71
    1
 72
    1
  1
\fArial|b1|i0;\H3.5000;\LNous demandons l'autorisation pour la production:\P\l\fArial|b0|i0;\H3.5000; \PDate:___________________________\P \PNom: ___________________________\P \PSignature:_______________________
  7
aktuell-din
210
0
220
0
230
1
 50
0
 73
    2
 44
0.9442214965820312
  0
ENDBLK
  5
D6
330
D4
100
AcDbEntity
  8
0
100
AcDbBlockEnd
  0
BLOCK
  5
D8
330
D7
100
AcDbEntity
  8
0
100
AcDbBlockBegin
  2
Freigabe(Spanisch)
 70
    0
 10
0
 20
0
  3
Freigabe(Spanisch)
  1

  0
MTEXT
  5
1FA
100
AcDbEntity
  8
Symbole(DIN)
  6
ByLayer
 62
    7
370
   -1
100
AcDbMText
 10
-46.81517124176025
 20
18.71937859803438
 30
0
 40
3.499999940395355
 41
166.7361082716124
 71
    1
 72
    1
  1
\fArial|b1|i0;\H3.5000;\LPor favor, dénos permiso para producir:\P\l\fArial|b0|i0;\H3.5000; \PFecha:___________________________\P \PNombre: ___________________________\P \PFirma:_______________________
  7
aktuell-din
210
0
220
0
230
1
 50
0
 73
    2
 44
0.9442214965820312
  0
ENDBLK
  5
D9
330
D7
100
AcDbEntity
  8
0
100
AcDbBlockEnd
  0
BLOCK
  5
DB
330
DA
100
AcDbEntity
  8
0
100
AcDbBlockBegin
  2
Schleifrichtung 30°
 70
    0
 10
0
 20
0
  3
Schleifrichtung 30°
  1

  0
MTEXT
  5
1FB
100
AcDbEntity
  8
Symbol (ISO)
  6
ByLayer
 62
  256
370
   -1
100
AcDbMText
 10
-1.291992841288447
 20
2.237797244126866
 30
0
 40
2.000000029802322
 41
45.77777803591607
 71
    2
 72
    1
  1
\fAIGDT|b0|i0;\H2.0000;#\P\fArial|b0|i0;\H2.0000;Schleifrichtung
  7
notiztext (din)
210
0
220
0
230
1
 50
29.99999999999999
 73
    2
 44
0.75
  0
ENDBLK
  5
DC
330
DA
100
AcDbEntity
  8
0
100
AcDbBlockEnd
  0
BLOCK
  5
DE
330
DD
100
AcDbEntity
  8
0
100
AcDbBlockBegin
  2
Schleifrichtung 60°
 70
    0
 10
0
 20
0
  3
Schleifrichtung 60°
  1

  0
MTEXT
  5
1FC
100
AcDbEntity
  8
Symbol (ISO)
  6
ByLayer
 62
  256
370
   -1
100
AcDbMText
 10
-2.237797244126848
 20
1.291992841288447
 30
0
 40
2.000000029802322
 41
45.77777803591607
 71
    2
 72
    1
  1
\fAIGDT|b0|i0;\H2.0000;#\P\fArial|b0|i0;\H2.0000;Schleifrichtung
  7
notiztext (din)
210
0
220
0
230
1
 50
60.00000000000004
 73
    2
 44
0.75
  0
ENDBLK
  5
DF
330
DD
100
AcDbEntity
  8
0
100
AcDbBlockEnd
  0
BLOCK
  5
E1
330
E0
100
AcDbEntity
  8
0
100
AcDbBlockBegin
  2
Schleifrichtung 40°
 70
    0
 10
0
 20
0
  3
Schleifrichtung 40°
  1

  0
MTEXT
  5
1FD
100
AcDbEntity
  8
Symbol (ISO)
  6
ByLayer
 62
  256
370
   -1
100
AcDbMText
 10
-1.660953980367843
 20
1.979447873236992
 30
0
 40
2.000000029802322
 41
45.77777803591607
 71
    2
 72
    1
  1
\fAIGDT|b0|i0;\H2.0000;#\P\fArial|b0|i0;\H2.0000;Schleifrichtung
  7
notiztext (din)
210
0
220
0
230
1
 50
39.99999999999999
 73
    2
 44
0.75
  0
ENDBLK
  5
E2
330
E0
100
AcDbEntity
  8
0
100
AcDbBlockEnd
  0
BLOCK
  5
E4
330
E3
100
AcDbEntity
  8
0
100
AcDbBlockBegin
  2
Schleifrichtung 90°
 70
    0
 10
0
 20
0
  3
Schleifrichtung 90°
  1

  0
MTEXT
  5
1FE
100
AcDbEntity
  8
Symbol (ISO)
  6
ByLayer
 62
  256
370
   -1
100
AcDbMText
 10
-2.583985682576894
 20
0
 30
0
 40
2.000000029802322
 41
45.77777803591607
 71
    2
 72
    1
  1
\fAIGDT|b0|i0;\H2.0000;#\P\fArial|b0|i0;\H2.0000;Schleifrichtung
  7
notiztext (din)
210
0
220
0
230
1
 50
89.99999999999991
 73
    2
 44
0.75
  0
ENDBLK
  5
E5
330
E3
100
AcDbEntity
  8
0
100
AcDbBlockEnd
  0
BLOCK
  5
E7
330
E6
100
AcDbEntity
  8
0
100
AcDbBlockBegin
  2
Schleifrichtung 20°
 70
    0
 10
0
 20
0
  3
Schleifrichtung 20°
  1

  0
MTEXT
  5
1FF
100
AcDbEntity
  8
Symbol (ISO)
  6
ByLayer
 62
  256
370
   -1
100
AcDbMText
 10
-0.8837751535064342
 20
2.428152278134021
 30
0
 40
2.000000029802322
 41
45.77777803591607
 71
    2
 72
    1
  1
\fAIGDT|b0|i0;\H2.0000;#\P\fArial|b0|i0;\H2.0000;Schleifrichtung
  7
notiztext (din)
210
0
220
0
230
1
 50
20.00000000000012
 73
    2
 44
0.75
  0
ENDBLK
  5
E8
330
E6
100
AcDbEntity
  8
0
100
AcDbBlockEnd
  0
BLOCK
  5
EA
330
E9
100
AcDbEntity
  8
0
100
AcDbBlockBegin
  2
Schleifrichtung 15°
 70
    0
 10
0
 20
0
  3
Schleifrichtung 15°
  1

  0
MTEXT
  5
200
100
AcDbEntity
  8
Symbol (ISO)
  6
ByLayer
 62
  256
370
   -1
100
AcDbMText
 10
-0.6687847069231267
 20
2.495938505562165
 30
0
 40
2.000000029802322
 41
45.77777803591607
 71
    2
 72
    1
  1
\fAIGDT|b0|i0;\H2.0000;#\P\fArial|b0|i0;\H2.0000;Schleifrichtung
  7
notiztext (din)
210
0
220
0
230
1
 50
15.00000000000012
 73
    2
 44
0.75
  0
ENDBLK
  5
EB
330
E9
100
AcDbEntity
  8
0
100
AcDbBlockEnd
  0
BLOCK
  5
ED
330
EC
100
AcDbEntity
  8
0
100
AcDbBlockBegin
  2
Schleifrichtung -30°
 70
    0
 10
0
 20
0
  3
Schleifrichtung -30°
  1

  0
MTEXT
  5
201
100
AcDbEntity
  8
Symbol (ISO)
  6
ByLayer
 62
  256
370
   -1
100
AcDbMText
 10
1.291992841288447
 20
2.237797244126795
 30
0
 40
2.000000029802322
 41
45.77777803591607
 71
    2
 72
    1
  1
\fAIGDT|b0|i0;\H2.0000;#\P\fArial|b0|i0;\H2.0000;Schleifrichtung
  7
notiztext (din)
210
0
220
0
230
1
 50
-30.00000000000004
 73
    2
 44
0.75
  0
ENDBLK
  5
EE
330
EC
100
AcDbEntity
  8
0
100
AcDbBlockEnd
  0
BLOCK
  5
F0
330
EF
100
AcDbEntity
  8
0
100
AcDbBlockBegin
  2
Schleifrichtung -15°
 70
    0
 10
0
 20
0
  3
Schleifrichtung -15°
  1

  0
MTEXT
  5
202
100
AcDbEntity
  8
Symbol (ISO)
  6
ByLayer
 62
  256
370
   -1
100
AcDbMText
 10
0.6687847069231267
 20
2.495938505562236
 30
0
 40
2.000000029802322
 41
45.77777803591607
 71
    2
 72
    1
  1
\fAIGDT|b0|i0;\H2.0000;#\P\fArial|b0|i0;\H2.0000;Schleifrichtung
  7
notiztext (din)
210
0
220
0
230
1
 50
-14.9999999999998
 73
    2
 44
0.75
  0
ENDBLK
  5
F1
330
EF
100
AcDbEntity
  8
0
100
AcDbBlockEnd
  0
BLOCK
  5
F3
330
F2
100
AcDbEntity
  8
0
100
AcDbBlockBegin
  2
Schleifrichtung -40°
 70
    0
 10
0
 20
0
  3
Schleifrichtung -40°
  1

  0
MTEXT
  5
203
100
AcDbEntity
  8
Symbol (ISO)
  6
ByLayer
 62
  256
370
   -1
100
AcDbMText
 10
1.660953980367843
 20
1.979447873236992
 30
0
 40
2.000000029802322
 41
45.77777803591607
 71
    2
 72
    1
  1
\fAIGDT|b0|i0;\H2.0000;#\P\fArial|b0|i0;\H2.0000;Schleifrichtung
  7
notiztext (din)
210
0
220
0
230
1
 50
-40.00000000000016
 73
    2
 44
0.75
  0
ENDBLK
  5
F4
330
F2
100
AcDbEntity
  8
0
100
AcDbBlockEnd
  0
BLOCK
  5
F6
330
F5
100
AcDbEntity
  8
0
100
AcDbBlockBegin
  2
Schleifrichtung -60°
 70
    0
 10
0
 20
0
  3
Schleifrichtung -60°
  1

  0
MTEXT
  5
204
100
AcDbEntity
  8
Symbol (ISO)
  6
ByLayer
 62
  256
370
   -1
100
AcDbMText
 10
2.237797244126848
 20
1.291992841288447
 30
0
 40
2.000000029802322
 41
45.77777803591607
 71
    2
 72
    1
  1
\fAIGDT|b0|i0;\H2.0000;#\P\fArial|b0|i0;\H2.0000;Schleifrichtung
  7
notiztext (din)
210
0
220
0
230
1
 50
-59.99999999999974
 73
    2
 44
0.75
  0
ENDBLK
  5
F7
330
F5
100
AcDbEntity
  8
0
100
AcDbBlockEnd
  0
BLOCK
  5
F9
330
F8
100
AcDbEntity
  8
0
100
AcDbBlockBegin
  2
Schleifrichtung -50°
 70
    0
 10
0
 20
0
  3
Schleifrichtung -50°
  1

  0
MTEXT
  5
205
100
AcDbEntity
  8
Symbol (ISO)
  6
ByLayer
 62
  256
370
   -1
100
AcDbMText
 10
1.979447873237027
 20
1.660953980367807
 30
0
 40
2.000000029802322
 41
45.77777803591607
 71
    2
 72
    1
  1
\fAIGDT|b0|i0;\H2.0000;#\P\fArial|b0|i0;\H2.0000;Schleifrichtung
  7
notiztext (din)
210
0
220
0
230
1
 50
-49.99999999999986
 73
    2
 44
0.75
  0
ENDBLK
  5
FA
330
F8
100
AcDbEntity
  8
0
100
AcDbBlockEnd
  0
BLOCK
  5
FC
330
FB
100
AcDbEntity
  8
0
100
AcDbBlockBegin
  2
Flächen Galvanik
 70
    0
 10
0
 20
0
  3
Flächen Galvanik
  1

  0
MTEXT
  5
206
100
AcDbEntity
  8
Symbol (ISO)
  6
ByLayer
 62
    8
370
   -1
100
AcDbMText
 10
-70.91235160827635
 20
11.89210736808782
 30
0
 40
6.99999988079071
 41
179.4722176818141
 71
    1
 72
    1
  1
\fArial|b1|i0;\H7.0000;FLÄCHE SCHLEIFEN!\P
  7
notiztext (din)
210
0
220
0
230
1
 50
0
 73
    2
 44
0.8571428656578063
  0
MTEXT
  5
207
100
AcDbEntity
  8
Symbol (ISO)
  6
ByLayer
 62
    1
370
   -1
100
AcDbMText
 10
-70.91235160827635
 20
3.200806027419123
 30
0
 40
6.99999988079071
 41
219.7222184803757
 71
    1
 72
    1
  1
\fArial|b1|i0;\H7.0000;FLÄCHE NICHT BEARBEITEN!
  7
notiztext (din)
210
0
220
0
230
1
 50
0
 73
    1
 44
1
  0
MTEXT
  5
208
100
AcDbEntity
  8
Symbol (ISO)
  6
ByLayer
 62
    5
370
   -1
100
AcDbMText
 10
-70.91235160827635
 20
-8.518632516837172
 30
0
 40
5
 41
185.6944444444452
 71
    1
 72
    1
  1
\fArial|b0|i0;\H5.0000;ACHTUNG! ALLE KANTEN GRATFREI!
  7
notiztext (din)
210
0
220
0
230
1
 50
0
 73
    1
 44
1
  0
ENDBLK
  5
FD
330
FB
100
AcDbEntity
  8
0
100
AcDbBlockEnd
  0
BLOCK
  5
FF
330
FE
100
AcDbEntity
  8
0
100
AcDbBlockBegin
  2
Duschenglas 8mm
 70
    0
 10
0
 20
0
  3
Duschenglas 8mm
  1

  0
MTEXT
  5
209
100
AcDbEntity
  8
Symbol (ISO)
  6
ByLayer
 62
    5
370
   -1
100
AcDbMText
 10
-45.90224742889404
 20
7.150431517511606
 30
0
 40
2.5
 41
97.84722398587674
 71
    1
 72
    1
  1
ESG 8mm klar gefertigt nach DIN EN14428 (Duschenglas).\PEin entsprechender Nachweis (Stempel) ist erforderlich.\PKanten umlaufend geschliffen und poliert.\PAlle Ecken stoßen oder leicht runden.
  7
notiztext (din)
210
0
220
0
230
1
 50
0
 73
    2
 44
0.9442214965820312
  0
ENDBLK
  5
100
330
FE
100
AcDbEntity
  8
0
100
AcDbBlockEnd
  0
BLOCK
  5
102
330
101
100
AcDbEntity
  8
0
100
AcDbBlockBegin
  2
Außerhalb der AbZ 85
 70
    0
 10
0
 20
0
  3
Außerhalb der AbZ 85
  1

  0
MTEXT
  5
20A
100
AcDbEntity
  8
Symbol (ISO)
  6
ByLayer
 62
  256
370
   -1
100
AcDbMText
 10
-61.90739154815673
 20
2.585746762342751
 30
0
 40
5
 41
204.4444444444475
 71
    1
 72
    1
  1
\fArial|b1|i0;\H5.0000;\LVordach außerhalb der AbZ Z-70.3-85
  7
notiztext (din)
210
0
220
0
230
1
 50
0
 73
    1
 44
1
  0
ENDBLK
  5
103
330
101
100
AcDbEntity
  8
0
100
AcDbBlockEnd
  0
BLOCK
  5
105
330
104
100
AcDbEntity
  8
0
100
AcDbBlockBegin
  2
Duschenglas 6mm
 70
    0
 10
0
 20
0
  3
Duschenglas 6mm
  1

  0
MTEXT
  5
20B
100
AcDbEntity
  8
Symbol (ISO)
  6
ByLayer
 62
    5
370
   -1
100
AcDbMText
 10
-45.90224742889404
 20
7.150431517511606
 30
0
 40
2.5
 41
97.84722398587689
 71
    1
 72
    1
  1
ESG 6mm klar gefertigt nach DIN EN14428 (Duschenglas).\PEin entsprechender Nachweis (Stempel) ist erforderlich.\PKanten umlaufend geschliffen und poliert.\PAlle Ecken stoßen oder leicht runden.
  7
notiztext (din)
210
0
220
0
230
1
 50
0
 73
    2
 44
0.9442214965820312
  0
ENDBLK
  5
106
330
104
100
AcDbEntity
  8
0
100
AcDbBlockEnd
  0
BLOCK
  5
108
330
107
100
AcDbEntity
  8
0
100
AcDbBlockBegin
  2
unbemaßte Kanten R_0_2 runden
 70
    0
 10
0
 20
0
  3
unbemaßte Kanten R_0_2 runden
  1

  0
MTEXT
  5
20C
100
AcDbEntity
  8
Symbol (ISO)
  6
ByLayer
 62
  256
370
   -1
100
AcDbMText
 10
-25.96322298049927
 20
1.518673673272132
 30
0
 40
2.5
 41
54.93055555555673
 71
    1
 72
    1
  1
unbemaßte Kanten R=0,2 runden
  7
notiztext (din)
210
0
220
0
230
1
 50
0
 73
    1
 44
1
  0
ENDBLK
  5
109
330
107
100
AcDbEntity
  8
0
100
AcDbBlockEnd
  0
BLOCK
  5
10B
330
10A
100
AcDbEntity
  8
0
100
AcDbBlockBegin
  2
Prüfzertifikat nach DIN EN 10204 (3.1) erforderlich
 70
    0
 10
0
 20
0
  3
Prüfzertifikat nach DIN EN 10204 (3.1) erforderlich
  1

  0
MTEXT
  5
20D
100
AcDbEntity
  8
Symbol (ISO)
  6
ByLayer
 62
  256
370
   -1
100
AcDbMText
 10
-39.00819301605224
 20
1.638719402253627
 30
0
 40
2.5
 41
86.80555527777867
 71
    1
 72
    1
  1
Prüfzertifikat nach DIN EN 10204 (3.1) erforderlich
  7
notiztext (din)
210
0
220
0
230
1
 50
0
 73
    1
 44
1
  0
ENDBLK
  5
10C
330
10A
100
AcDbEntity
  8
0
100
AcDbBlockEnd
  0
BLOCK
  5
10E
330
10D
100
AcDbEntity
  8
0
100
AcDbBlockBegin
  2
Reinigen
 70
    0
 10
0
 20
0
  3
Reinigen
  1

  0
MTEXT
  5
20E
100
AcDbEntity
  8
Symbol (ISO)
  6
ByLayer
 62
  256
370
   -1
100
AcDbMText
 10
-53.57374191284179
 20
3.583934530615806
 30
0
 40
2.5
 41
119.5138914603266
 71
    1
 72
    1
  1
Nach der Bearbeitung von Dreh- und Frästeilen müssen \PBearbeitungsöle und -emulsionen von den Bauteilen entfernt werden.
  7
notiztext (din)
210
0
220
0
230
1
 50
0
 73
    2
 44
0.9442214965820312
  0
ENDBLK
  5
10F
330
10D
100
AcDbEntity
  8
0
100
AcDbBlockEnd
  0
BLOCK
  5
111
330
110
100
AcDbEntity
  8
0
100
AcDbBlockBegin
  2
Schleifrichtung rund-2
 70
    0
 10
0
 20
0
  3
Schleifrichtung rund-2
  1

  0
HATCH
  5
20F
100
AcDbEntity
  8
Schraffur (ISO)
  6
ByLayer
 62
  156
420
16512
370
   -1
100
AcDbHatch
 10
0
 20
0
 30
0
210
0
220
0
230
1
  2
SOLID
 70
    1
 71
    0
 91
    1
 92
    0
 93
    3
 72
    1
 10
-10.47794571960972
 20
20.90644694881277
 11
-6.849893015193186
 21
13.46116476233097
 72
    1
 10
-6.849893015193186
 20
13.46116476233097
 11
-3.613318818075255
 21
16.27266978918406
 72
    1
 10
-3.613318818075255
 20
16.27266978918406
 11
-10.47794571960972
 21
20.90644694881277
 97
    0
 75
    0
 76
    1
 98
    0
  0
HATCH
  5
210
100
AcDbEntity
  8
Schraffur (ISO)
  6
ByLayer
 62
    7
370
   -1
100
AcDbHatch
 10
0
 20
0
 30
0
210
0
220
0
230
1
  2
SOLID
 70
    1
 71
    0
 91
    1
 92
    0
 93
    3
 72
    1
 10
8.373591724927785
 20
-13.05289092354922
 11
9.897290434662391
 21
-20.90644694881275
 72
    1
 10
9.897290434662391
 20
-20.90644694881275
 11
10.47794571960972
 21
-12.6446170847675
 72
    1
 10
10.47794571960972
 20
-12.6446170847675
 11
8.373591724927785
 21
-13.05289092354922
 97
    0
 75
    0
 76
    1
 98
    0
  0
HATCH
  5
211
100
AcDbEntity
  8
Schraffur (ISO)
  6
ByLayer
 62
    7
370
   -1
100
AcDbHatch
 10
0
 20
0
 30
0
210
0
220
0
230
1
  2
SOLID
 70
    1
 71
    0
 91
    1
 92
    0
 93
    3
 72
    1
 10
8.373591724927785
 20
-13.05289092354922
 11
6.269237730245844
 21
-13.46116476233096
 72
    1
 10
6.269237730245844
 20
-13.46116476233096
 11
9.897290434662391
 21
-20.90644694881275
 72
    1
 10
9.897290434662391
 20
-20.90644694881275
 11
8.373591724927785
 21
-13.05289092354922
 97
    0
 75
    0
 76
    1
 98
    0
  0
HATCH
  5
212
100
AcDbEntity
  8
Schraffur (ISO)
  6
ByLayer
 62
    7
370
   -1
100
AcDbHatch
 10
0
 20
0
 30
0
210
0
220
0
230
1
  2
SOLID
 70
    1
 71
    0
 91
    1
 92
    0
 93
    3
 72
    1
 10
-5.231605916634229
 20
14.86691727575753
 11
-10.47794571960972
 21
20.90644694881277
 72
    1
 10
-10.47794571960972
 20
20.90644694881277
 11
-6.849893015193186
 21
13.46116476233097
 72
    1
 10
-6.849893015193186
 20
13.46116476233097
 11
-5.231605916634229
 21
14.86691727575753
 97
    0
 75
    0
 76
    1
 98
    0
  0
HATCH
  5
213
100
AcDbEntity
  8
Schraffur (ISO)
  6
ByLayer
 62
    7
370
   -1
100
AcDbHatch
 10
0
 20
0
 30
0
210
0
220
0
230
1
  2
SOLID
 70
    1
 71
    0
 91
    1
 92
    0
 93
    3
 72
    1
 10
-5.231605916634229
 20
14.86691727575753
 11
-3.613318818075255
 21
16.27266978918406
 72
    1
 10
-3.613318818075255
 20
16.27266978918406
 11
-10.47794571960972
 21
20.90644694881277
 72
    1
 10
-10.47794571960972
 20
20.90644694881277
 11
-5.231605916634229
 21
14.86691727575753
 97
    0
 75
    0
 76
    1
 98
    0
  0
ARC
  5
214
100
AcDbEntity
  8
Skizziergeometrie (ISO)
  6
ByLayer
 62
  256
370
   -1
100
AcDbCircle
 10
-50.5280784645487
 20
-24.48063124655874
 40
60
100
AcDbArc
 50
10.97976698014274
 51
40.9797669801427
  0
LINE
  5
215
100
AcDbEntity
  8
Skizziergeometrie (ISO)
  6
ByLayer
 62
  256
370
   -1
100
AcDbLine
 10
-5.231605916634229
 20
14.86691727575753
 11
-10.47794571960972
 21
20.90644694881277
  0
LINE
  5
216
100
AcDbEntity
  8
Skizziergeometrie (ISO)
  6
ByLayer
 62
  256
370
   -1
100
AcDbLine
 10
-10.47794571960972
 20
20.90644694881277
 11
-6.849893015193186
 21
13.46116476233097
  0
LINE
  5
217
100
AcDbEntity
  8
Skizziergeometrie (ISO)
  6
ByLayer
 62
  256
370
   -1
100
AcDbLine
 10
-6.849893015193186
 20
13.46116476233097
 11
-3.613318818075255
 21
16.27266978918406
  0
LINE
  5
218
100
AcDbEntity
  8
Skizziergeometrie (ISO)
  6
ByLayer
 62
  256
370
   -1
100
AcDbLine
 10
-3.613318818075255
 20
16.27266978918406
 11
-10.47794571960972
 21
20.90644694881277
  0
LINE
  5
219
100
AcDbEntity
  8
Skizziergeometrie (ISO)
  6
ByLayer
 62
  256
370
   -1
100
AcDbLine
 10
8.373591724927785
 20
-13.05289092354922
 11
9.897290434662391
 21
-20.90644694881275
  0
LINE
  5
21A
100
AcDbEntity
  8
Skizziergeometrie (ISO)
  6
ByLayer
 62
  256
370
   -1
100
AcDbLine
 10
9.897290434662391
 20
-20.90644694881275
 11
6.269237730245844
 21
-13.46116476233096
  0
LINE
  5
21B
100
AcDbEntity
  8
Skizziergeometrie (ISO)
  6
ByLayer
 62
  256
370
   -1
100
AcDbLine
 10
6.269237730245844
 20
-13.46116476233096
 11
10.47794571960972
 21
-12.6446170847675
  0
LINE
  5
21C
100
AcDbEntity
  8
Skizziergeometrie (ISO)
  6
ByLayer
 62
  256
370
   -1
100
AcDbLine
 10
10.47794571960972
 20
-12.6446170847675
 11
9.897290434662391
 21
-20.90644694881275
  0
ENDBLK
  5
112
330
110
100
AcDbEntity
  8
0
100
AcDbBlockEnd
  0
BLOCK
  5
114
330
113
100
AcDbEntity
  8
0
100
AcDbBlockBegin
  2
EPDM-washer
 70
    0
 10
0
 20
0
  3
EPDM-washer
  1

  0
MTEXT
  5
21D
100
AcDbEntity
  8
Symbole(DIN)
  6
ByLayer
 62
    7
370
   -1
100
AcDbMText
 10
-11.25666856765747
 20
1.270007696002721
 30
0
 40
2.5
 41
21.94444573016283
 71
    1
 72
    1
  1
EPDM-washer
  7
aktuell-din
210
0
220
0
230
1
 50
0
 73
    1
 44
1
  0
ENDBLK
  5
115
330
113
100
AcDbEntity
  8
0
100
AcDbBlockEnd
  0
BLOCK
  5
117
330
116
100
AcDbEntity
  8
0
100
AcDbBlockBegin
  2
isometric view
 70
    0
 10
0
 20
0
  3
isometric view
  1

  0
MTEXT
  5
21E
100
AcDbEntity
  8
Symbole(DIN)
  6
ByLayer
 62
    7
370
   -1
100
AcDbMText
 10
-10.96417665481567
 20
1.270007696002721
 30
0
 40
2.5
 41
23.263890174607
 71
    1
 72
    1
  1
isometric view
  7
aktuell-din
210
0
220
0
230
1
 50
0
 73
    1
 44
1
  0
ENDBLK
  5
118
330
116
100
AcDbEntity
  8
0
100
AcDbBlockEnd
  0
BLOCK
  5
11A
330
119
100
AcDbEntity
  8
0
100
AcDbBlockBegin
  2
glazing
 70
    0
 10
0
 20
0
  3
glazing
  1

  0
MTEXT
  5
21F
100
AcDbEntity
  8
Symbole(DIN)
  6
ByLayer
 62
    7
370
   -1
100
AcDbMText
 10
-5.532583594322204
 20
1.616806462407112
 30
0
 40
2.5
 41
10.83333333333391
 71
    1
 72
    1
  1
glazing
  7
aktuell-din
210
0
220
0
230
1
 50
0
 73
    1
 44
1
  0
ENDBLK
  5
11B
330
119
100
AcDbEntity
  8
0
100
AcDbBlockEnd
  0
BLOCK
  5
11D
330
11C
100
AcDbEntity
  8
0
100
AcDbBlockBegin
  2
countersink screw EN ISO A2
 70
    0
 10
0
 20
0
  3
countersink screw EN ISO A2
  1

  0
MTEXT
  5
220
100
AcDbEntity
  8
Symbole(DIN)
  6
ByLayer
 62
    7
370
   -1
100
AcDbMText
 10
-16.98551774024963
 20
5.20426383242011
 30
0
 40
2.5
 41
33.40277724777287
 71
    1
 72
    1
  1
countersink screw\PEN ISO 10642 M6x16\Pmaterial: A2
  7
aktuell-din
210
0
220
0
230
1
 50
0
 73
    2
 44
0.9442214965820312
  0
ENDBLK
  5
11E
330
11C
100
AcDbEntity
  8
0
100
AcDbBlockEnd
  0
BLOCK
  5
120
330
11F
100
AcDbEntity
  8
0
100
AcDbBlockBegin
  2
cylinder head screw EN ISO A2
 70
    0
 10
0
 20
0
  3
cylinder head screw EN ISO A2
  1

  0
MTEXT
  5
221
100
AcDbEntity
  8
Symbole(DIN)
  6
ByLayer
 62
    7
370
   -1
100
AcDbMText
 10
-16.01467132568359
 20
5.20426383242011
 30
0
 40
2.5
 41
33.47222350794068
 71
    1
 72
    1
  1
cylinder head screw\PEN ISO 4762 M8x20\Pmaterial: A2
  7
aktuell-din
210
0
220
0
230
1
 50
0
 73
    2
 44
0.9442214965820312
  0
ENDBLK
  5
121
330
11F
100
AcDbEntity
  8
0
100
AcDbBlockEnd
  0
BLOCK
  5
123
330
122
100
AcDbEntity
  8
0
100
AcDbBlockBegin
  2
P+S glass clamp
 70
    0
 10
0
 20
0
  3
P+S glass clamp
  1

  0
MTEXT
  5
222
100
AcDbEntity
  8
Symbole(DIN)
  6
ByLayer
 62
    7
370
   -1
100
AcDbMText
 10
-26.10899209976196
 20
3.277438879013061
 30
0
 40
5
 41
120.8333374161963
 71
    1
 72
    1
  1
\fArial|b0|i0;\H5.0000;P+S glass clamp
  7
aktuell-din
210
0
220
0
230
1
 50
0
 73
    1
 44
1
  0
ENDBLK
  5
124
330
122
100
AcDbEntity
  8
0
100
AcDbBlockEnd
  0
BLOCK
  5
126
330
125
100
AcDbEntity
  8
0
100
AcDbBlockBegin
  2
2DTransSchnitt2
 70
    0
 10
0
 20
0
  3
2DTransSchnitt2
  1

  0
LINE
  5
223
100
AcDbEntity
  8
Schnittlinie (ISO)
  6
CONTINUOUS
 62
  256
370
   -1
100
AcDbLine
 10
464.9465507000178
 20
173.9638630080803
 11
464.9465507000193
 21
178.9638630080803
  0
LWPOLYLINE
  5
224
100
AcDbEntity
  8
Schnittlinie (ISO)
  6
CONTINUOUS
 62
  256
370
   -1
100
AcDbPolyline
 90
    4
 70
    0
 43
0
 10
465.9465501026116
 20
173.9638629663369
 10
464.9465462879144
 20
178.9638629663369
 10
463.9465424732171
 20
173.9638629663369
 10
465.9465501026116
 20
173.9638629663369
  0
SOLID
  5
225
100
AcDbEntity
  8
Schnittlinie (ISO)
  6
ByLayer
 62
  256
370
   -1
100
AcDbTrace
 10
465.9465501026116
 20
173.9638629663369
 30
0
 11
464.9465462879144
 21
178.9638629663369
 31
0
 12
463.9465424732171
 22
173.9638629663369
 32
0
 13
465.9465501026116
 23
173.9638629663369
 33
0
  0
LINE
  5
226
100
AcDbEntity
  8
Schnittlinie (ISO)
  6
CONTINUOUS
 62
  256
370
   -1
100
AcDbLine
 10
465.9465507000177
 20
173.96386300808
 11
464.9465507000193
 21
178.9638630080803
  0
LINE
  5
227
100
AcDbEntity
  8
Schnittlinie (ISO)
  6
CONTINUOUS
 62
  256
370
   -1
100
AcDbLine
 10
464.9465507000193
 20
178.9638630080803
 11
463.9465507000177
 21
173.9638630080807
  0
LINE
  5
228
100
AcDbEntity
  8
Schnittlinie (ISO)
  6
CONTINUOUS
 62
  256
370
   -1
100
AcDbLine
 10
463.9465507000177
 20
173.9638630080807
 11
465.9465507000177
 21
173.96386300808
  0
LINE
  5
229
100
AcDbEntity
  8
Schnittlinie (ISO)
  6
CONTINUOUS
 62
  256
370
   -1
100
AcDbLine
 10
464.9465507000162
 20
168.9638630080803
 11
464.9465507000178
 21
173.9638630080803
  0
MTEXT
  5
22A
100
AcDbEntity
  8
Schnittlinie (ISO)
  6
ByLayer
 62
  256
370
   -1
100
AcDbMText
 10
458.1466932471982
 20
167.4638630080814
 30
0
 40
4.000000059604644
 41
2.222222255335913
 71
    7
 72
    1
  1
B
  7
bezeichnungstext (din)
210
0
220
0
230
1
 50
0
 73
    1
 44
1
  0
ENDBLK
  5
127
330
125
100
AcDbEntity
  8
0
100
AcDbBlockEnd
  0
ENDSEC
  0
SECTION
  2
ENTITIES
  0
LINE
  5
22B
100
AcDbEntity
  8
Verdeckt (ISO)
  6
ByLayer
 62
  256
370
   -1
100
AcDbLine
 10
301.5764633667796
 20
51.62569720660446
 11
301.5764633667796
 21
81.62569720660449
  0
LINE
  5
22C
100
AcDbEntity
  8
Verdeckt (ISO)
  6
ByLayer
 62
  256
370
   -1
100
AcDbLine
 10
301.5764633667796
 20
121.6256972066045
 11
301.5764633667795
 21
151.6256972066044
  0
LINE
  5
22D
100
AcDbEntity
  8
Sichtbar (ISO)
  6
ByLayer
 62
  256
370
   -1
100
AcDbLine
 10
306.9764633667797
 20
51.62569720660446
 11
307.7764633667797
 21
51.62569720660449
  0
LINE
  5
22E
100
AcDbEntity
  8
Sichtbar (ISO)
  6
ByLayer
 62
  256
370
   -1
100
AcDbLine
 10
307.7764633667797
 20
51.62569720660449
 11
307.7764633667796
 21
81.62569720660449
  0
LINE
  5
22F
100
AcDbEntity
  8
Sichtbar (ISO)
  6
ByLayer
 62
  256
370
   -1
100
AcDbLine
 10
306.9764633667796
 20
121.6256972066045
 11
307.7764633667796
 21
121.6256972066045
  0
LINE
  5
230
100
AcDbEntity
  8
Sichtbar (ISO)
  6
ByLayer
 62
  256
370
   -1
100
AcDbLine
 10
307.7764633667796
 20
121.6256972066045
 11
307.7764633667795
 21
151.6256972066044
  0
LINE
  5
231
100
AcDbEntity
  8
Sichtbar (ISO)
  6
ByLayer
 62
  256
370
   -1
100
AcDbLine
 10
307.7764633667796
 20
81.62569720660449
 11
306.9764633667796
 21
81.62569720660446
  0
LINE
  5
232
100
AcDbEntity
  8
Sichtbar (ISO)
  6
ByLayer
 62
  256
370
   -1
100
AcDbLine
 10
306.9764633667796
 20
81.62569720660446
 11
306.9764633667797
 21
51.62569720660446
  0
LINE
  5
233
100
AcDbEntity
  8
Sichtbar (ISO)
  6
ByLayer
 62
  256
370
   -1
100
AcDbLine
 10
307.7764633667796
 20
151.6256972066044
 11
306.9764633667796
 21
151.6256972066044
  0
LINE
  5
234
100
AcDbEntity
  8
Sichtbar (ISO)
  6
ByLayer
 62
  256
370
   -1
100
AcDbLine
 10
306.9764633667796
 20
151.6256972066044
 11
306.9764633667796
 21
121.6256972066045
  0
LINE
  5
235
100
AcDbEntity
  8
Sichtbar (ISO)
  6
ByLayer
 62
  256
370
   -1
100
AcDbLine
 10
310.7764633667796
 20
66.62569720660454
 11
310.7764633667796
 21
51.62569720660453
  0
LINE
  5
236
100
AcDbEntity
  8
Sichtbar (ISO)
  6
ByLayer
 62
  256
370
   -1
100
AcDbLine
 10
310.7764633667796
 20
151.6256972066044
 11
310.7764633667796
 21
136.6256972066045
  0
LINE
  5
237
100
AcDbEntity
  8
Sichtbar (ISO)
  6
ByLayer
 62
  256
370
   -1
100
AcDbLine
 10
311.5764633667796
 20
136.5612822783057
 11
311.5764633667796
 21
151.6256972066044
  0
LINE
  5
238
100
AcDbEntity
  8
Sichtbar (ISO)
  6
ByLayer
 62
  256
370
   -1
100
AcDbLine
 10
311.5764633667796
 20
151.6256972066044
 11
310.7764633667796
 21
151.6256972066044
  0
LINE
  5
239
100
AcDbEntity
  8
Sichtbar (ISO)
  6
ByLayer
 62
  256
370
   -1
100
AcDbLine
 10
310.7764633667796
 20
51.62569720660453
 11
311.5764633667796
 21
51.62569720660453
  0
LINE
  5
23A
100
AcDbEntity
  8
Sichtbar (ISO)
  6
ByLayer
 62
  256
370
   -1
100
AcDbLine
 10
311.5764633667796
 20
51.62569720660453
 11
311.5764633667797
 21
66.69011213490333
  0
LINE
  5
23B
100
AcDbEntity
  8
Sichtbar (ISO)
  6
ByLayer
 62
  256
370
   -1
100
AcDbLine
 10
306.9764633667797
 20
51.62569720660446
 11
247.7764633667797
 21
51.62569720660444
  0
LINE
  5
23C
100
AcDbEntity
  8
Sichtbar (ISO)
  6
ByLayer
 62
  256
370
   -1
100
AcDbLine
 10
306.9764633667796
 20
121.6256972066045
 11
282.2617447410181
 21
121.6256972066045
  0
LINE
  5
23D
100
AcDbEntity
  8
Sichtbar (ISO)
  6
ByLayer
 62
  256
370
   -1
100
AcDbLine
 10
247.7764633667796
 20
151.6256972066044
 11
306.9764633667796
 21
151.6256972066044
  0
LINE
  5
23E
100
AcDbEntity
  8
Sichtbar (ISO)
  6
ByLayer
 62
  256
370
   -1
100
AcDbLine
 10
247.7764633667797
 20
51.62569720660442
 11
247.7764633667796
 21
151.6256972066044
  0
LINE
  5
23F
100
AcDbEntity
  8
Sichtbar (ISO)
  6
ByLayer
 62
  256
370
   -1
100
AcDbLine
 10
282.2617447410182
 20
81.62569720660451
 11
306.9764633667796
 21
81.62569720660446
  0
ARC
  5
240
100
AcDbEntity
  8
Sichtbar (ISO)
  6
ByLayer
 62
  256
370
   -1
100
AcDbCircle
 10
273.7764633667796
 20
84.62569720660449
 40
9.000000000000004
100
AcDbArc
 50
90.00000000000021
 51
340.5287793655095
  0
LINE
  5
241
100
AcDbEntity
  8
Sichtbar (ISO)
  6
ByLayer
 62
  256
370
   -1
100
AcDbLine
 10
273.7764633667796
 20
109.6256972066045
 11
273.7764633667796
 21
93.62569720660451
  0
ARC
  5
242
100
AcDbEntity
  8
Sichtbar (ISO)
  6
ByLayer
 62
  256
370
   -1
100
AcDbCircle
 10
273.7764633667796
 20
118.6256972066045
 40
8.999999999999986
100
AcDbArc
 50
19.47122063449065
 51
269.9999999999998
  0
LINE
  5
243
100
AcDbEntity
  8
Sichtbar (ISO)
  6
ByLayer
 62
  256
370
   -1
100
AcDbLine
 10
315.7764633667796
 20
78.62569720660451
 11
356.5314653683812
 21
78.62569720660454
  0
LINE
  5
244
100
AcDbEntity
  8
Sichtbar (ISO)
  6
ByLayer
 62
  256
370
   -1
100
AcDbLine
 10
311.5764633667796
 20
151.6256972066044
 11
391.7764633667797
 21
151.6256972066045
  0
ARC
  5
245
100
AcDbEntity
  8
Sichtbar (ISO)
  6
ByLayer
 62
  256
370
   -1
100
AcDbCircle
 10
362.7764633667796
 20
119.6256972066045
 40
8.000000000000007
100
AcDbArc
 50
0
 51
141.3178125465104
  0
LINE
  5
246
100
AcDbEntity
  8
Sichtbar (ISO)
  6
ByLayer
 62
  256
370
   -1
100
AcDbLine
 10
370.7764633667796
 20
83.62569720660451
 11
370.7764633667796
 21
119.6256972066046
  0
ARC
  5
247
100
AcDbEntity
  8
Sichtbar (ISO)
  6
ByLayer
 62
  256
370
   -1
100
AcDbCircle
 10
362.7764633667796
 20
83.62569720660454
 40
7.999999999999992
100
AcDbArc
 50
218.6821874534895
 51
0
  0
LINE
  5
248
100
AcDbEntity
  8
Sichtbar (ISO)
  6
ByLayer
 62
  256
370
   -1
100
AcDbLine
 10
391.7764633667797
 20
51.62569720660457
 11
311.5764633667796
 21
51.62569720660451
  0
LINE
  5
249
100
AcDbEntity
  8
Sichtbar (ISO)
  6
ByLayer
 62
  256
370
   -1
100
AcDbLine
 10
391.7764633667796
 20
151.6256972066045
 11
391.7764633667797
 21
51.62569720660456
  0
LINE
  5
24A
100
AcDbEntity
  8
Sichtbar (ISO)
  6
ByLayer
 62
  256
370
   -1
100
AcDbLine
 10
356.5314653683812
 20
124.6256972066045
 11
315.7764633667795
 21
124.6256972066045
  0
ARC
  5
24B
100
AcDbEntity
  8
Sichtbar (ISO)
  6
ByLayer
 62
  256
370
   -1
100
AcDbCircle
 10
310.7764633667796
 20
71.62569720660451
 40
5.000000000000007
100
AcDbArc
 50
270.0000000000004
 51
279.2068962213469
  0
ARC
  5
24C
100
AcDbEntity
  8
Sichtbar (ISO)
  6
ByLayer
 62
  256
370
   -1
100
AcDbCircle
 10
310.7764633667796
 20
71.62569720660456
 40
5.000000000000017
100
AcDbArc
 50
279.2068962213469
 51
0
  0
LINE
  5
24D
100
AcDbEntity
  8
Sichtbar (ISO)
  6
ByLayer
 62
  256
370
   -1
100
AcDbLine
 10
315.7764633667795
 20
131.6256972066045
 11
315.7764633667795
 21
124.6256972066045
  0
LINE
  5
24E
100
AcDbEntity
  8
Sichtbar (ISO)
  6
ByLayer
 62
  256
370
   -1
100
AcDbLine
 10
315.7764633667796
 20
78.62569720660451
 11
315.7764633667796
 21
71.62569720660451
  0
ARC
  5
24F
100
AcDbEntity
  8
Sichtbar (ISO)
  6
ByLayer
 62
  256
370
   -1
100
AcDbCircle
 10
310.7764633667796
 20
131.6256972066045
 40
4.999999999999993
100
AcDbArc
 50
80.79310377865345
 51
89.99999999999959
  0
ARC
  5
250
100
AcDbEntity
  8
Sichtbar (ISO)
  6
ByLayer
 62
  256
370
   -1
100
AcDbCircle
 10
310.7764633667796
 20
131.6256972066044
 40
5.000000000000034
100
AcDbArc
 50
0
 51
80.7931037786531
  0
LINE
  5
251
100
AcDbEntity
  8
Mittelpunktmarkierung (ISO)
  6
CONTINUOUS
 62
  256
370
   -1
100
AcDbLine
 10
372.2764633667797
 20
119.6256972066045
 11
362.2764633667796
 21
119.6256972066045
  0
LINE
  5
252
100
AcDbEntity
  8
Mittelpunktmarkierung (ISO)
  6
CONTINUOUS
 62
  256
370
   -1
100
AcDbLine
 10
362.7764633667796
 20
129.1256972066045
 11
362.7764633667796
 21
119.1256972066045
  0
LINE
  5
253
100
AcDbEntity
  8
Mittelpunktmarkierung (ISO)
  6
CONTINUOUS
 62
  256
370
   -1
100
AcDbLine
 10
372.2764633667797
 20
83.62569720660451
 11
362.2764633667796
 21
83.62569720660451
  0
LINE
  5
254
100
AcDbEntity
  8
Mittelpunktmarkierung (ISO)
  6
CONTINUOUS
 62
  256
370
   -1
100
AcDbLine
 10
362.7764633667796
 20
84.12569720660456
 11
362.7764633667796
 21
74.12569720660453
  0
LINE
  5
255
100
AcDbEntity
  8
Mittelpunktmarkierung (ISO)
  6
CONTINUOUS
 62
  256
370
   -1
100
AcDbLine
 10
274.2764633667796
 20
84.62569720660449
 11
263.2764633667796
 21
84.62569720660449
  0
LINE
  5
256
100
AcDbEntity
  8
Mittelpunktmarkierung (ISO)
  6
CONTINUOUS
 62
  256
370
   -1
100
AcDbLine
 10
273.7764633667796
 20
95.12569720660449
 11
273.7764633667796
 21
74.12569720660449
  0
LINE
  5
257
100
AcDbEntity
  8
Mittelpunktmarkierung (ISO)
  6
CONTINUOUS
 62
  256
370
   -1
100
AcDbLine
 10
274.2764633667796
 20
118.6256972066045
 11
263.2764633667796
 21
118.6256972066045
  0
LINE
  5
258
100
AcDbEntity
  8
Mittelpunktmarkierung (ISO)
  6
CONTINUOUS
 62
  256
370
   -1
100
AcDbLine
 10
273.7764633667796
 20
129.1256972066045
 11
273.7764633667796
 21
108.1256972066045
  0
DIMENSION
  5
259
100
AcDbEntity
  8
Bemaßung (ISO)
  6
CONTINUOUS
 62
    7
370
   18
100
AcDbDimension
  2
*D1
 10
273.7764633667796
 20
41.6256972066042
 30
0
 11
290.77646336678
 21
41.6256972066042
 31
0
 70
   32
  1
<>
 71
    5
 72
    0
  3
Pauli_DINGroßer Text
 53
0
210
0
220
0
230
1
100
AcDbAlignedDimension
 13
307.7764633667797
 23
51.62569720660449
 33
0
 14
273.7764633667796
 24
74.12569720660449
 34
0
 50
180
100
AcDbRotatedDimension
  0
DIMENSION
  5
25A
100
AcDbEntity
  8
Bemaßung (ISO)
  6
CONTINUOUS
 62
    7
370
   18
100
AcDbDimension
  2
*D2
 10
362.7764633667796
 20
41.62569720660423
 30
0
 11
336.77646336678
 21
41.62569720660423
 31
0
 70
   32
  1
<>
 71
    5
 72
    0
  3
Pauli_DINGroßer Text
 53
0
210
0
220
0
230
1
100
AcDbAlignedDimension
 13
310.7764633667796
 23
51.62569720660451
 33
0
 14
362.7764633667796
 24
74.12569720660453
 34
0
 50
180
100
AcDbRotatedDimension
  0
DIMENSION
  5
25B
100
AcDbEntity
  8
Bemaßung (ISO)
  6
CONTINUOUS
 62
    7
370
   18
100
AcDbDimension
  2
*D3
 10
273.7764633667796
 20
118.6256972066045
 30
0
 11
259.5546214658936
 21
136.6866321374601
 31
0
 70
   36
  1
<>
 71
    5
 72
    0
  3
Pauli_DINGroßer Text
 53
0
210
0
220
0
230
1
100
AcDbRadialDimension
 15
267.4125023360997
 25
124.9896582372825
 35
0
 40
0
  0
DIMENSION
  5
25C
100
AcDbEntity
  8
Bemaßung (ISO)
  6
CONTINUOUS
 62
    7
370
   18
100
AcDbDimension
  2
*D4
 10
362.7764633667797
 20
119.6256972066046
 30
0
 11
376.291198486479
 21
136.9795253562738
 31
0
 70
   36
  1
<>
 71
    5
 72
    0
  3
Pauli_DINGroßer Text
 53
0
210
0
220
0
230
1
100
AcDbRadialDimension
 15
368.4333176162729
 25
125.2825514560961
 35
0
 40
0
  0
DIMENSION
  5
25D
100
AcDbEntity
  8
Bemaßung (ISO)
  6
CONTINUOUS
 62
    7
370
   18
100
AcDbDimension
  2
*D5
 10
294.8450685010611
 20
81.62569720660451
 30
0
 11
294.8450685010611
 21
101.6256972066045
 31
0
 70
   32
  1
<>
 71
    5
 72
    0
  3
Pauli_DINGroßer Text
 53
0
210
0
220
0
230
1
100
AcDbAlignedDimension
 13
301.1816170259597
 23
121.6256972066045
 33
0
 14
301.1816170259601
 24
81.62569720660449
 34
0
 50
90
100
AcDbRotatedDimension
  0
DIMENSION
  5
25E
100
AcDbEntity
  8
Bemaßung (ISO)
  6
CONTINUOUS
 62
    7
370
   18
100
AcDbDimension
  2
*D6
 10
338.6875949688988
 20
78.62569720660456
 30
0
 11
338.6875949688987
 21
101.6256972066045
 31
0
 70
   32
  1
<>
 71
    5
 72
    0
  3
Pauli_DINGroßer Text
 53
0
210
0
220
0
230
1
100
AcDbAlignedDimension
 13
333.1583109281707
 23
124.6256972066045
 33
0
 14
333.1583109281707
 24
78.62569720660451
 34
0
 50
90
100
AcDbRotatedDimension
  0
DIMENSION
  5
25F
100
AcDbEntity
  8
Bemaßung (ISO)
  6
CONTINUOUS
 62
    7
370
   18
100
AcDbDimension
  2
*D7
 10
349.4245402263284
 20
83.62569720660454
 30
0
 11
349.4245402263284
 21
101.6256972066045
 31
0
 70
   32
  1
<>
 71
    5
 72
    0
  3
Pauli_DINGroßer Text
 53
0
210
0
220
0
230
1
100
AcDbAlignedDimension
 13
362.2764633667796
 23
119.6256972066045
 33
0
 14
362.2764633667796
 24
83.62569720660451
 34
0
 50
90
100
AcDbRotatedDimension
  0
DIMENSION
  5
260
100
AcDbEntity
  8
Bemaßung (ISO)
  6
CONTINUOUS
 62
    7
370
   18
100
AcDbDimension
  2
*D8
 10
284.2764633667796
 20
84.62569720660451
 30
0
 11
284.2764633667796
 21
101.6256972066045
 31
0
 70
   32
  1
<>
 71
    5
 72
    0
  3
Pauli_DINGroßer Text
 53
0
210
0
220
0
230
1
100
AcDbAlignedDimension
 13
274.2764633667796
 23
118.6256972066045
 33
0
 14
274.2764633667796
 24
84.62569720660449
 34
0
 50
90
100
AcDbRotatedDimension
  0
LINE
  5
261
100
AcDbEntity
  8
Sichtbar (ISO)
  6
ByLayer
 62
  256
370
   -1
100
AcDbLine
 10
301.5764633668303
 20
19.51424249190307
 11
307.7764633668303
 21
13.31424249190306
  0
LINE
  5
262
100
AcDbEntity
  8
Verdeckt (ISO)
  6
ByLayer
 62
  256
370
   -1
100
AcDbLine
 10
282.2617447410689
 20
11.51424249189411
 11
282.2617447410689
 21
19.51424249189411
  0
LINE
  5
263
100
AcDbEntity
  8
Verdeckt (ISO)
  6
ByLayer
 62
  256
370
   -1
100
AcDbLine
 10
273.7764633668303
 20
11.51424249189059
 11
273.7764633668303
 21
19.5142424918906
  0
LINE
  5
264
100
AcDbEntity
  8
Verdeckt (ISO)
  6
ByLayer
 62
  256
370
   -1
100
AcDbLine
 10
356.5314653684319
 20
11.51424249189503
 11
356.5314653684319
 21
19.51424249189504
  0
LINE
  5
265
100
AcDbEntity
  8
Verdeckt (ISO)
  6
ByLayer
 62
  256
370
   -1
100
AcDbLine
 10
370.7764633668303
 20
11.51424249189354
 11
370.7764633668303
 21
19.51424249189354
  0
LINE
  5
266
100
AcDbEntity
  8
Verdeckt (ISO)
  6
ByLayer
 62
  256
370
   -1
100
AcDbLine
 10
264.7764633668303
 20
11.51424249189325
 11
264.7764633668303
 21
19.51424249189322
  0
LINE
  5
267
100
AcDbEntity
  8
Sichtbar (ISO)
  6
ByLayer
 62
  256
370
   -1
100
AcDbLine
 10
307.7764633668303
 20
12.31424249190304
 11
307.7764633668303
 21
13.31424249190306
  0
LINE
  5
268
100
AcDbEntity
  8
Sichtbar (ISO)
  6
ByLayer
 62
  256
370
   -1
100
AcDbLine
 10
247.7764633668303
 20
19.51424249190307
 11
301.5764633668303
 21
19.51424249190307
  0
LINE
  5
269
100
AcDbEntity
  8
Sichtbar (ISO)
  6
ByLayer
 62
  256
370
   -1
100
AcDbLine
 10
247.7764633668303
 20
11.51424249190306
 11
247.7764633668303
 21
19.51424249190307
  0
LINE
  5
26A
100
AcDbEntity
  8
Sichtbar (ISO)
  6
ByLayer
 62
  256
370
   -1
100
AcDbLine
 10
247.7764633668303
 20
11.51424249190306
 11
306.9764633668303
 21
11.51424249190306
  0
LINE
  5
26B
100
AcDbEntity
  8
Sichtbar (ISO)
  6
ByLayer
 62
  256
370
   -1
100
AcDbLine
 10
310.7764633668303
 20
12.31424249190304
 11
310.7764633668303
 21
18.71424249190305
  0
LINE
  5
26C
100
AcDbEntity
  8
Sichtbar (ISO)
  6
ByLayer
 62
  256
370
   -1
100
AcDbLine
 10
311.5764633668303
 20
19.51424249190307
 11
391.7764633668303
 21
19.5142424919031
  0
LINE
  5
26D
100
AcDbEntity
  8
Sichtbar (ISO)
  6
ByLayer
 62
  256
370
   -1
100
AcDbLine
 10
311.5764633668303
 20
11.51424249190306
 11
391.7764633668303
 21
11.51424249190309
  0
LINE
  5
26E
100
AcDbEntity
  8
Sichtbar (ISO)
  6
ByLayer
 62
  256
370
   -1
100
AcDbLine
 10
391.7764633668303
 20
11.51424249190306
 11
391.7764633668303
 21
19.51424249190307
  0
LINE
  5
26F
100
AcDbEntity
  8
Sichtbar (ISO)
  6
ByLayer
 62
  256
370
   -1
100
AcDbLine
 10
307.7764633668303
 20
12.31424249190304
 11
306.9764633668303
 21
11.51424249190306
  0
LINE
  5
270
100
AcDbEntity
  8
Sichtbar (ISO)
  6
ByLayer
 62
  256
370
   -1
100
AcDbLine
 10
311.5764633668303
 20
11.51424249190306
 11
310.7764633668303
 21
12.31424249190304
  0
LINE
  5
271
100
AcDbEntity
  8
Sichtbar (ISO)
  6
ByLayer
 62
  256
370
   -1
100
AcDbLine
 10
310.7764633668303
 20
18.71424249190305
 11
311.5764633668304
 21
19.51424249190307
  0
LINE
  5
272
100
AcDbEntity
  8
Verdeckt (ISO)
  6
ByLayer
 62
  256
370
   -1
100
AcDbLine
 10
315.7764633668302
 20
11.51424249189716
 11
315.7764633668302
 21
19.5142424918972
  0
DIMENSION
  5
273
100
AcDbEntity
  8
Bemaßung (ISO)
  6
CONTINUOUS
 62
    7
370
   18
100
AcDbDimension
  2
*D9
 10
307.7764633667796
 20
156.0508316982441
 30
0
 11
309.2764633667796
 21
156.0508316982441
 31
0
 70
   32
  1
<>
 71
    5
 72
    0
  3
Pauli_DINGroßer Text
 53
0
210
0
220
0
230
1
100
AcDbAlignedDimension
 13
310.7764633667796
 23
151.6256972066044
 33
0
 14
307.7764633667796
 24
151.6256972066044
 34
0
 50
180
100
AcDbRotatedDimension
  0
DIMENSION
  5
274
100
AcDbEntity
  8
Bemaßung (ISO)
  6
CONTINUOUS
 62
    7
370
   18
100
AcDbDimension
  2
*D10
 10
237.7764633668304
 20
19.51424249190306
 30
0
 11
237.7764633668303
 21
15.51424249190298
 31
0
 70
   32
  1
<>
 71
    5
 72
    0
  3
Pauli_DINGroßer Text
 53
0
210
0
220
0
230
1
100
AcDbAlignedDimension
 13
247.7764633668303
 23
11.51424249190304
 33
0
 14
247.7764633668303
 24
19.51424249190305
 34
0
 50
90
100
AcDbRotatedDimension
  0
DIMENSION
  5
275
100
AcDbEntity
  8
Bemaßung (ISO)
  6
CONTINUOUS
 62
    7
370
   18
100
AcDbDimension
  2
*D11
 10
401.7764633668304
 20
19.51424249190306
 30
0
 11
401.7764633668303
 21
15.51424249190294
 31
0
 70
   32
  1
<>
 71
    5
 72
    0
  3
Pauli_DINGroßer Text
 53
0
210
0
220
0
230
1
100
AcDbAlignedDimension
 13
391.7764633668303
 23
11.51424249190304
 33
0
 14
391.7764633668303
 24
19.51424249190305
 34
0
 50
90
100
AcDbRotatedDimension
  0
ARC
  5
276
100
AcDbEntity
  8
Sichtbar (ISO)
  6
ByLayer
 62
  256
370
   -1
100
AcDbCircle
 10
219.5140847301264
 20
195.0064496664563
 40
15.22241150239735
100
AcDbArc
 50
139.0660221826877
 51
160.8244834378982
  0
SPLINE
  5
277
100
AcDbEntity
  8
Sichtbar (ISO)
  6
ByLayer
 62
  256
370
   -1
100
AcDbSpline
210
0
220
0
230
0
 70
    8
 71
    3
 72
   18
 73
   14
 74
    0
 42
1e-007
 43
1e-007
 40
-0.0003835629875556
 40
-0.0003835629875556
 40
-0.0003835629875556
 40
-0.0003835629875556
 40
0
 40
0
 40
0.0166412852978725
 40
0.0166412852978725
 40
0.0329152925061505
 40
0.0329152925061505
 40
0.0541285478091943
 40
0.0541285478091943
 40
0.0717664336891923
 40
0.0717664336891923
 40
0.08794681364200969
 40
0.08794681364200969
 40
0.08794681364200969
 40
0.08794681364200969
 10
205.4962603466517
 20
199.5064496664545
 30
0
 10
205.4955070125218
 20
199.5074827011286
 30
0
 10
205.4947537173364
 20
199.5085157656771
 30
0
 10
205.4613201245919
 20
199.5543700914578
 30
0
 10
205.4286807074986
 20
199.5992947533102
 30
0
 10
205.3659872889158
 20
199.6858740590907
 30
0
 10
205.3358142957464
 20
199.7276865018525
 30
0
 10
205.2704936638745
 20
199.8184660487606
 30
0
 10
205.2366432589649
 20
199.8657168703005
 30
0
 10
205.1854894635896
 20
199.9373021395161
 30
0
 10
205.1666803790456
 20
199.9637023682454
 30
0
 10
205.1423811577216
 20
199.9978370441444
 30
0
 10
205.1362611135869
 20
200.0064496664562
 30
0
 10
205.1362611135869
 20
200.0064496664562
 30
0
  0
LINE
  5
278
100
AcDbEntity
  8
Sichtbar (ISO)
  6
ByLayer
 62
  256
370
   -1
100
AcDbLine
 10
205.1362611135869
 20
200.0064496664562
 11
201.8140847301264
 21
200.0064496664562
  0
LINE
  5
279
100
AcDbEntity
  8
Sichtbar (ISO)
  6
ByLayer
 62
  256
370
   -1
100
AcDbLine
 10
208.0140847301265
 20
206.0064496664563
 11
209.7927041990639
 21
207.7850691353936
  0
LINE
  5
27A
100
AcDbEntity
  8
Sichtbar (ISO)
  6
ByLayer
 62
  256
370
   -1
100
AcDbLine
 10
225.3490533851692
 20
192.228719949291
 11
223.1142387190136
 21
189.9939052831353
  0
LINE
  5
27B
100
AcDbEntity
  8
Sichtbar (ISO)
  6
ByLayer
 62
  256
370
   -1
100
AcDbLine
 10
217.1267831023346
 20
184.0064496664563
 11
223.1142387190136
 21
189.9939052831353
  0
LINE
  5
27C
100
AcDbEntity
  8
Sichtbar (ISO)
  6
ByLayer
 62
  256
370
   -1
100
AcDbLine
 10
208.0140847301265
 20
204.198805210381
 11
208.0140847301265
 21
205.5064496664563
  0
ARC
  5
27D
100
AcDbEntity
  8
Sichtbar (ISO)
  6
ByLayer
 62
  256
370
   -1
100
AcDbCircle
 10
217.5557152904691
 20
191.5064496664562
 40
1.999999999999994
100
AcDbArc
 50
270
 51
315
  0
LINE
  5
27E
100
AcDbEntity
  8
Sichtbar (ISO)
  6
ByLayer
 62
  256
370
   -1
100
AcDbLine
 10
219.9866680696754
 20
191.1089753209164
 11
218.9699288528422
 21
190.0922361040831
  0
ARC
  5
27F
100
AcDbEntity
  8
Sichtbar (ISO)
  6
ByLayer
 62
  256
370
   -1
100
AcDbCircle
 10
223.7770356340286
 20
206.2130513842542
 40
15.57241150239719
100
AcDbArc
 50
255.9125399821408
 51
264.9531715703872
  0
LINE
  5
280
100
AcDbEntity
  8
Sichtbar (ISO)
  6
ByLayer
 62
  256
370
   -1
100
AcDbLine
 10
223.1142387190136
 20
189.9939052831353
 11
222.407131937827
 21
190.7010120643219
  0
LINE
  5
281
100
AcDbEntity
  8
Sichtbar (ISO)
  6
ByLayer
 62
  256
370
   -1
100
AcDbLine
 10
217.555715290469
 20
189.5064496664562
 11
160.5140847301266
 21
189.5064496664563
  0
LINE
  5
282
100
AcDbEntity
  8
Sichtbar (ISO)
  6
ByLayer
 62
  256
370
   -1
100
AcDbLine
 10
217.1267831023346
 20
184.0064496664563
 11
160.5140847301266
 21
184.0064496664562
  0
LINE
  5
283
100
AcDbEntity
  8
Sichtbar (ISO)
  6
ByLayer
 62
  256
370
   -1
100
AcDbLine
 10
160.5140847301266
 20
184.0064496664562
 11
160.5140847301266
 21
189.5064496664563
  0
LINE
  5
284
100
AcDbEntity
  8
Sichtbar (ISO)
  6
ByLayer
 62
  256
370
   -1
100
AcDbLine
 10
211.68550967574
 20
200.6269078128813
 11
211.4026669632655
 21
200.9097505253559
  0
LINE
  5
285
100
AcDbEntity
  8
Sichtbar (ISO)
  6
ByLayer
 62
  256
370
   -1
100
AcDbLine
 10
213.0564477964971
 20
202.5635313585876
 11
211.4026669632655
 21
200.9097505253559
  0
ARC
  5
286
100
AcDbEntity
  8
Sichtbar (ISO)
  6
ByLayer
 62
  256
370
   -1
100
AcDbCircle
 10
207.3995935470053
 20
208.2203856080794
 40
7.999999999999261
100
AcDbArc
 50
315.0000000000002
 51
323.3459706368735
  0
LINE
  5
287
100
AcDbEntity
  8
Sichtbar (ISO)
  6
ByLayer
 62
  256
370
   -1
100
AcDbLine
 10
219.1808415563166
 20
193.1315759323047
 11
211.68550967574
 21
200.6269078128813
  0
LINE
  5
288
100
AcDbEntity
  8
Sichtbar (ISO)
  6
ByLayer
 62
  256
370
   -1
100
AcDbLine
 10
219.5089100862012
 20
192.8035074024201
 11
219.1808415563166
 21
193.1315759323047
  0
LINE
  5
289
100
AcDbEntity
  8
Sichtbar (ISO)
  6
ByLayer
 62
  256
370
   -1
100
AcDbLine
 10
269.3854230205562
 20
244.0432641777307
 11
273.2745103170817
 21
240.1541768812052
  0
ARC
  5
28A
100
AcDbEntity
  8
Sichtbar (ISO)
  6
ByLayer
 62
  256
370
   -1
100
AcDbCircle
 10
223.7770356340287
 20
206.2130513842545
 40
14.072411502396
100
AcDbArc
 50
252.3442404654067
 51
276.4138525222039
  0
LINE
  5
28B
100
AcDbEntity
  8
Sichtbar (ISO)
  6
ByLayer
 62
  256
370
   -1
100
AcDbLine
 10
273.2745103170817
 20
240.1541768812052
 11
225.3490533851691
 21
192.2287199492925
  0
ARC
  5
28C
100
AcDbEntity
  8
Sichtbar (ISO)
  6
ByLayer
 62
  256
370
   -1
100
AcDbCircle
 10
232.8972393322678
 20
203.3124398023236
 40
2.999999999999669
100
AcDbArc
 50
135
 51
158.5564643091018
  0
ARC
  5
28D
100
AcDbEntity
  8
Sichtbar (ISO)
  6
ByLayer
 62
  256
370
   -1
100
AcDbCircle
 10
227.3125695399611
 20
205.505944603068
 40
2.999999999999698
100
AcDbArc
 50
315
 51
338.5564643091012
  0
LINE
  5
28E
100
AcDbEntity
  8
Sichtbar (ISO)
  6
ByLayer
 62
  256
370
   -1
100
AcDbLine
 10
269.3854230205562
 20
244.0432641777307
 11
230.7759189887084
 21
205.433760145883
  0
LINE
  5
28F
100
AcDbEntity
  8
Sichtbar (ISO)
  6
ByLayer
 62
  256
370
   -1
100
AcDbLine
 10
229.4338898835205
 20
203.3846242595086
 11
219.1808415563166
 21
193.1315759323047
  0
LINE
  5
290
100
AcDbEntity
  8
Sichtbar (ISO)
  6
ByLayer
 62
  256
370
   -1
100
AcDbLine
 10
214.5846474786023
 20
202.6775174783228
 11
213.523987306825
 21
203.7381776501
  0
LINE
  5
291
100
AcDbEntity
  8
Sichtbar (ISO)
  6
ByLayer
 62
  256
370
   -1
100
AcDbLine
 10
261.8193804618646
 20
249.9122504615851
 11
260.7587202900873
 21
250.9729106333623
  0
LINE
  5
292
100
AcDbEntity
  8
Sichtbar (ISO)
  6
ByLayer
 62
  256
370
   -1
100
AcDbLine
 10
221.6557152904485
 20
195.6064496664366
 11
220.2415017280749
 21
197.0206632288103
  0
LINE
  5
293
100
AcDbEntity
  8
Sichtbar (ISO)
  6
ByLayer
 62
  256
370
   -1
100
AcDbLine
 10
268.536894883117
 20
243.1947360402907
 11
267.476234711336
 21
244.2553962120715
  0
LINE
  5
294
100
AcDbEntity
  8
Sichtbar (ISO)
  6
ByLayer
 62
  256
370
   -1
100
AcDbLine
 10
161.7140847301266
 20
189.5064496664563
 11
161.7140847301266
 21
191.0064496664562
  0
LINE
  5
295
100
AcDbEntity
  8
Sichtbar (ISO)
  6
ByLayer
 62
  256
370
   -1
100
AcDbLine
 10
201.8140847301264
 20
189.5064496664562
 11
201.8140847301264
 21
191.0064496664561
  0
LINE
  5
296
100
AcDbEntity
  8
Sichtbar (ISO)
  6
ByLayer
 62
  256
370
   -1
100
AcDbLine
 10
161.7140847301266
 20
199.0064496664562
 11
161.7140847301266
 21
200.5064496664562
  0
LINE
  5
297
100
AcDbEntity
  8
Sichtbar (ISO)
  6
ByLayer
 62
  256
370
   -1
100
AcDbLine
 10
201.8140847301264
 20
199.0064496664561
 11
201.8140847301264
 21
200.5064496664562
  0
LINE
  5
298
100
AcDbEntity
  8
Sichtbar (ISO)
  6
ByLayer
 62
  256
370
   -1
100
AcDbLine
 10
209.7927041990667
 20
207.7850691353931
 11
257.7181611309835
 21
255.71052606731
  0
ARC
  5
299
100
AcDbEntity
  8
Sichtbar (ISO)
  6
ByLayer
 62
  256
370
   -1
100
AcDbCircle
 10
223.7770356340299
 20
206.2130513842526
 40
14.07241150239721
100
AcDbArc
 50
173.5861474777963
 51
197.655759534593
  0
LINE
  5
29A
100
AcDbEntity
  8
Sichtbar (ISO)
  6
ByLayer
 62
  256
370
   -1
100
AcDbLine
 10
211.0491135726723
 20
201.2633039159468
 11
210.3674916521944
 21
201.9449258364247
  0
LINE
  5
29B
100
AcDbEntity
  8
Sichtbar (ISO)
  6
ByLayer
 62
  256
370
   -1
100
AcDbLine
 10
261.6072484275094
 20
251.821438770784
 11
211.0491135726723
 21
201.2633039159468
  0
LINE
  5
29C
100
AcDbEntity
  8
Sichtbar (ISO)
  6
ByLayer
 62
  256
370
   -1
100
AcDbLine
 10
257.7181611309835
 20
255.71052606731
 11
261.6072484275094
 21
251.821438770784
  0
ARC
  5
29D
100
AcDbEntity
  8
Sichtbar (ISO)
  6
ByLayer
 62
  256
370
   -1
100
AcDbCircle
 10
219.5140847301265
 20
195.0064496664562
 40
15.57241150239751
100
AcDbArc
 50
137.6025622024996
 51
159.3175243555256
  0
LINE
  5
29E
100
AcDbEntity
  8
Sichtbar (ISO)
  6
ByLayer
 62
  256
370
   -1
100
AcDbLine
 10
208.0140847301264
 20
206.0064496664563
 11
208.0140847301264
 21
205.5064496664563
  0
LINE
  5
29F
100
AcDbEntity
  8
Sichtbar (ISO)
  6
ByLayer
 62
  256
370
   -1
100
AcDbLine
 10
160.5140847301266
 20
206.0064496664563
 11
208.0140847301264
 21
206.0064496664563
  0
LINE
  5
2A0
100
AcDbEntity
  8
Sichtbar (ISO)
  6
ByLayer
 62
  256
370
   -1
100
AcDbLine
 10
160.5140847301266
 20
200.5064496664562
 11
160.5140847301266
 21
206.0064496664563
  0
LINE
  5
2A1
100
AcDbEntity
  8
Sichtbar (ISO)
  6
ByLayer
 62
  256
370
   -1
100
AcDbLine
 10
204.9452824457929
 20
200.5064496664562
 11
160.5140847301266
 21
200.5064496664562
  0
LINE
  5
2A2
100
AcDbEntity
  8
Sichtbar (ISO)
  6
ByLayer
 62
  256
370
   -1
100
AcDbLine
 10
215.764084730126
 20
192.8064496664562
 11
209.564084730126
 21
199.0064496664562
  0
LINE
  5
2A3
100
AcDbEntity
  8
Sichtbar (ISO)
  6
ByLayer
 62
  256
370
   -1
100
AcDbLine
 10
209.564084730126
 20
199.0064496664562
 11
145.7640847301261
 21
199.0064496664564
  0
LINE
  5
2A4
100
AcDbEntity
  8
Sichtbar (ISO)
  6
ByLayer
 62
  256
370
   -1
100
AcDbLine
 10
145.7640847301261
 20
199.0064496664564
 11
145.7640847301261
 21
191.0064496664564
  0
LINE
  5
2A5
100
AcDbEntity
  8
Sichtbar (ISO)
  6
ByLayer
 62
  256
370
   -1
100
AcDbLine
 10
145.7640847301261
 20
191.0064496664564
 11
214.964084730126
 21
191.0064496664562
  0
LINE
  5
2A6
100
AcDbEntity
  8
Sichtbar (ISO)
  6
ByLayer
 62
  256
370
   -1
100
AcDbLine
 10
214.964084730126
 20
191.0064496664562
 11
215.764084730126
 21
191.8064496664562
  0
LINE
  5
2A7
100
AcDbEntity
  8
Sichtbar (ISO)
  6
ByLayer
 62
  256
370
   -1
100
AcDbLine
 10
215.764084730126
 20
191.8064496664562
 11
215.764084730126
 21
192.8064496664562
  0
LINE
  5
2A8
100
AcDbEntity
  8
Sichtbar (ISO)
  6
ByLayer
 62
  256
370
   -1
100
AcDbLine
 10
275.3958306606441
 20
252.1749921613784
 11
269.7389764111516
 21
257.8318464108708
  0
LINE
  5
2A9
100
AcDbEntity
  8
Sichtbar (ISO)
  6
ByLayer
 62
  256
370
   -1
100
AcDbLine
 10
218.685866809483
 20
195.4650283102173
 11
275.3958306606441
 21
252.1749921613784
  0
LINE
  5
2AA
100
AcDbEntity
  8
Sichtbar (ISO)
  6
ByLayer
 62
  256
370
   -1
100
AcDbLine
 10
269.7389764111516
 20
257.8318464108708
 11
213.0290125599906
 21
201.1218825597097
  0
LINE
  5
2AB
100
AcDbEntity
  8
Sichtbar (ISO)
  6
ByLayer
 62
  256
370
   -1
100
AcDbLine
 10
213.0290125599906
 20
199.9905117098112
 11
217.5544959595845
 21
195.4650283102173
  0
LINE
  5
2AC
100
AcDbEntity
  8
Sichtbar (ISO)
  6
ByLayer
 62
  256
370
   -1
100
AcDbLine
 10
213.0290125599906
 20
199.9905117098112
 11
213.0290125599906
 21
201.1218825597097
  0
LINE
  5
2AD
100
AcDbEntity
  8
Sichtbar (ISO)
  6
ByLayer
 62
  256
370
   -1
100
AcDbLine
 10
218.685866809483
 20
195.4650283102173
 11
217.5544959595845
 21
195.4650283102173
  0
LINE
  5
2AE
100
AcDbEntity
  8
Sichtbar (ISO)
  6
ByLayer
 62
  256
370
   -1
100
AcDbLine
 10
23.57503616214241
 20
103.5906436614302
 11
23.57503616214241
 21
96.32382409117346
  0
ELLIPSE
  5
2AF
100
AcDbEntity
  8
Sichtbar (ISO)
  6
ByLayer
 62
  256
370
   -1
100
AcDbEllipse
 10
33.95262197664792
 20
106.580604088092
 30
0
 11
10.99999999999998
 21
6.556e-013
 31
0
 40
0.5773502691896257
 41
3.926990816987
 42
4.750968010259911
  0
ELLIPSE
  5
2B0
100
AcDbEntity
  8
Sichtbar (ISO)
  6
ByLayer
 62
  256
370
   -1
100
AcDbEllipse
 10
33.95262197664793
 20
98.90553622737139
 30
0
 11
-10.99999999999999
 21
1.6e-015
 31
0
 40
0.5773502691896257
 41
0.7853981633974492
 42
1.609375356670223
  0
LINE
  5
2B1
100
AcDbEntity
  8
Sichtbar (ISO)
  6
ByLayer
 62
  256
370
   -1
100
AcDbLine
 10
26.17444738359591
 20
94.41480503226889
 11
23.22148277154914
 21
96.11969994594153
  0
LINE
  5
2B2
100
AcDbEntity
  8
Sichtbar (ISO)
  6
ByLayer
 62
  256
370
   -1
100
AcDbLine
 10
23.22148277154913
 20
96.11969994594153
 11
23.22148277154914
 21
103.7947678066621
  0
LINE
  5
2B3
100
AcDbEntity
  8
Sichtbar (ISO)
  6
ByLayer
 62
  256
370
   -1
100
AcDbLine
 10
23.22148277154914
 20
103.7947678066621
 11
26.17444738359591
 21
102.0898728929895
  0
LINE
  5
2B4
100
AcDbEntity
  8
Sichtbar (ISO)
  6
ByLayer
 62
  256
370
   -1
100
AcDbLine
 10
23.22148277154913
 20
96.11969994594153
 11
23.57503616214241
 21
96.32382409117346
  0
ELLIPSE
  5
2B5
100
AcDbEntity
  8
Sichtbar (ISO)
  6
ByLayer
 62
  256
370
   -1
100
AcDbEllipse
 10
33.95262197664785
 20
113.3983505388384
 30
0
 11
-10.99999999999986
 21
8e-016
 31
0
 40
0.5773502691896255
 41
0.7853981633974483
 42
1.144070682132875
  0
ELLIPSE
  5
2B6
100
AcDbEntity
  8
Sichtbar (ISO)
  6
ByLayer
 62
  256
370
   -1
100
AcDbEllipse
 10
33.95262197664791
 20
92.08778977662487
 30
0
 11
10.99999999999997
 21
6.55e-013
 31
0
 40
0.5773502691896255
 41
3.926990816986998
 42
4.750968010259914
  0
LINE
  5
2B7
100
AcDbEntity
  8
Sichtbar (ISO)
  6
ByLayer
 62
  256
370
   -1
100
AcDbLine
 10
26.17444738359591
 20
108.907619343736
 11
17.73347587552878
 21
113.7810165161405
  0
LINE
  5
2B8
100
AcDbEntity
  8
Sichtbar (ISO)
  6
ByLayer
 62
  256
370
   -1
100
AcDbLine
 10
26.17444738359591
 20
87.59705858152239
 11
17.73347587552878
 21
92.47045575392691
  0
LINE
  5
2B9
100
AcDbEntity
  8
Sichtbar (ISO)
  6
ByLayer
 62
  256
370
   -1
100
AcDbLine
 10
11.74602025884975
 20
132.7104858367715
 11
17.73347587552878
 21
129.2536267247209
  0
LINE
  5
2BA
100
AcDbEntity
  8
Sichtbar (ISO)
  6
ByLayer
 62
  256
370
   -1
100
AcDbLine
 10
11.74602025884974
 20
80.45470465739709
 11
11.74602025884975
 21
132.7104858367715
  0
LINE
  5
2BB
100
AcDbEntity
  8
Sichtbar (ISO)
  6
ByLayer
 62
  256
370
   -1
100
AcDbLine
 10
11.74602025884974
 20
80.45470465739709
 11
17.73347587552877
 21
76.99784554534652
  0
ELLIPSE
  5
2BC
100
AcDbEntity
  8
Sichtbar (ISO)
  6
ByLayer
 62
  256
370
   -1
100
AcDbEllipse
 10
33.95262197664772
 20
113.3983505388385
 30
0
 11
-15.57241150239724
 21
8e-016
 31
0
 40
0.5773502691896254
 41
6.037312746624881
 42
6.195101534299583
  0
LINE
  5
2BD
100
AcDbEntity
  8
Sichtbar (ISO)
  6
ByLayer
 62
  256
370
   -1
100
AcDbLine
 10
18.44058265671533
 20
114.1892648066044
 11
17.73347587552878
 21
113.7810165161405
  0
LINE
  5
2BE
100
AcDbEntity
  8
Sichtbar (ISO)
  6
ByLayer
 62
  256
370
   -1
100
AcDbLine
 10
18.84854591330991
 20
131.0593304810259
 11
17.83180669647659
 21
131.6463451415602
  0
LINE
  5
2BF
100
AcDbEntity
  8
Sichtbar (ISO)
  6
ByLayer
 62
  256
370
   -1
100
AcDbLine
 10
18.84854591330991
 20
131.0593304810259
 11
18.84854591330991
 21
115.5867202724455
  0
LINE
  5
2C0
100
AcDbEntity
  8
Sichtbar (ISO)
  6
ByLayer
 62
  256
370
   -1
100
AcDbLine
 10
17.73347587552877
 20
92.47045575392691
 11
17.73347587552877
 21
76.99784554534651
  0
LINE
  5
2C1
100
AcDbEntity
  8
Sichtbar (ISO)
  6
ByLayer
 62
  256
370
   -1
100
AcDbLine
 10
17.73347587552877
 20
76.99784554534651
 11
18.44058265671532
 21
77.40609383581037
  0
LINE
  5
2C2
100
AcDbEntity
  8
Sichtbar (ISO)
  6
ByLayer
 62
  256
370
   -1
100
AcDbLine
 10
18.44058265671533
 20
92.06220746346305
 11
18.44058265671532
 21
77.40609383581038
  0
ELLIPSE
  5
2C3
100
AcDbEntity
  8
Sichtbar (ISO)
  6
ByLayer
 62
  256
370
   -1
100
AcDbEllipse
 10
33.95262197664767
 20
76.61517956804452
 30
0
 11
-15.5724115023972
 21
1.2e-015
 31
0
 40
0.5773502691896254
 41
6.037312746624881
 42
6.195101534299585
  0
LINE
  5
2C4
100
AcDbEntity
  8
Sichtbar (ISO)
  6
ByLayer
 62
  256
370
   -1
100
AcDbLine
 10
18.8485459133099
 20
91.82666976744869
 11
18.8485459133099
 21
78.80354930165147
  0
ELLIPSE
  5
2C5
100
AcDbEntity
  8
Sichtbar (ISO)
  6
ByLayer
 62
  256
370
   -1
100
AcDbEllipse
 10
33.95262197664767
 20
128.8709607474189
 30
0
 11
-15.5724115023972
 21
1.2e-015
 31
0
 40
0.5773502691896254
 41
6.037312746624881
 42
6.195101534299585
  0
LINE
  5
2C6
100
AcDbEntity
  8
Sichtbar (ISO)
  6
ByLayer
 62
  256
370
   -1
100
AcDbLine
 10
18.44058265671533
 20
129.6618750151848
 11
18.44058265671533
 21
114.1892648066044
  0
LINE
  5
2C7
100
AcDbEntity
  8
Sichtbar (ISO)
  6
ByLayer
 62
  256
370
   -1
100
AcDbLine
 10
17.73347587552878
 20
129.2536267247209
 11
18.44058265671533
 21
129.6618750151848
  0
LINE
  5
2C8
100
AcDbEntity
  8
Sichtbar (ISO)
  6
ByLayer
 62
  256
370
   -1
100
AcDbLine
 10
17.73347587552878
 20
129.2536267247209
 11
17.73347587552878
 21
113.7810165161405
  0
ELLIPSE
  5
2C9
100
AcDbEntity
  8
Sichtbar (ISO)
  6
ByLayer
 62
  256
370
   -1
100
AcDbEllipse
 10
19.24602025884968
 20
132.462841722488
 30
0
 11
-1.999999999999994
 21
4.5e-015
 31
0
 40
0.5773502691896254
 41
2.67e-014
 42
0.7853981633974704
  0
LINE
  5
2CA
100
AcDbEntity
  8
Sichtbar (ISO)
  6
ByLayer
 62
  256
370
   -1
100
AcDbLine
 10
17.24602025884969
 20
132.462841722488
 11
17.24602025884975
 21
165.3958424815168
  0
LINE
  5
2CB
100
AcDbEntity
  8
Sichtbar (ISO)
  6
ByLayer
 62
  256
370
   -1
100
AcDbLine
 10
11.74602025884975
 20
132.7104858367715
 11
11.7460202588497
 21
165.3958424815169
  0
LINE
  5
2CC
100
AcDbEntity
  8
Sichtbar (ISO)
  6
ByLayer
 62
  256
370
   -1
100
AcDbLine
 10
11.7460202588497
 20
165.3958424815169
 11
17.24602025884975
 21
165.3958424815168
  0
LINE
  5
2CD
100
AcDbEntity
  8
Sichtbar (ISO)
  6
ByLayer
 62
  256
370
   -1
100
AcDbLine
 10
20.54307799481364
 20
131.3351641813922
 11
20.87114652469819
 21
131.5245746354337
  0
LINE
  5
2CE
100
AcDbEntity
  8
Sichtbar (ISO)
  6
ByLayer
 62
  256
370
   -1
100
AcDbLine
 10
67.89374747359858
 20
48.03779923557712
 11
71.78283477012411
 21
50.2831648331281
  0
LINE
  5
2CF
100
AcDbEntity
  8
Sichtbar (ISO)
  6
ByLayer
 62
  256
370
   -1
100
AcDbLine
 10
19.96829054168594
 20
75.70757469625269
 11
67.89374747359858
 21
48.03779923557712
  0
ELLIPSE
  5
2D0
100
AcDbEntity
  8
Sichtbar (ISO)
  6
ByLayer
 62
  256
370
   -1
100
AcDbEllipse
 10
33.95262197664808
 20
76.61517956804448
 30
0
 11
-14.07241150239612
 21
1.8e-014
 31
0
 40
0.5773502691896252
 41
0
 42
0.1119428442497989
  0
LINE
  5
2D1
100
AcDbEntity
  8
Sichtbar (ISO)
  6
ByLayer
 62
  256
370
   -1
100
AcDbLine
 10
71.78283477012413
 20
102.5389460125025
 11
67.89374747359859
 21
100.2935804149515
  0
LINE
  5
2D2
100
AcDbEntity
  8
Sichtbar (ISO)
  6
ByLayer
 62
  256
370
   -1
100
AcDbLine
 10
67.89374747359859
 20
100.2935804149515
 11
67.89374747359857
 21
48.03779923557713
  0
ELLIPSE
  5
2D3
100
AcDbEntity
  8
Sichtbar (ISO)
  6
ByLayer
 62
  256
370
   -1
100
AcDbEllipse
 10
33.95262197664798
 20
128.8709607474189
 30
0
 11
-14.072411502396
 21
2.94e-014
 31
0
 40
0.5773502691896253
 41
5.975034171360555
 42
6.395128151429391
  0
LINE
  5
2D4
100
AcDbEntity
  8
Sichtbar (ISO)
  6
ByLayer
 62
  256
370
   -1
100
AcDbLine
 10
36.25071901550234
 20
118.5626914132084
 11
19.96829054168597
 21
127.9633558756271
  0
LINE
  5
2D5
100
AcDbEntity
  8
Sichtbar (ISO)
  6
ByLayer
 62
  256
370
   -1
100
AcDbLine
 10
19.96829054168596
 20
127.9633558756271
 11
19.96829054168596
 21
113.0622932736961
  0
LINE
  5
2D6
100
AcDbEntity
  8
Sichtbar (ISO)
  6
ByLayer
 62
  256
370
   -1
100
AcDbLine
 10
19.96829054168595
 20
90.60863729818368
 11
19.96829054168595
 21
75.70757469625269
  0
LINE
  5
2D7
100
AcDbEntity
  8
Sichtbar (ISO)
  6
ByLayer
 62
  256
370
   -1
100
AcDbLine
 10
19.88021047425197
 20
128.8709607474189
 11
19.88021047425197
 21
113.9698981454879
  0
LINE
  5
2D8
100
AcDbEntity
  8
Sichtbar (ISO)
  6
ByLayer
 62
  256
370
   -1
100
AcDbLine
 10
19.88021047425196
 20
91.23103795547628
 11
19.88021047425196
 21
76.61517956804447
  0
LINE
  5
2D9
100
AcDbEntity
  8
Sichtbar (ISO)
  6
ByLayer
 62
  256
370
   -1
100
AcDbLine
 10
34.65972875783439
 20
104.5801874648201
 11
34.65972875783439
 21
82.12653148930764
  0
ELLIPSE
  5
2DA
100
AcDbEntity
  8
Sichtbar (ISO)
  6
ByLayer
 62
  256
370
   -1
100
AcDbEllipse
 10
33.95262197664774
 20
91.51624216997546
 30
0
 11
-14.07241150239578
 21
2.97e-014
 31
0
 40
0.5773502691896253
 41
0.0357498811326114
 42
0.1119428442498069
  0
LINE
  5
2DB
100
AcDbEntity
  8
Sichtbar (ISO)
  6
ByLayer
 62
  256
370
   -1
100
AcDbLine
 10
34.65972875783439
 20
82.12653148930762
 11
19.96829054168595
 21
90.60863729818368
  0
ELLIPSE
  5
2DC
100
AcDbEntity
  8
Sichtbar (ISO)
  6
ByLayer
 62
  256
370
   -1
100
AcDbEllipse
 10
31.05201039471702
 20
123.6054086871763
 30
0
 11
-2.999999999999667
 21
-1.732e-013
 31
0
 40
0.5773502691896254
 41
3.926990816987002
 42
4.338128679309451
  0
ELLIPSE
  5
2DD
100
AcDbEntity
  8
Sichtbar (ISO)
  6
ByLayer
 62
  256
370
   -1
100
AcDbEllipse
 10
33.24551519546148
 20
126.8297192950998
 30
0
 11
-2.999999999999695
 21
6.4e-015
 31
0
 40
0.5773502691896252
 41
0.7853981633974545
 42
1.196536025719797
  0
LINE
  5
2DE
100
AcDbEntity
  8
Sichtbar (ISO)
  6
ByLayer
 62
  256
370
   -1
100
AcDbLine
 10
71.78283477012411
 20
50.2831648331281
 11
71.78283477012413
 21
102.5389460125025
  0
LINE
  5
2DF
100
AcDbEntity
  8
Sichtbar (ISO)
  6
ByLayer
 62
  256
370
   -1
100
AcDbLine
 10
31.12419485190205
 20
125.6049744237083
 11
20.87114652469818
 21
131.5245746354337
  0
LINE
  5
2E0
100
AcDbEntity
  8
Sichtbar (ISO)
  6
ByLayer
 62
  256
370
   -1
100
AcDbLine
 10
19.96829054168596
 20
113.0622932736961
 11
34.65972875783439
 21
104.5801874648201
  0
ELLIPSE
  5
2E1
100
AcDbEntity
  8
Sichtbar (ISO)
  6
ByLayer
 62
  256
370
   -1
100
AcDbEllipse
 10
33.95262197664855
 20
113.9698981454879
 30
0
 11
-14.07241150239659
 21
-1.02e-014
 31
0
 40
0.5773502691896253
 41
0
 42
0.1119428442497812
  0
ELLIPSE
  5
2E2
100
AcDbEntity
  8
Sichtbar (ISO)
  6
ByLayer
 62
  256
370
   -1
100
AcDbEllipse
 10
33.95262197664794
 20
106.4173047719064
 30
0
 11
-10.92499999999991
 21
1e-016
 31
0
 40
0.5773502691896258
 41
0.6339813019602599
 42
1.609640334098401
  0
ELLIPSE
  5
2E3
100
AcDbEntity
  8
Sichtbar (ISO)
  6
ByLayer
 62
  256
370
   -1
100
AcDbEllipse
 10
33.95262197664794
 20
99.06883554355699
 30
0
 11
-10.99999999999996
 21
2.2e-015
 31
0
 40
0.5773502691896257
 41
0.3380086293379501
 42
1.609375356670222
  0
ELLIPSE
  5
2E4
100
AcDbEntity
  8
Sichtbar (ISO)
  6
ByLayer
 62
  256
370
   -1
100
AcDbEllipse
 10
27.37652891159335
 20
125.7274489108395
 30
0
 11
-1.749999999999915
 21
3.031088913245462
 31
0
 40
0.5773502691896263
 41
6.014652503051991
 42
6.272980517082879
  0
LINE
  5
2E5
100
AcDbEntity
  8
Sichtbar (ISO)
  6
ByLayer
 62
  256
370
   -1
100
AcDbLine
 10
26.13958344405656
 20
129.0547499965118
 11
25.64429586457637
 21
128.7687955791726
  0
LINE
  5
2E6
100
AcDbEntity
  8
Sichtbar (ISO)
  6
ByLayer
 62
  256
370
   -1
100
AcDbLine
 10
17.94602025884976
 20
161.7025003192124
 11
17.94602025884976
 21
162.3447622859653
  0
LINE
  5
2E7
100
AcDbEntity
  8
Sichtbar (ISO)
  6
ByLayer
 62
  256
370
   -1
100
AcDbLine
 10
17.94602025884975
 20
161.7025003192124
 11
17.94602025884971
 21
142.5922064090357
  0
LINE
  5
2E8
100
AcDbEntity
  8
Sichtbar (ISO)
  6
ByLayer
 62
  256
370
   -1
100
AcDbLine
 10
17.94602025884971
 20
137.713742433625
 11
17.94602025884971
 21
142.5922064090358
  0
LINE
  5
2E9
100
AcDbEntity
  8
Sichtbar (ISO)
  6
ByLayer
 62
  256
370
   -1
100
AcDbLine
 10
17.94602025884971
 20
137.713742433625
 11
17.94602025884971
 21
131.580403910579
  0
LINE
  5
2EA
100
AcDbEntity
  8
Sichtbar (ISO)
  6
ByLayer
 62
  256
370
   -1
100
AcDbLine
 10
17.94602025884976
 20
162.3447622859653
 11
17.24602025884975
 21
162.3447622859653
  0
LINE
  5
2EB
100
AcDbEntity
  8
Sichtbar (ISO)
  6
ByLayer
 62
  256
370
   -1
100
AcDbLine
 10
27.54602025884973
 20
161.7025003192122
 11
27.54602025884973
 21
162.3447622859652
  0
LINE
  5
2EC
100
AcDbEntity
  8
Sichtbar (ISO)
  6
ByLayer
 62
  256
370
   -1
100
AcDbLine
 10
27.54602025884973
 20
161.7025003192122
 11
27.54602025884972
 21
159.4649639200244
  0
LINE
  5
2ED
100
AcDbEntity
  8
Sichtbar (ISO)
  6
ByLayer
 62
  256
370
   -1
100
AcDbLine
 10
28.24602025884968
 20
162.3447622859652
 11
27.54602025884973
 21
162.3447622859652
  0
LINE
  5
2EE
100
AcDbEntity
  8
Sichtbar (ISO)
  6
ByLayer
 62
  256
370
   -1
100
AcDbLine
 10
18.74602025884954
 20
162.3447622859653
 11
17.24602025884975
 21
162.3447622859653
  0
LINE
  5
2EF
100
AcDbEntity
  8
Sichtbar (ISO)
  6
ByLayer
 62
  256
370
   -1
100
AcDbLine
 10
28.24602025884968
 20
162.3447622859652
 11
26.74602025884956
 21
162.3447622859652
  0
LINE
  5
2F0
100
AcDbEntity
  8
Sichtbar (ISO)
  6
ByLayer
 62
  256
370
   -1
100
AcDbLine
 10
18.74602025884954
 20
162.3447622859653
 11
17.24602025884975
 21
162.3447622859653
  0
LINE
  5
2F1
100
AcDbEntity
  8
Sichtbar (ISO)
  6
ByLayer
 62
  256
370
   -1
100
AcDbLine
 10
34.37688604535951
 20
104.743486781005
 11
34.37688604535955
 21
82.7797287540495
  0
LINE
  5
2F2
100
AcDbEntity
  8
Sichtbar (ISO)
  6
ByLayer
 62
  256
370
   -1
100
AcDbLine
 10
34.65972875783446
 20
82.61642943786379
 11
34.37688604535956
 21
82.77972875404953
  0
LINE
  5
2F3
100
AcDbEntity
  8
Sichtbar (ISO)
  6
ByLayer
 62
  256
370
   -1
100
AcDbLine
 10
33.74602025884977
 20
165.3958424815172
 11
33.74602025884975
 21
156.7511260563494
  0
LINE
  5
2F4
100
AcDbEntity
  8
Sichtbar (ISO)
  6
ByLayer
 62
  256
370
   -1
100
AcDbLine
 10
28.2460202588497
 20
165.3958424815172
 11
33.74602025884977
 21
165.3958424815172
  0
LINE
  5
2F5
100
AcDbEntity
  8
Sichtbar (ISO)
  6
ByLayer
 62
  256
370
   -1
100
AcDbLine
 10
28.24602025884969
 20
159.5712321903037
 11
28.2460202588497
 21
165.3958424815172
  0
LINE
  5
2F6
100
AcDbEntity
  8
Sichtbar (ISO)
  6
ByLayer
 62
  256
370
   -1
100
AcDbLine
 10
23.20459890260988
 20
58.28149259722099
 11
20.54602025884961
 21
56.74656150158424
  0
LINE
  5
2F7
100
AcDbEntity
  8
Sichtbar (ISO)
  6
ByLayer
 62
  256
370
   -1
100
AcDbLine
 10
20.54602025884961
 20
56.74656150158424
 11
19.54602025884963
 21
56.74656150158424
  0
LINE
  5
2F8
100
AcDbEntity
  8
Sichtbar (ISO)
  6
ByLayer
 62
  256
370
   -1
100
AcDbLine
 10
19.54602025884963
 20
56.74656150158424
 11
18.74602025884968
 21
57.20844171693596
  0
LINE
  5
2F9
100
AcDbEntity
  8
Sichtbar (ISO)
  6
ByLayer
 62
  256
370
   -1
100
AcDbLine
 10
20.54602025884968
 20
157.992137536622
 11
26.74602025884972
 21
161.5717092055977
  0
LINE
  5
2FA
100
AcDbEntity
  8
Sichtbar (ISO)
  6
ByLayer
 62
  256
370
   -1
100
AcDbLine
 10
26.74602025884972
 20
161.5717092055976
 11
26.7460202588499
 21
198.4066563798957
  0
LINE
  5
2FB
100
AcDbEntity
  8
Sichtbar (ISO)
  6
ByLayer
 62
  256
370
   -1
100
AcDbLine
 10
26.7460202588499
 20
198.4066563798957
 11
18.74602025884989
 21
198.4066563798958
  0
LINE
  5
2FC
100
AcDbEntity
  8
Sichtbar (ISO)
  6
ByLayer
 62
  256
370
   -1
100
AcDbLine
 10
18.74602025884989
 20
198.4066563798958
 11
18.74602025884968
 21
158.4540177519737
  0
LINE
  5
2FD
100
AcDbEntity
  8
Sichtbar (ISO)
  6
ByLayer
 62
  256
370
   -1
100
AcDbLine
 10
18.74602025884972
 20
158.4540177519737
 11
19.54602025884966
 21
157.992137536622
  0
LINE
  5
2FE
100
AcDbEntity
  8
Sichtbar (ISO)
  6
ByLayer
 62
  256
370
   -1
100
AcDbLine
 10
19.54602025884966
 20
157.992137536622
 11
20.54602025884968
 21
157.992137536622
  0
LINE
  5
2FF
100
AcDbEntity
  8
Sichtbar (ISO)
  6
ByLayer
 62
  256
370
   -1
100
AcDbLine
 10
20.54602025884968
 20
157.992137536622
 11
20.54602025884964
 21
131.3368628983262
  0
LINE
  5
300
100
AcDbEntity
  8
Sichtbar (ISO)
  6
ByLayer
 62
  256
370
   -1
100
AcDbLine
 10
26.74602025884969
 20
159.0030837046725
 11
26.74602025884972
 21
161.5717092055976
  0
LINE
  5
301
100
AcDbEntity
  8
Sichtbar (ISO)
  6
ByLayer
 62
  256
370
   -1
100
AcDbLine
 10
20.54602025884961
 20
75.37402228852839
 11
20.54602025884961
 21
56.74656150158424
  0
LINE
  5
302
100
AcDbEntity
  8
Sichtbar (ISO)
  6
ByLayer
 62
  256
370
   -1
100
AcDbLine
 10
19.54602025884963
 20
123.6992811376576
 11
19.88021047425057
 21
123.6992811376576
  0
LINE
  5
303
100
AcDbEntity
  8
Sichtbar (ISO)
  6
ByLayer
 62
  256
370
   -1
100
AcDbLine
 10
19.54602025884963
 20
91.03941790054868
 11
19.88021047425061
 21
91.03941790054868
  0
LINE
  5
304
100
AcDbEntity
  8
Sichtbar (ISO)
  6
ByLayer
 62
  256
370
   -1
100
AcDbLine
 10
18.84854591331002
 20
124.1019681388078
 11
19.54602025884963
 21
123.6992811376576
  0
LINE
  5
305
100
AcDbEntity
  8
Sichtbar (ISO)
  6
ByLayer
 62
  256
370
   -1
100
AcDbLine
 10
19.54602025884963
 20
123.6992811376576
 11
19.54602025884966
 21
157.992137536622
  0
LINE
  5
306
100
AcDbEntity
  8
Sichtbar (ISO)
  6
ByLayer
 62
  256
370
   -1
100
AcDbLine
 10
19.54602025884963
 20
91.03941790054868
 11
19.54602025884963
 21
56.74656150158424
  0
LINE
  5
307
100
AcDbEntity
  8
Sichtbar (ISO)
  6
ByLayer
 62
  256
370
   -1
100
AcDbLine
 10
19.54602025884963
 20
91.03941790054868
 11
18.84854591331002
 21
91.44210490169883
  0
LINE
  5
308
100
AcDbEntity
  8
Sichtbar (ISO)
  6
ByLayer
 62
  256
370
   -1
100
AcDbLine
 10
18.74602025884968
 20
78.55246841212951
 11
18.74602025884968
 21
57.20844171693596
  0
LINE
  5
309
100
AcDbEntity
  8
Sichtbar (ISO)
  6
ByLayer
 62
  256
370
   -1
100
AcDbLine
 10
18.74602025884972
 20
158.4540177519737
 11
18.74602025884968
 21
131.1185236952272
  0
LINE
  5
30A
100
AcDbEntity
  8
Sichtbar (ISO)
  6
ByLayer
 62
  256
370
   -1
100
AcDbLine
 10
79.91456275376947
 20
22.31815693635296
 11
79.91456275377186
 21
123.5637329713898
  0
LINE
  5
30B
100
AcDbEntity
  8
Sichtbar (ISO)
  6
ByLayer
 62
  256
370
   -1
100
AcDbLine
 10
85.57141700326187
 20
25.58414326006387
 11
79.91456275376947
 21
22.31815693635296
  0
LINE
  5
30C
100
AcDbEntity
  8
Sichtbar (ISO)
  6
ByLayer
 62
  256
370
   -1
100
AcDbLine
 10
85.57141700326424
 20
126.8297192951006
 11
85.57141700326187
 21
25.58414326006391
  0
LINE
  5
30D
100
AcDbEntity
  8
Sichtbar (ISO)
  6
ByLayer
 62
  256
370
   -1
100
AcDbLine
 10
79.91456275377183
 20
123.5637329713898
 11
85.57141700326417
 21
126.8297192951006
  0
LINE
  5
30E
100
AcDbEntity
  8
Sichtbar (ISO)
  6
ByLayer
 62
  256
370
   -1
100
AcDbLine
 10
79.91456275376947
 20
22.31815693635296
 11
23.20459890260844
 21
55.05966983155653
  0
LINE
  5
30F
100
AcDbEntity
  8
Sichtbar (ISO)
  6
ByLayer
 62
  256
370
   -1
100
AcDbLine
 10
23.20459890261074
 20
156.3052458665934
 11
79.91456275377186
 21
123.5637329713897
  0
LINE
  5
310
100
AcDbEntity
  8
Sichtbar (ISO)
  6
ByLayer
 62
  256
370
   -1
100
AcDbLine
 10
85.57141700326424
 20
126.8297192951006
 11
28.86145315210317
 21
159.5712321903042
  0
LINE
  5
311
100
AcDbEntity
  8
Sichtbar (ISO)
  6
ByLayer
 62
  256
370
   -1
100
AcDbLine
 10
27.73008230220465
 20
159.5712321903043
 11
23.20459890261071
 21
156.9584431313356
  0
LINE
  5
312
100
AcDbEntity
  8
Sichtbar (ISO)
  6
ByLayer
 62
  256
370
   -1
100
AcDbLine
 10
23.20459890261029
 20
134.2072436128284
 11
23.20459890261074
 21
156.3052458665934
  0
LINE
  5
313
100
AcDbEntity
  8
Sichtbar (ISO)
  6
ByLayer
 62
  256
370
   -1
100
AcDbLine
 10
23.20459890260842
 20
55.05966983155653
 11
23.20459890260887
 21
73.83909119289163
  0
LINE
  5
314
100
AcDbEntity
  8
Sichtbar (ISO)
  6
ByLayer
 62
  256
370
   -1
100
AcDbLine
 10
27.73008230220465
 20
159.5712321903043
 11
28.86145315210317
 21
159.5712321903042
  0
LINE
  5
315
100
AcDbEntity
  8
Sichtbar (ISO)
  6
ByLayer
 62
  256
370
   -1
100
AcDbLine
 10
23.20459890261074
 20
156.3052458665934
 11
23.20459890261071
 21
156.9584431313356
  0
ELLIPSE
  5
316
100
AcDbEntity
  8
Sichtbar (ISO)
  6
ByLayer
 62
  256
370
   -1
100
AcDbEllipse
 10
22.63891347766098
 20
130.5039539092776
 30
0
 11
2.499999999999709
 21
-4.330127018922308
 31
0
 40
0.5773502691896248
 41
0.8760151268543872
 42
2.195503837240565
  0
DIMENSION
  5
317
100
AcDbEntity
  8
Bemaßung (ISO)
  6
CONTINUOUS
 62
    7
370
   18
100
AcDbDimension
  2
*D12
 10
135.7640847301261
 20
191.0064496664565
 30
0
 11
135.7640847301261
 21
195.0064496664565
 31
0
 70
   32
  1
<>
 71
    5
 72
    0
  3
Pauli_DINGroßer Text
 53
0
210
0
220
0
230
1
100
AcDbAlignedDimension
 13
145.7640847301261
 23
199.0064496664564
 33
0
 14
145.7640847301261
 24
191.0064496664564
 34
0
 50
90
100
AcDbRotatedDimension
  0
DIMENSION
  5
318
100
AcDbEntity
  8
Bemaßung (ISO)
  6
CONTINUOUS
 62
    7
370
   18
100
AcDbDimension
  2
*D13
 10
105.109361752699
 20
184.0064496664563
 30
0
 11
105.109361752699
 21
195.0064496664563
 31
0
 70
   32
  1
<>
 71
    5
 72
    0
  3
Pauli_DINGroßer Text
 53
0
210
0
220
0
230
1
100
AcDbAlignedDimension
 13
160.5140847301266
 23
206.0064496664563
 33
0
 14
160.5140847301266
 24
184.0064496664562
 34
0
 50
270
100
AcDbRotatedDimension
  0
DIMENSION
  5
319
100
AcDbEntity
  8
Bemaßung (ISO)
  6
CONTINUOUS
 62
    7
370
   18
100
AcDbDimension
  2
*D14
 10
305.7829323607594
 20
272.6625989248829
 30
0
 11
298.0047577677087
 21
280.4407735179337
 31
0
 70
   32
  1
<>
 71
    5
 72
    0
  3
Pauli_DINGroßer Text
 53
0
210
0
220
0
230
1
100
AcDbAlignedDimension
 13
257.7181611309835
 23
255.7105260673099
 33
0
 14
273.2745103170817
 24
240.1541768812052
 34
0
 50
315.0000000000001
100
AcDbRotatedDimension
  0
DIMENSION
  5
31A
100
AcDbEntity
  8
Bemaßung (ISO)
  6
CONTINUOUS
 62
    7
370
   18
100
AcDbDimension
  2
*D15
 10
115.9182868744168
 20
191.0064496664565
 30
0
 11
115.9182868744169
 21
187.5064496664563
 31
0
 70
   32
  1
<>
 71
    5
 72
    0
  3
Pauli_DINGroßer Text
 53
0
210
0
220
0
230
1
100
AcDbAlignedDimension
 13
160.5140847301266
 23
184.0064496664562
 33
0
 14
145.7640847301261
 24
191.0064496664564
 34
0
 50
90
100
AcDbRotatedDimension
  0
DIMENSION
  5
31B
100
AcDbEntity
  8
Bemaßung (ISO)
  6
CONTINUOUS
 62
    7
370
   18
100
AcDbDimension
  2
*D16
 10
124.7704238275478
 20
206.0064496664564
 30
0
 11
124.7704238275479
 21
202.5064496664565
 31
0
 70
   32
  1
<>
 71
    5
 72
    0
  3
Pauli_DINGroßer Text
 53
0
210
0
220
0
230
1
100
AcDbAlignedDimension
 13
145.7640847301261
 23
199.0064496664565
 33
0
 14
160.5140847301266
 24
206.0064496664563
 34
0
 50
90
100
AcDbRotatedDimension
  0
LINE
  5
31C
100
AcDbEntity
  8
Mittelpunktmarkierung (ISO)
  6
CONTINUOUS
 62
  256
370
   -1
100
AcDbLine
 10
227.5414409267896
 20
209.9774566770155
 11
220.0126303412677
 21
202.4486460914935
  0
LINE
  5
31D
100
AcDbEntity
  8
Mittelpunktmarkierung (ISO)
  6
CONTINUOUS
 62
  256
370
   -1
100
AcDbLine
 10
227.5414409267897
 20
202.4486460914935
 11
220.0126303412677
 21
209.9774566770154
  0
DIMENSION
  5
31E
100
AcDbEntity
  8
Bemaßung (ISO)
  6
CONTINUOUS
 62
    7
370
   18
100
AcDbDimension
  2
*D17
 10
160.5140847301266
 20
174.0064496664563
 30
0
 11
188.8204339162306
 21
174.0064496664563
 31
0
 70
   32
  1
<>
 71
    5
 72
    0
  3
Pauli_DINGroßer Text
 53
0
210
0
220
0
230
1
100
AcDbAlignedDimension
 13
217.1267831023346
 23
184.0064496664563
 33
0
 14
160.5140847301266
 24
184.0064496664562
 34
0
 50
180
100
AcDbRotatedDimension
  0
DIMENSION
  5
31F
100
AcDbEntity
  8
Bemaßung (ISO)
  6
CONTINUOUS
 62
    7
370
   18
100
AcDbDimension
  2
*D18
 10
229.8547051636923
 20
171.2785276050989
 30
0
 11
257.9356398388778
 21
199.3594622802852
 31
0
 70
   32
  1
<>
 71
    5
 72
    0
  3
Pauli_DINGroßer Text
 53
0
210
0
220
0
230
1
100
AcDbAlignedDimension
 13
273.2745103170817
 23
240.1541768812052
 33
0
 14
217.1267831023346
 24
184.0064496664563
 34
0
 50
45.00000000000088
100
AcDbRotatedDimension
  0
DIMENSION
  5
320
100
AcDbEntity
  8
Bemaßung (ISO)
  6
CONTINUOUS
 62
    7
370
   18
100
AcDbDimension
  2
*D19
 10
227.2630825937306
 20
181.3074518028514
 30
0
 11
240.577264395589
 21
194.6216336047097
 31
0
 70
   32
  1
<>
 71
    5
 72
    0
  3
Pauli_DINGroßer Text
 53
0
210
0
220
0
230
1
100
AcDbAlignedDimension
 13
217.5544959595845
 23
195.4650283102172
 33
0
 14
215.764084730126
 24
192.8064496664562
 34
0
 50
224.9999999999997
100
AcDbRotatedDimension
  0
DIMENSION
  5
321
100
AcDbEntity
  8
Bemaßung (ISO)
  6
CONTINUOUS
 62
    7
370
   18
100
AcDbDimension
  2
*D20
 10
275.470402056044
 20
263.5632720557631
 30
0
 11
278.2988291807902
 21
260.7348449310169
 31
0
 70
   32
  1
<>
 71
    5
 72
    0
  3
Pauli_DINGroßer Text
 53
0
210
0
220
0
230
1
100
AcDbAlignedDimension
 13
275.3958306606441
 23
252.1749921613784
 33
0
 14
269.7389764111516
 24
257.8318464108708
 34
0
 50
315
100
AcDbRotatedDimension
  0
DIMENSION
  5
322
100
AcDbEntity
  8
Bemaßung (ISO)
  6
CONTINUOUS
 62
    7
370
   18
100
AcDbDimension
  2
*D21
 10
277.5171510042059
 20
275.5095159405324
 30
0
 11
279.9920247383578
 21
273.0346422063806
 31
0
 70
   32
  1
<>
 71
    5
 72
    0
  3
Pauli_DINGroßer Text
 53
0
210
0
220
0
230
1
100
AcDbAlignedDimension
 13
269.7389764111516
 23
257.8318464108708
 33
0
 14
257.7181611309835
 24
255.7105260673099
 34
0
 50
135
100
AcDbRotatedDimension
  0
DIMENSION
  5
323
100
AcDbEntity
  8
Bemaßung (ISO)
  6
CONTINUOUS
 62
    7
370
   18
100
AcDbDimension
  2
*D22
 10
293.7806069714942
 20
270.5597684722286
 30
0
 11
296.2554807056469
 21
268.0848947380759
 31
0
 70
   32
  1
<>
 71
    5
 72
    0
  3
Pauli_DINGroßer Text
 53
0
210
0
220
0
230
1
100
AcDbAlignedDimension
 13
273.2745103170817
 23
240.1541768812052
 33
0
 14
275.3958306606441
 24
252.1749921613784
 34
0
 50
135.0000000000001
100
AcDbRotatedDimension
  0
DIMENSION
  5
324
100
AcDbEntity
  8
Bemaßung (ISO)
  6
CONTINUOUS
 62
    7
370
   18
100
AcDbDimension
  2
*D23
 10
310.7764633667796
 20
131.6256972066045
 30
0
 11
322.1825395024783
 21
146.8600137783657
 31
0
 70
   36
  1
<>
 71
    5
 72
    0
  3
Pauli_DINGroßer Text
 53
0
210
0
220
0
230
1
100
AcDbRadialDimension
 15
314.3119972727129
 25
135.1612311125367
 35
0
 40
0
  0
DIMENSION
  5
325
100
AcDbEntity
  8
Bemaßung (ISO)
  6
CONTINUOUS
 62
    7
370
   18
100
AcDbDimension
  2
*D24
 10
328.7764633667797
 20
71.62569720660454
 30
0
 11
328.7764633667796
 21
101.6256972066045
 31
0
 70
   32
  1
<>
 71
    5
 72
    0
  3
Pauli_DINGroßer Text
 53
0
210
0
220
0
230
1
100
AcDbAlignedDimension
 13
317.2764633667796
 23
131.6256972066045
 33
0
 14
317.2764633667796
 24
71.62569720660451
 34
0
 50
90
100
AcDbRotatedDimension
  0
LINE
  5
326
100
AcDbEntity
  8
Mittelpunktmarkierung (ISO)
  6
CONTINUOUS
 62
  256
370
   -1
100
AcDbLine
 10
317.2764633667796
 20
131.6256972066045
 11
310.2764633667796
 21
131.6256972066045
  0
LINE
  5
327
100
AcDbEntity
  8
Mittelpunktmarkierung (ISO)
  6
CONTINUOUS
 62
  256
370
   -1
100
AcDbLine
 10
310.7764633667796
 20
132.1256972066045
 11
310.7764633667796
 21
131.1256972066045
  0
LINE
  5
328
100
AcDbEntity
  8
Mittelpunktmarkierung (ISO)
  6
CONTINUOUS
 62
  256
370
   -1
100
AcDbLine
 10
317.2764633667796
 20
71.62569720660451
 11
310.2764633667796
 21
71.62569720660451
  0
LINE
  5
329
100
AcDbEntity
  8
Mittelpunktmarkierung (ISO)
  6
CONTINUOUS
 62
  256
370
   -1
100
AcDbLine
 10
310.7764633667796
 20
72.12569720660451
 11
310.7764633667796
 21
71.12569720660451
  0
LINE
  5
32A
100
AcDbEntity
  8
Sichtbar (ISO)
  6
ByLayer
 62
  256
370
   -1
100
AcDbLine
 10
189.2663924706934
 20
105.1457205283759
 11
192.4882178776414
 21
105.1457205283782
  0
LINE
  5
32B
100
AcDbEntity
  8
Sichtbar (ISO)
  6
ByLayer
 62
  256
370
   -1
100
AcDbLine
 10
192.4882178776414
 20
79.04572052837824
 11
189.2663924706934
 21
79.04572052837592
  0
LINE
  5
32C
100
AcDbEntity
  8
Sichtbar (ISO)
  6
ByLayer
 62
  256
370
   -1
100
AcDbLine
 10
189.2663924706934
 20
105.1457205283759
 11
180.8254209626262
 21
105.1457205283734
  0
LINE
  5
32D
100
AcDbEntity
  8
Sichtbar (ISO)
  6
ByLayer
 62
  256
370
   -1
100
AcDbLine
 10
189.2663924706934
 20
79.04572052837592
 11
180.8254209626262
 21
79.04572052837344
  0
LINE
  5
32E
100
AcDbEntity
  8
Sichtbar (ISO)
  6
ByLayer
 62
  256
370
   -1
100
AcDbLine
 10
174.8379653459472
 20
124.0957205283716
 11
180.8254209626262
 21
124.0957205283734
  0
LINE
  5
32F
100
AcDbEntity
  8
Sichtbar (ISO)
  6
ByLayer
 62
  256
370
   -1
100
AcDbLine
 10
174.8379653459472
 20
60.09572052837167
 11
174.8379653459472
 21
124.0957205283716
  0
LINE
  5
330
100
AcDbEntity
  8
Sichtbar (ISO)
  6
ByLayer
 62
  256
370
   -1
100
AcDbLine
 10
174.8379653459472
 20
60.09572052837167
 11
180.8254209626262
 21
60.09572052837343
  0
LINE
  5
331
100
AcDbEntity
  8
Sichtbar (ISO)
  6
ByLayer
 62
  256
370
   -1
100
AcDbLine
 10
192.4882178776414
 20
96.79572052837825
 11
192.4882178776414
 21
105.1457205283782
  0
LINE
  5
332
100
AcDbEntity
  8
Sichtbar (ISO)
  6
ByLayer
 62
  256
370
   -1
100
AcDbLine
 10
192.4882178776414
 20
79.04572052837824
 11
192.4882178776414
 21
87.39572052837822
  0
LINE
  5
333
100
AcDbEntity
  8
Sichtbar (ISO)
  6
ByLayer
 62
  256
370
   -1
100
AcDbLine
 10
192.4882178776414
 20
96.79572052837821
 11
189.2663924706934
 21
96.79572052837592
  0
LINE
  5
334
100
AcDbEntity
  8
Sichtbar (ISO)
  6
ByLayer
 62
  256
370
   -1
100
AcDbLine
 10
189.2663924706934
 20
87.3957205283759
 11
192.4882178776414
 21
87.39572052837822
  0
LINE
  5
335
100
AcDbEntity
  8
Sichtbar (ISO)
  6
ByLayer
 62
  256
370
   -1
100
AcDbLine
 10
189.2663924706934
 20
87.39572052837592
 11
186.3134278586466
 21
87.39572052837504
  0
LINE
  5
336
100
AcDbEntity
  8
Sichtbar (ISO)
  6
ByLayer
 62
  256
370
   -1
100
AcDbLine
 10
186.3134278586466
 20
87.39572052837504
 11
186.3134278586466
 21
96.79572052837503
  0
LINE
  5
337
100
AcDbEntity
  8
Sichtbar (ISO)
  6
ByLayer
 62
  256
370
   -1
100
AcDbLine
 10
186.3134278586466
 20
96.79572052837503
 11
189.2663924706934
 21
96.79572052837592
  0
LINE
  5
338
100
AcDbEntity
  8
Sichtbar (ISO)
  6
ByLayer
 62
  256
370
   -1
100
AcDbLine
 10
180.8254209626262
 20
79.04572052837344
 11
180.8254209626262
 21
60.09572052837343
  0
LINE
  5
339
100
AcDbEntity
  8
Sichtbar (ISO)
  6
ByLayer
 62
  256
370
   -1
100
AcDbLine
 10
180.8254209626262
 20
124.0957205283734
 11
180.8254209626262
 21
105.1457205283734
  0
LINE
  5
33A
100
AcDbEntity
  8
Sichtbar (ISO)
  6
ByLayer
 62
  256
370
   -1
100
AcDbLine
 10
174.8379653459472
 20
124.0957205283716
 11
118.2252669737392
 21
124.0957205283716
  0
LINE
  5
33B
100
AcDbEntity
  8
Sichtbar (ISO)
  6
ByLayer
 62
  256
370
   -1
100
AcDbLine
 10
118.2252669737392
 20
60.09572052837167
 11
174.8379653459472
 21
60.09572052837166
  0
LINE
  5
33C
100
AcDbEntity
  8
Sichtbar (ISO)
  6
ByLayer
 62
  256
370
   -1
100
AcDbLine
 10
118.2252669737392
 20
124.0957205283716
 11
118.2252669737392
 21
60.09572052837167
  0
LINE
  5
33D
100
AcDbEntity
  8
Sichtbar (ISO)
  6
ByLayer
 62
  256
370
   -1
100
AcDbLine
 10
190.1856312862348
 20
105.7457205283805
 11
190.1856312862349
 21
105.8457205283806
  0
LINE
  5
33E
100
AcDbEntity
  8
Sichtbar (ISO)
  6
ByLayer
 62
  256
370
   -1
100
AcDbLine
 10
190.1856312862349
 20
78.34572052838065
 11
190.1856312862349
 21
78.44572052838056
  0
ELLIPSE
  5
33F
100
AcDbEntity
  8
Sichtbar (ISO)
  6
ByLayer
 62
  256
370
   -1
100
AcDbEllipse
 10
189.973499251879
 20
105.4457205283818
 30
0
 11
0.3695518130044343
 21
-0.3695518130045976
 31
0
 40
0.4142135623732188
 41
2.026159324077505
 42
2.748893571891415
  0
LINE
  5
340
100
AcDbEntity
  8
Sichtbar (ISO)
  6
ByLayer
 62
  256
370
   -1
100
AcDbLine
 10
197.7516738449302
 20
105.8457205283784
 11
197.7516738449302
 21
78.34572052837842
  0
LINE
  5
341
100
AcDbEntity
  8
Sichtbar (ISO)
  6
ByLayer
 62
  256
370
   -1
100
AcDbLine
 10
180.8254209626263
 20
78.34572052837404
 11
183.0602356287817
 21
78.34572052837407
  0
LINE
  5
342
100
AcDbEntity
  8
Sichtbar (ISO)
  6
ByLayer
 62
  256
370
   -1
100
AcDbLine
 10
197.7516738449302
 20
78.34572052837842
 11
183.0602356287817
 21
78.34572052837407
  0
ELLIPSE
  5
343
100
AcDbEntity
  8
Sichtbar (ISO)
  6
ByLayer
 62
  256
370
   -1
100
AcDbEllipse
 10
189.973499251879
 20
78.74572052838182
 30
0
 11
-0.3695518130045009
 21
-0.3695518130044454
 31
0
 40
0.4142135623729703
 41
0.3926990816990479
 42
1.115433329511997
  0
LINE
  5
344
100
AcDbEntity
  8
Sichtbar (ISO)
  6
ByLayer
 62
  256
370
   -1
100
AcDbLine
 10
183.0602356287817
 20
60.09572052837407
 11
230.9856925606943
 21
60.09572052838827
  0
LINE
  5
345
100
AcDbEntity
  8
Sichtbar (ISO)
  6
ByLayer
 62
  256
370
   -1
100
AcDbLine
 10
183.0602356287817
 20
60.09572052837409
 11
180.8254209626263
 21
60.09572052837406
  0
LINE
  5
346
100
AcDbEntity
  8
Sichtbar (ISO)
  6
ByLayer
 62
  256
370
   -1
100
AcDbLine
 10
230.9856925606943
 20
124.0957205283882
 11
230.9856925606943
 21
60.09572052838827
  0
LINE
  5
347
100
AcDbEntity
  8
Sichtbar (ISO)
  6
ByLayer
 62
  256
370
   -1
100
AcDbLine
 10
180.8254209626263
 20
124.095720528374
 11
183.0602356287817
 21
124.095720528374
  0
LINE
  5
348
100
AcDbEntity
  8
Sichtbar (ISO)
  6
ByLayer
 62
  256
370
   -1
100
AcDbLine
 10
230.9856925606943
 20
124.0957205283882
 11
183.0602356287817
 21
124.095720528374
  0
LINE
  5
349
100
AcDbEntity
  8
Sichtbar (ISO)
  6
ByLayer
 62
  256
370
   -1
100
AcDbLine
 10
183.0602356287817
 20
124.095720528374
 11
183.0602356287817
 21
105.845720528374
  0
LINE
  5
34A
100
AcDbEntity
  8
Sichtbar (ISO)
  6
ByLayer
 62
  256
370
   -1
100
AcDbLine
 10
183.0602356287817
 20
78.34572052837407
 11
183.0602356287817
 21
60.09572052837407
  0
LINE
  5
34B
100
AcDbEntity
  8
Sichtbar (ISO)
  6
ByLayer
 62
  256
370
   -1
100
AcDbLine
 10
183.0602356287817
 20
105.845720528374
 11
197.7516738449302
 21
105.8457205283784
  0
LINE
  5
34C
100
AcDbEntity
  8
Sichtbar (ISO)
  6
ByLayer
 62
  256
370
   -1
100
AcDbLine
 10
183.0602356287817
 20
105.845720528374
 11
180.8254209626263
 21
105.845720528374
  0
LINE
  5
34D
100
AcDbEntity
  8
Sichtbar (ISO)
  6
ByLayer
 62
  256
370
   -1
100
AcDbLine
 10
186.3134278586466
 20
96.59572052837525
 11
192.4132178776412
 21
96.59572052837817
  0
LINE
  5
34E
100
AcDbEntity
  8
Sichtbar (ISO)
  6
ByLayer
 62
  256
370
   -1
100
AcDbLine
 10
192.4882178776413
 20
87.59572052837827
 11
186.3134278586466
 21
87.59572052837532
  0
LINE
  5
34F
100
AcDbEntity
  8
Sichtbar (ISO)
  6
ByLayer
 62
  256
370
   -1
100
AcDbLine
 10
192.4132178776412
 20
96.59572052837817
 11
192.4882178776413
 21
87.59572052837825
  0
LINE
  5
350
100
AcDbEntity
  8
Sichtbar (ISO)
  6
ByLayer
 62
  256
370
   -1
100
AcDbLine
 10
188.9882178776411
 20
78.84572052837822
 11
180.8254209626262
 21
78.84572052837601
  0
LINE
  5
351
100
AcDbEntity
  8
Sichtbar (ISO)
  6
ByLayer
 62
  256
370
   -1
100
AcDbLine
 10
188.9882178776411
 20
78.34572052837822
 11
188.9882178776411
 21
78.84572052837822
  0
LINE
  5
352
100
AcDbEntity
  8
Sichtbar (ISO)
  6
ByLayer
 62
  256
370
   -1
100
AcDbLine
 10
185.4882178776414
 20
105.1457205283786
 11
185.4882178776414
 21
105.3457205283786
  0
LINE
  5
353
100
AcDbEntity
  8
Sichtbar (ISO)
  6
ByLayer
 62
  256
370
   -1
100
AcDbLine
 10
185.9882178776414
 20
78.8457205283778
 11
185.9882178776414
 21
79.0457205283778
  0
LINE
  5
354
100
AcDbEntity
  8
Sichtbar (ISO)
  6
ByLayer
 62
  256
370
   -1
100
AcDbLine
 10
186.7753478833512
 20
87.59572052838215
 11
186.7753478833512
 21
87.39572052838216
  0
LINE
  5
355
100
AcDbEntity
  8
Sichtbar (ISO)
  6
ByLayer
 62
  256
370
   -1
100
AcDbLine
 10
186.7753478833512
 20
96.79572052838212
 11
186.7753478833512
 21
96.59572052838215
  0
LINE
  5
356
100
AcDbEntity
  8
Sichtbar (ISO)
  6
ByLayer
 62
  256
370
   -1
100
AcDbLine
 10
192.4869678776412
 20
87.74572052838015
 11
193.4534808439393
 21
87.74572052837998
  0
LINE
  5
357
100
AcDbEntity
  8
Sichtbar (ISO)
  6
ByLayer
 62
  256
370
   -1
100
AcDbLine
 10
193.4534808439393
 20
96.44572052837994
 11
192.4144678776412
 21
96.44572052838014
  0
LINE
  5
358
100
AcDbEntity
  8
Sichtbar (ISO)
  6
ByLayer
 62
  256
370
   -1
100
AcDbLine
 10
192.4157178776412
 20
96.29572052837985
 11
193.4534808439394
 21
96.29572052837987
  0
LINE
  5
359
100
AcDbEntity
  8
Sichtbar (ISO)
  6
ByLayer
 62
  256
370
   -1
100
AcDbLine
 10
193.4534808439394
 20
95.89572052837977
 11
192.4190512109746
 21
95.8957205283797
  0
LINE
  5
35A
100
AcDbEntity
  8
Sichtbar (ISO)
  6
ByLayer
 62
  256
370
   -1
100
AcDbLine
 10
192.482384544308
 20
88.29572052837975
 11
193.4534808439394
 21
88.29572052837977
  0
LINE
  5
35B
100
AcDbEntity
  8
Sichtbar (ISO)
  6
ByLayer
 62
  256
370
   -1
100
AcDbLine
 10
193.4534808439394
 20
87.8957205283799
 11
192.4857178776412
 21
87.89572052837984
  0
ELLIPSE
  5
35C
100
AcDbEntity
  8
Sichtbar (ISO)
  6
ByLayer
 62
  256
370
   -1
100
AcDbEllipse
 10
189.5622729673485
 20
86.09572052838023
 30
0
 11
-1.2e-015
 21
5.391991091396736
 31
0
 40
0.7216643741862928
 41
4.392744253210842
 42
4.712388980384274
  0
LINE
  5
35D
100
AcDbEntity
  8
Sichtbar (ISO)
  6
ByLayer
 62
  256
370
   -1
100
AcDbLine
 10
193.2563799393438
 20
84.40139892475518
 11
193.2563799393438
 21
78.44572052837913
  0
LINE
  5
35E
100
AcDbEntity
  8
Sichtbar (ISO)
  6
ByLayer
 62
  256
370
   -1
100
AcDbLine
 10
196.7617243512692
 20
78.44572052837813
 11
193.2563799393438
 21
78.44572052837913
  0
LINE
  5
35F
100
AcDbEntity
  8
Sichtbar (ISO)
  6
ByLayer
 62
  256
370
   -1
100
AcDbLine
 10
196.7617243512692
 20
105.7457205283783
 11
196.7617243512692
 21
78.44572052837813
  0
LINE
  5
360
100
AcDbEntity
  8
Sichtbar (ISO)
  6
ByLayer
 62
  256
370
   -1
100
AcDbLine
 10
193.2563799393438
 20
105.7457205283793
 11
196.7617243512692
 21
105.7457205283783
  0
LINE
  5
361
100
AcDbEntity
  8
Sichtbar (ISO)
  6
ByLayer
 62
  256
370
   -1
100
AcDbLine
 10
193.2563799393438
 20
105.7457205283793
 11
193.2563799393438
 21
99.79004213200328
  0
ELLIPSE
  5
362
100
AcDbEntity
  8
Sichtbar (ISO)
  6
ByLayer
 62
  256
370
   -1
100
AcDbEllipse
 10
189.5622729673485
 20
98.09572052838035
 30
0
 11
-7.6e-015
 21
5.391991091396737
 31
0
 40
0.7216643741862927
 41
4.712388980384279
 42
5.032033707557828
  0
LINE
  5
363
100
AcDbEntity
  8
Sichtbar (ISO)
  6
ByLayer
 62
  256
370
   -1
100
AcDbLine
 10
193.4534808439394
 20
86.09572052837913
 11
193.4534808439394
 21
98.0957205283792
  0
LINE
  5
364
100
AcDbEntity
  8
Sichtbar (ISO)
  6
ByLayer
 62
  256
370
   -1
100
AcDbLine
 10
193.2563799393439
 20
78.44572052837913
 11
188.9882178776413
 21
78.44572052838056
  0
LINE
  5
365
100
AcDbEntity
  8
Sichtbar (ISO)
  6
ByLayer
 62
  256
370
   -1
100
AcDbLine
 10
188.9882178776412
 20
105.7457205283807
 11
193.2563799393438
 21
105.7457205283793
  0
SPLINE
  5
366
100
AcDbEntity
  8
Sichtbar (ISO)
  6
ByLayer
 62
  256
370
   -1
100
AcDbSpline
210
0
220
0
230
0
 70
    8
 71
    3
 72
   10
 73
    6
 74
    0
 42
1e-007
 43
1e-007
 40
-0.3979798744360737
 40
-0.3979798744360737
 40
-0.3979798744360737
 40
-0.3979798744360737
 40
-0.2033907006894982
 40
-0.2033907006894982
 40
-0.1661206696013792
 40
-0.1661206696013792
 40
-0.1661206696013792
 40
-0.1661206696013792
 10
192.488198215919
 20
82.3465095958835
 30
0
 10
192.7723178798391
 20
82.81432092592593
 30
0
 10
193.0123987118514
 20
83.39606721873228
 30
0
 10
193.2033945896862
 20
84.1529689261726
 30
0
 10
193.2313173343752
 20
84.27652219354698
 30
0
 10
193.2563799393438
 20
84.40139892475517
 30
0
  0
LINE
  5
367
100
AcDbEntity
  8
Sichtbar (ISO)
  6
ByLayer
 62
  256
370
   -1
100
AcDbLine
 10
197.1859884199812
 20
78.44572052837825
 11
196.7617243512692
 21
78.44572052837813
  0
LINE
  5
368
100
AcDbEntity
  8
Sichtbar (ISO)
  6
ByLayer
 62
  256
370
   -1
100
AcDbLine
 10
197.3981204543371
 20
78.74572052837831
 11
197.3981204543371
 21
105.4457205283785
  0
LINE
  5
369
100
AcDbEntity
  8
Sichtbar (ISO)
  6
ByLayer
 62
  256
370
   -1
100
AcDbLine
 10
197.1859884199811
 20
105.7457205283784
 11
196.7617243512692
 21
105.7457205283783
  0
ELLIPSE
  5
36A
100
AcDbEntity
  8
Sichtbar (ISO)
  6
ByLayer
 62
  256
370
   -1
100
AcDbEllipse
 10
197.1859884199812
 20
78.74572052837826
 30
0
 11
3e-015
 21
-0.2999999999999981
 31
0
 40
0.7071067811865372
 41
0
 42
1.570796326795363
  0
ELLIPSE
  5
36B
100
AcDbEntity
  8
Sichtbar (ISO)
  6
ByLayer
 62
  256
370
   -1
100
AcDbEllipse
 10
197.1859884199811
 20
105.4457205283785
 30
0
 11
-3e-015
 21
0.2999999999999981
 31
0
 40
0.7071067811865374
 41
4.712388980384445
 42
6.283185307178636
  0
LINE
  5
36C
100
AcDbEntity
  8
Sichtbar (ISO)
  6
ByLayer
 62
  256
370
   -1
100
AcDbLine
 10
180.8254209626262
 20
105.345720528376
 11
188.9882178776413
 21
105.3457205283782
  0
LINE
  5
36D
100
AcDbEntity
  8
Sichtbar (ISO)
  6
ByLayer
 62
  256
370
   -1
100
AcDbLine
 10
188.9882178776413
 20
105.8457205283782
 11
188.9882178776413
 21
105.3457205283782
  0
MTEXT
  5
36E
100
AcDbEntity
  8
Symbol (ISO)
  6
ByLayer
 62
  256
370
   -1
100
AcDbMText
 10
-70.37300050013017
 20
122.1881852293589
 30
0
 40
4.000000059604644
 41
26.55555550681971
 71
    7
 72
    1
  1
B ( 1 : 1 )
  7
bezeichnungstext (din)
210
0
220
0
230
1
 50
0
 73
    1
 44
1
  0
INSERT
  5
36F
100
AcDbEntity
  8
Schnittlinie (ISO)
  6
ByLayer
 62
  256
370
   -1
100
AcDbBlockReference
  2
2DTransSchnitt2
 10
0
 20
0
 30
0
 41
1
 42
1
 43
0
 50
0
 70
    1
 71
    1
 44
0
 45
0
  0
DIMENSION
  5
370
100
AcDbEntity
  8
Bemaßung (ISO)
  6
CONTINUOUS
 62
    7
370
   18
100
AcDbDimension
  2
*D25
 10
108.2252669737392
 20
60.0957205283717
 30
0
 11
108.2252669737392
 21
92.08572052837167
 31
0
 70
   32
  1
<>
 71
    5
 72
    0
  3
Pauli_DINGroßer Text
 53
0
210
0
220
0
230
1
100
AcDbAlignedDimension
 13
118.2252669737392
 23
124.0957205283716
 33
0
 14
118.2252669737392
 24
60.09572052837167
 34
0
 50
90
100
AcDbRotatedDimension
  0
LINE
  5
371
100
AcDbEntity
  8
Sichtbar (ISO)
  6
ByLayer
 62
  256
370
   -1
100
AcDbLine
 10
71.78283477012413
 20
102.5389460125025
 11
33.17333073827686
 21
124.8301535585676
  0
LINE
  5
372
100
AcDbEntity
  8
Sichtbar (ISO)
  6
ByLayer
 62
  256
370
   -1
100
AcDbLine
 10
67.89374747359859
 20
100.2935804149515
 11
36.25071901550234
 21
118.5626914132084
  0
ENDSEC
  0
SECTION
  2
OBJECTS
  0
DICTIONARY
  5
C
330
0
100
AcDbDictionary
281
    1
  3
ACAD_GROUP
350
D
  0
DICTIONARY
  5
D
330
C
100
AcDbDictionary
281
    1
  0
ENDSEC
  0
EOF
