999
dxfrw 0.6.3
  0
SECTION
  2
HEADER
  9
$ACADVER
  1
AC1021
  9
$DWGCODEPAGE
  3
ANSI_1252
  9
$INSBASE
 10
0
 20
0
 30
0
  9
$EXTMIN
 10
9.203093525289042
 20
2.960740884996039
 30
0
  9
$EXTMAX
 10
594.4692619556159
 20
345.9260856310162
 30
0
  9
$LIMMIN
 10
0
 20
0
  9
$LIMMAX
 10
504
 20
356.4
  9
$ORTHOMODE
 70
    0
  9
$REGENMODE
 70
    1
  9
$FILLMODE
 70
    1
  9
$QTEXTMODE
 70
    0
  9
$MIRRTEXT
 70
    0
  9
$LTSCALE
 40
1.199999999999999
  9
$ATTMODE
 70
    1
  9
$TEXTSIZE
 40
0.2
  9
$TRACEWID
 40
0.05
  9
$TEXTSTYLE
  7
Standard
  9
$CLAYER
  8
0
  9
$CELTYPE
  6
ByLayer
  9
$CECOLOR
 62
  256
  9
$CELTSCALE
 40
1
  9
$DISPSILH
 70
    0
  9
$DIMSCALE
 40
1
  9
$DIMASZ
 40
0.18
  9
$DIMEXO
 40
0.0625
  9
$DIMDLI
 40
0.38
  9
$DIMRND
 40
0
  9
$DIMDLE
 40
0
  9
$DIMEXE
 40
0.18
  9
$DIMTP
 40
0
  9
$DIMTM
 40
0
  9
$DIMTXT
 40
0.18
  9
$DIMCEN
 40
0.09
  9
$DIMTSZ
 40
0
  9
$DIMTOL
 70
    0
  9
$DIMLIM
 70
    0
  9
$DIMTIH
 70
    1
  9
$DIMTOH
 70
    1
  9
$DIMSE1
 70
    0
  9
$DIMSE2
 70
    0
  9
$DIMTAD
 70
    0
  9
$DIMZIN
 70
    0
  9
$DIMBLK
  1

  9
$DIMASO
 70
    1
  9
$DIMSHO
 70
    1
  9
$DIMPOST
  1

  9
$DIMAPOST
  1

  9
$DIMALT
 70
    0
  9
$DIMALTD
 70
    2
  9
$DIMALTF
 40
25.4
  9
$DIMLFAC
 40
1
  9
$DIMTOFL
 70
    0
  9
$DIMTVP
 40
0
  9
$DIMTIX
 70
    0
  9
$DIMSOXD
 70
    0
  9
$DIMSAH
 70
    0
  9
$DIMBLK1
  1

  9
$DIMBLK2
  1

  9
$DIMSTYLE
  2
Standard
  9
$DIMCLRD
 70
    0
  9
$DIMCLRE
 70
    0
  9
$DIMCLRT
 70
    0
  9
$DIMTFAC
 40
1
  9
$DIMGAP
 40
0.09
  9
$DIMJUST
 70
    0
  9
$DIMSD1
 70
    0
  9
$DIMSD2
 70
    0
  9
$DIMTOLJ
 70
    1
  9
$DIMTZIN
 70
    0
  9
$DIMALTZ
 70
    0
  9
$DIMALTTZ
 70
    0
  9
$DIMUPT
 70
    0
  9
$DIMDEC
 70
    4
  9
$DIMTDEC
 70
    4
  9
$DIMALTU
 70
    2
  9
$DIMALTTD
 70
    2
  9
$DIMTXSTY
  7
Standard
  9
$DIMAUNIT
 70
    0
  9
$DIMADEC
 70
    0
  9
$DIMALTRND
 40
0
  9
$DIMAZIN
 70
    0
  9
$DIMDSEP
 70
   46
  9
$DIMATFIT
 70
    3
  9
$DIMFRAC
 70
    0
  9
$DIMLDRBLK
  1

  9
$DIMLUNIT
 70
    2
  9
$DIMLWD
 70
   -2
  9
$DIMLWE
 70
   -2
  9
$DIMTMOVE
 70
    0
  9
$DIMFXL
 40
1
  9
$DIMFXLON
 70
    0
  9
$DIMJOGANG
 40
0.7853981633974483
  9
$DIMTFILL
 70
    0
  9
$DIMTFILLCLR
 70
    0
  9
$DIMARCSYM
 70
    0
  9
$DIMLTYPE
  6

  9
$DIMLTEX1
  6

  9
$DIMLTEX2
  6

  9
$LUNITS
 70
    2
  9
$LUPREC
 70
    4
  9
$SKETCHINC
 40
0.1
  9
$FILLETRAD
 40
0
  9
$AUNITS
 70
    0
  9
$AUPREC
 70
    0
  9
$MENU
  1
.
  9
$ELEVATION
 40
0
  9
$PELEVATION
 40
0
  9
$THICKNESS
 40
0
  9
$LIMCHECK
 70
    0
  9
$CHAMFERA
 40
0
  9
$CHAMFERB
 40
0
  9
$CHAMFERC
 40
0
  9
$CHAMFERD
 40
0
  9
$SKPOLY
 70
    0
  9
$USRTIMER
 70
    1
  9
$ANGBASE
 50
0
  9
$ANGDIR
 70
    0
  9
$PDMODE
 70
    0
  9
$PDSIZE
 40
0
  9
$PLINEWID
 40
0
  9
$SPLFRAME
 70
    0
  9
$SPLINETYPE
 70
    6
  9
$SPLINESEGS
 70
    8
  9
$HANDSEED
  5
20000
  9
$SURFTAB1
 70
    6
  9
$SURFTAB2
 70
    6
  9
$SURFTYPE
 70
    6
  9
$SURFU
 70
    6
  9
$SURFV
 70
    6
  9
$UCSBASE
  2

  9
$UCSNAME
  2

  9
$UCSORG
 10
0
 20
0
 30
0
  9
$UCSXDIR
 10
1
 20
0
 30
0
  9
$UCSYDIR
 10
0
 20
1
 30
0
  9
$UCSORTHOREF
  2

  9
$UCSORTHOVIEW
 70
    0
  9
$UCSORGTOP
 10
0
 20
0
 30
0
  9
$UCSORGBOTTOM
 10
0
 20
0
 30
0
  9
$UCSORGLEFT
 10
0
 20
0
 30
0
  9
$UCSORGRIGHT
 10
0
 20
0
 30
0
  9
$UCSORGFRONT
 10
0
 20
0
 30
0
  9
$UCSORGBACK
 10
0
 20
0
 30
0
  9
$PUCSBASE
  2

  9
$PUCSNAME
  2

  9
$PUCSORG
 10
0
 20
0
 30
0
  9
$PUCSXDIR
 10
1
 20
0
 30
0
  9
$PUCSYDIR
 10
0
 20
1
 30
0
  9
$PUCSORTHOREF
  2

  9
$PUCSORTHOVIEW
 70
    0
  9
$PUCSORGTOP
 10
0
 20
0
 30
0
  9
$PUCSORGBOTTOM
 10
0
 20
0
 30
0
  9
$PUCSORGLEFT
 10
0
 20
0
 30
0
  9
$PUCSORGRIGHT
 10
0
 20
0
 30
0
  9
$PUCSORGFRONT
 10
0
 20
0
 30
0
  9
$PUCSORGBACK
 10
0
 20
0
 30
0
  9
$USERI1
 70
    0
  9
$USERI2
 70
    0
  9
$USERI3
 70
    0
  9
$USERI4
 70
    0
  9
$USERI5
 70
    0
  9
$USERR1
 40
0
  9
$USERR2
 40
0
  9
$USERR3
 40
0
  9
$USERR4
 40
0
  9
$USERR5
 40
0
  9
$WORLDVIEW
 70
    1
  9
$SHADEDGE
 70
    3
  9
$SHADEDIF
 70
   70
  9
$TILEMODE
 70
    1
  9
$MAXACTVP
 70
   64
  9
$PINSBASE
 10
4.967902577665847
 20
35.43009553980026
 30
0
  9
$PLIMCHECK
 70
    0
  9
$PEXTMIN
 10
0
 20
0
 30
0
  9
$PEXTMAX
 10
504
 20
356.4
 30
0
  9
$GRIDMODE
 70
    0
  9
$SNAPSTYLE
 70
    0
  9
$PLIMMIN
 10
0
 20
0
  9
$PLIMMAX
 10
504
 20
356.4
  9
$UNITMODE
 70
    0
  9
$VISRETAIN
 70
    1
  9
$PLINEGEN
 70
    0
  9
$PSLTSCALE
 70
    1
  9
$TREEDEPTH
 70
 3020
  9
$CMLSTYLE
  2
Standard
  9
$CMLJUST
 70
    0
  9
$CMLSCALE
 40
1
  9
$PROXYGRAPHICS
 70
    1
  9
$MEASUREMENT
 70
    1
  9
$CELWEIGHT
370
   -1
  9
$ENDCAPS
280
    0
  9
$JOINSTYLE
280
    0
  9
$LWDISPLAY
290
    0
  9
$INSUNITS
 70
    4
  9
$HYPERLINKBASE
  1

  9
$STYLESHEET
  1

  9
$XEDIT
290
    1
  9
$CEPSNTYPE
380
    0
  9
$PSTYLEMODE
290
    1
  9
$EXTNAMES
290
    1
  9
$PSVPSCALE
 40
0.8184310676433276
  9
$OLESTARTUP
290
    0
  9
$SORTENTS
280
  127
  9
$INDEXCTL
280
    0
  9
$HIDETEXT
280
    1
  9
$XCLIPFRAME
290
    2
  9
$HALOGAP
280
    0
  9
$OBSCOLOR
 70
  257
  9
$OBSLTYPE
280
    0
  9
$INTERSECTIONDISPLAY
280
    0
  9
$INTERSECTIONCOLOR
 70
  257
  9
$DIMASSOC
280
    1
  9
$PROJECTNAME
  1

  9
$CAMERADISPLAY
290
    0
  9
$LENSLENGTH
 40
50
  9
$CAMERAHEIGHT
 40
0
  9
$STEPSPERSEC
 40
2
  9
$STEPSIZE
 40
6
  9
$3DDWFPREC
 40
2
  9
$PSOLWIDTH
 40
0.25
  9
$PSOLHEIGHT
 40
4
  9
$LOFTANG1
 40
1.570796326794896
  9
$LOFTANG2
 40
1.570796326794896
  9
$LOFTMAG1
 40
0
  9
$LOFTMAG2
 40
0
  9
$LOFTPARAM
 70
    7
  9
$LOFTNORMALS
280
    1
  9
$LATITUDE
 40
37.795
  9
$LONGITUDE
 40
-122.394
  9
$NORTHDIRECTION
 40
0
  9
$TIMEZONE
 70
-8000
  9
$LIGHTGLYPHDISPLAY
280
    1
  9
$TILEMODELIGHTSYNCH
280
    1
  9
$SOLIDHIST
280
    0
  9
$SHOWHIST
280
    1
  9
$DWFFRAME
280
    2
  9
$DGNFRAME
280
    0
  9
$REALWORLDSCALE
290
    1
  9
$INTERFERECOLOR
 62
    1
  9
$CSHADOW
280
    0
  9
$SHADOWPLANELOCATION
 40
0
  0
ENDSEC
  0
SECTION
  2
CLASSES
  0
ENDSEC
  0
SECTION
  2
TABLES
  0
TABLE
  2
VPORT
  5
8
330
0
100
AcDbSymbolTable
 70
    1
  0
VPORT
  5
31
330
2
100
AcDbSymbolTableRecord
100
AcDbViewportTableRecord
  2
*ACTIVE
 70
    0
 10
0
 20
0
 11
1
 21
1
 12
460.7735501206793
 22
215.2852029146162
 13
0
 23
0
 14
10
 24
10
 15
10
 25
10
 16
0
 26
0
 36
1
 17
0
 27
0
 37
0
 40
595.6341013755123
 41
2.200471698113208
 42
50
 43
0
 44
0
 50
0
 51
0
 71
    0
 72
  100
 73
    1
 74
    3
 75
    0
 76
    0
 77
    0
 78
    0
281
    0
 65
    1
110
0
120
0
130
0
111
1
121
0
131
0
112
0
122
1
132
0
 79
    0
146
0
348
10020
 60
    7
 61
    5
292
1
282
    1
141
0
142
0
 63
  250
421
3358443
  0
ENDTAB
  0
TABLE
  2
LTYPE
  5
5
330
0
100
AcDbSymbolTable
 70
    4
  0
LTYPE
  5
14
330
5
100
AcDbSymbolTableRecord
100
AcDbLinetypeTableRecord
  2
ByBlock
 70
    0
  3

 72
   65
 73
    0
 40
0
  0
LTYPE
  5
15
330
5
100
AcDbSymbolTableRecord
100
AcDbLinetypeTableRecord
  2
ByLayer
 70
    0
  3

 72
   65
 73
    0
 40
0
  0
LTYPE
  5
16
330
5
100
AcDbSymbolTableRecord
100
AcDbLinetypeTableRecord
  2
Continuous
 70
    0
  3
Solid line
 72
   65
 73
    0
 40
0
  0
LTYPE
  5
32
330
5
100
AcDbSymbolTableRecord
100
AcDbLinetypeTableRecord
  2
DOT
 70
    0
  3
Dot . . . . . . . . . . . . . . . . . . . . . .
 72
   65
 73
    2
 40
6.35
 49
0
 74
    0
 49
-6.35
 74
    0
  0
LTYPE
  5
33
330
5
100
AcDbSymbolTableRecord
100
AcDbLinetypeTableRecord
  2
DOTTINY
 70
    0
  3
Dot (.15x) .....................................
 72
   65
 73
    2
 40
0.9525
 49
0
 74
    0
 49
-0.9525
 74
    0
  0
LTYPE
  5
34
330
5
100
AcDbSymbolTableRecord
100
AcDbLinetypeTableRecord
  2
DOT2
 70
    0
  3
Dot (.5x) .....................................
 72
   65
 73
    2
 40
3.175
 49
0
 74
    0
 49
-3.175
 74
    0
  0
LTYPE
  5
35
330
5
100
AcDbSymbolTableRecord
100
AcDbLinetypeTableRecord
  2
DOTX2
 70
    0
  3
Dot (2x) .  .  .  .  .  .  .  .  .  .  .  .  .
 72
   65
 73
    2
 40
12.7
 49
0
 74
    0
 49
-12.7
 74
    0
  0
LTYPE
  5
36
330
5
100
AcDbSymbolTableRecord
100
AcDbLinetypeTableRecord
  2
DASHED
 70
    0
  3
Dashed _ _ _ _ _ _ _ _ _ _ _ _ _ _ _ _ _
 72
   65
 73
    2
 40
19.05
 49
12.7
 74
    0
 49
-6.35
 74
    0
  0
LTYPE
  5
37
330
5
100
AcDbSymbolTableRecord
100
AcDbLinetypeTableRecord
  2
DASHEDTINY
 70
    0
  3
Dashed (.15x) _ _ _ _ _ _ _ _ _ _ _ _ _ _ _ _ _
 72
   65
 73
    2
 40
2.8575
 49
1.905
 74
    0
 49
-0.9525
 74
    0
  0
LTYPE
  5
38
330
5
100
AcDbSymbolTableRecord
100
AcDbLinetypeTableRecord
  2
DASHED2
 70
    0
  3
Dashed (.5x) _ _ _ _ _ _ _ _ _ _ _ _ _ _ _ _ _
 72
   65
 73
    2
 40
9.524999999999999
 49
6.35
 74
    0
 49
-3.175
 74
    0
  0
LTYPE
  5
39
330
5
100
AcDbSymbolTableRecord
100
AcDbLinetypeTableRecord
  2
DASHEDX2
 70
    0
  3
Dashed (2x) ____  ____  ____  ____  ____  ___
 72
   65
 73
    2
 40
38.09999999999999
 49
25.4
 74
    0
 49
-12.7
 74
    0
  0
LTYPE
  5
3A
330
5
100
AcDbSymbolTableRecord
100
AcDbLinetypeTableRecord
  2
DASHDOT
 70
    0
  3
Dash dot __ . __ . __ . __ . __ . __ . __ . __
 72
   65
 73
    4
 40
25.4
 49
12.7
 74
    0
 49
-6.35
 74
    0
 49
0
 74
    0
 49
-6.35
 74
    0
  0
LTYPE
  5
3B
330
5
100
AcDbSymbolTableRecord
100
AcDbLinetypeTableRecord
  2
DASHDOTTINY
 70
    0
  3
Dash dot (.15x) _._._._._._._._._._._._._._._.
 72
   65
 73
    4
 40
3.81
 49
1.905
 74
    0
 49
-0.9525
 74
    0
 49
0
 74
    0
 49
-0.9525
 74
    0
  0
LTYPE
  5
3C
330
5
100
AcDbSymbolTableRecord
100
AcDbLinetypeTableRecord
  2
DASHDOT2
 70
    0
  3
Dash dot (.5x) _._._._._._._._._._._._._._._.
 72
   65
 73
    4
 40
12.7
 49
6.35
 74
    0
 49
-3.175
 74
    0
 49
0
 74
    0
 49
-3.175
 74
    0
  0
LTYPE
  5
3D
330
5
100
AcDbSymbolTableRecord
100
AcDbLinetypeTableRecord
  2
DASHDOTX2
 70
    0
  3
Dash dot (2x) ____  .  ____  .  ____  .  ___
 72
   65
 73
    4
 40
50.8
 49
25.4
 74
    0
 49
-12.7
 74
    0
 49
0
 74
    0
 49
-12.7
 74
    0
  0
LTYPE
  5
3E
330
5
100
AcDbSymbolTableRecord
100
AcDbLinetypeTableRecord
  2
DIVIDE
 70
    0
  3
Divide ____ . . ____ . . ____ . . ____ . . ____
 72
   65
 73
    6
 40
31.75
 49
12.7
 74
    0
 49
-6.35
 74
    0
 49
0
 74
    0
 49
-6.35
 74
    0
 49
0
 74
    0
 49
-6.35
 74
    0
  0
LTYPE
  5
3F
330
5
100
AcDbSymbolTableRecord
100
AcDbLinetypeTableRecord
  2
DIVIDETINY
 70
    0
  3
Divide (.15x) __..__..__..__..__..__..__..__.._
 72
   65
 73
    6
 40
4.7625
 49
1.905
 74
    0
 49
-0.9525
 74
    0
 49
0
 74
    0
 49
-0.9525
 74
    0
 49
0
 74
    0
 49
-0.9525
 74
    0
  0
LTYPE
  5
40
330
5
100
AcDbSymbolTableRecord
100
AcDbLinetypeTableRecord
  2
DIVIDE2
 70
    0
  3
Divide (.5x) __..__..__..__..__..__..__..__.._
 72
   65
 73
    6
 40
15.875
 49
6.35
 74
    0
 49
-3.175
 74
    0
 49
0
 74
    0
 49
-3.175
 74
    0
 49
0
 74
    0
 49
-3.175
 74
    0
  0
LTYPE
  5
41
330
5
100
AcDbSymbolTableRecord
100
AcDbLinetypeTableRecord
  2
DIVIDEX2
 70
    0
  3
Divide (2x) ________  .  .  ________  .  .  _
 72
   65
 73
    6
 40
63.5
 49
25.4
 74
    0
 49
-12.7
 74
    0
 49
0
 74
    0
 49
-12.7
 74
    0
 49
0
 74
    0
 49
-12.7
 74
    0
  0
LTYPE
  5
42
330
5
100
AcDbSymbolTableRecord
100
AcDbLinetypeTableRecord
  2
BORDER
 70
    0
  3
Border __ __ . __ __ . __ __ . __ __ . __ __ .
 72
   65
 73
    6
 40
44.45
 49
12.7
 74
    0
 49
-6.35
 74
    0
 49
12.7
 74
    0
 49
-6.35
 74
    0
 49
0
 74
    0
 49
-6.35
 74
    0
  0
LTYPE
  5
43
330
5
100
AcDbSymbolTableRecord
100
AcDbLinetypeTableRecord
  2
BORDERTINY
 70
    0
  3
Border (.15x) __.__.__.__.__.__.__.__.__.__.__.
 72
   65
 73
    6
 40
6.6675
 49
1.905
 74
    0
 49
-0.9525
 74
    0
 49
1.905
 74
    0
 49
-0.9525
 74
    0
 49
0
 74
    0
 49
-0.9525
 74
    0
  0
LTYPE
  5
44
330
5
100
AcDbSymbolTableRecord
100
AcDbLinetypeTableRecord
  2
BORDER2
 70
    0
  3
Border (.5x) __.__.__.__.__.__.__.__.__.__.__.
 72
   65
 73
    6
 40
22.225
 49
6.35
 74
    0
 49
-3.175
 74
    0
 49
6.35
 74
    0
 49
-3.175
 74
    0
 49
0
 74
    0
 49
-3.175
 74
    0
  0
LTYPE
  5
45
330
5
100
AcDbSymbolTableRecord
100
AcDbLinetypeTableRecord
  2
BORDERX2
 70
    0
  3
Border (2x) ____  ____  .  ____  ____  .  ___
 72
   65
 73
    6
 40
88.89999999999999
 49
25.4
 74
    0
 49
-12.7
 74
    0
 49
25.4
 74
    0
 49
-12.7
 74
    0
 49
0
 74
    0
 49
-12.7
 74
    0
  0
LTYPE
  5
46
330
5
100
AcDbSymbolTableRecord
100
AcDbLinetypeTableRecord
  2
CENTER
 70
    0
  3
Center ____ _ ____ _ ____ _ ____ _ ____ _ ____
 72
   65
 73
    4
 40
50.8
 49
31.75
 74
    0
 49
-6.35
 74
    0
 49
6.35
 74
    0
 49
-6.35
 74
    0
  0
LTYPE
  5
47
330
5
100
AcDbSymbolTableRecord
100
AcDbLinetypeTableRecord
  2
CENTERTINY
 70
    0
  3
Center (.15x) ___ _ ___ _ ___ _ ___ _ ___ _ ___
 72
   65
 73
    4
 40
7.62
 49
4.7625
 74
    0
 49
-0.9525
 74
    0
 49
0.9525
 74
    0
 49
-0.9525
 74
    0
  0
LTYPE
  5
48
330
5
100
AcDbSymbolTableRecord
100
AcDbLinetypeTableRecord
  2
CENTER2
 70
    0
  3
Center (.5x) ___ _ ___ _ ___ _ ___ _ ___ _ ___
 72
   65
 73
    4
 40
28.575
 49
19.05
 74
    0
 49
-3.175
 74
    0
 49
3.175
 74
    0
 49
-3.175
 74
    0
  0
LTYPE
  5
49
330
5
100
AcDbSymbolTableRecord
100
AcDbLinetypeTableRecord
  2
CENTERX2
 70
    0
  3
Center (2x) ________  __  ________  __  _____
 72
   65
 73
    4
 40
101.6
 49
63.5
 74
    0
 49
-12.7
 74
    0
 49
12.7
 74
    0
 49
-12.7
 74
    0
  0
ENDTAB
  0
TABLE
  2
LAYER
  5
2
330
0
100
AcDbSymbolTable
 70
    1
  0
LAYER
  5
10
330
2
100
AcDbSymbolTableRecord
100
AcDbLayerTableRecord
  2
0
 70
    0
 62
    7
  6
CONTINUOUS
370
   -3
390
F
  0
LAYER
  5
4A
330
2
100
AcDbSymbolTableRecord
100
AcDbLayerTableRecord
  2
Bemaßung (ISO)
 70
    0
 62
    7
  6
CONTINUOUS
370
    9
390
F
  0
LAYER
  5
4B
330
2
100
AcDbSymbolTableRecord
100
AcDbLayerTableRecord
  2
Defpoints
 70
    0
 62
    7
  6
CONTINUOUS
290
0
370
   -3
390
F
  0
LAYER
  5
4C
330
2
100
AcDbSymbolTableRecord
100
AcDbLayerTableRecord
  2
Mittellinie (ISO)
 70
    0
 62
    1
  6
CONTINUOUS
370
    9
390
F
  0
LAYER
  5
4D
330
2
100
AcDbSymbolTableRecord
100
AcDbLayerTableRecord
  2
Mittelpunktmarkierung (ISO)
 70
    0
 62
    1
  6
CONTINUOUS
370
    9
390
F
  0
LAYER
  5
4E
330
2
100
AcDbSymbolTableRecord
100
AcDbLayerTableRecord
  2
Schraffur
 70
    0
 62
    1
  6
CONTINUOUS
370
    9
390
F
  0
LAYER
  5
4F
330
2
100
AcDbSymbolTableRecord
100
AcDbLayerTableRecord
  2
Schraffur (ISO)
 70
    0
 62
    6
  6
CONTINUOUS
370
    9
390
F
  0
LAYER
  5
50
330
2
100
AcDbSymbolTableRecord
100
AcDbLayerTableRecord
  2
Sichtbar (ISO)
 70
    0
 62
    7
  6
CONTINUOUS
370
   25
390
F
  0
LAYER
  5
51
330
2
100
AcDbSymbolTableRecord
100
AcDbLayerTableRecord
  2
Skizziergeometrie (ISO)
 70
    0
 62
    7
  6
CONTINUOUS
370
   18
390
F
  0
LAYER
  5
52
330
2
100
AcDbSymbolTableRecord
100
AcDbLayerTableRecord
  2
Skizziergeometrie(DIN)
 70
    0
 62
  179
420
2500185
  6
CONTINUOUS
370
   35
390
F
  0
LAYER
  5
53
330
2
100
AcDbSymbolTableRecord
100
AcDbLayerTableRecord
  2
Symbol (ISO)
 70
    0
 62
    5
  6
CONTINUOUS
370
    9
390
F
  0
LAYER
  5
54
330
2
100
AcDbSymbolTableRecord
100
AcDbLayerTableRecord
  2
Symbole(DIN)
 70
    0
 62
    7
  6
CONTINUOUS
370
   18
390
F
  0
ENDTAB
  0
TABLE
  2
STYLE
  5
3
330
0
100
AcDbSymbolTable
 70
    3
  0
STYLE
  5
55
330
2
100
AcDbSymbolTableRecord
100
AcDbTextStyleTableRecord
  2
notiztext (din)
 70
    0
 40
0
 41
1
 50
0
 71
    0
 42
1
  3
notiztext (din)
  4

  0
STYLE
  5
56
330
2
100
AcDbSymbolTableRecord
100
AcDbTextStyleTableRecord
  2
aktuell-din
 70
    0
 40
0
 41
1
 50
0
 71
    0
 42
1
  3
aktuell-din
  4

  0
STYLE
  5
57
330
2
100
AcDbSymbolTableRecord
100
AcDbTextStyleTableRecord
  2
Standard
 70
    0
 40
0
 41
1
 50
0
 71
    0
 42
1
  3
txt
  4

  0
ENDTAB
  0
TABLE
  2
VIEW
  5
6
330
0
100
AcDbSymbolTable
 70
    0
  0
ENDTAB
  0
TABLE
  2
UCS
  5
7
330
0
100
AcDbSymbolTable
 70
    0
  0
ENDTAB
  0
TABLE
  2
APPID
  5
9
330
0
100
AcDbSymbolTable
 70
    1
  0
APPID
  5
12
330
9
100
AcDbSymbolTableRecord
100
AcDbRegAppTableRecord
  2
ACAD
 70
    0
  0
APPID
  5
58
330
9
100
AcDbSymbolTableRecord
100
AcDbRegAppTableRecord
  2
LibreCad
 70
    0
  0
ENDTAB
  0
TABLE
  2
DIMSTYLE
  5
A
330
0
100
AcDbSymbolTable
 70
    1
100
AcDbDimStyleTable
 71
    1
  0
DIMSTYLE
105
59
330
A
100
AcDbSymbolTableRecord
100
AcDbDimStyleTableRecord
  2
Standard
 70
    0
 40
1
 41
0.18
 42
0.0625
 43
0.38
 44
0.18
 45
0
 46
0
 47
0
 48
0
 49
1
140
0.18
141
0.09
142
0
143
25.4
144
1
145
0
146
1
147
0.09
148
0
 71
    0
 72
    0
 73
    1
 74
    1
 75
    0
 76
    0
 77
    0
 78
    0
 79
    0
170
    0
171
    2
172
    0
173
    0
174
    0
175
    0
176
    0
177
    0
178
    0
179
    0
271
    4
272
    4
273
    2
274
    2
275
    0
276
    0
277
    2
278
   46
279
    0
280
    0
281
    0
282
    0
283
    1
284
    0
285
    0
286
    0
288
    0
289
    3
340
Standard
341

371
   -2
372
   -2
  0
ENDTAB
  0
TABLE
  2
BLOCK_RECORD
  5
1
330
0
100
AcDbSymbolTable
 70
    2
  0
BLOCK_RECORD
  5
1F
330
1
100
AcDbSymbolTableRecord
100
AcDbBlockTableRecord
  2
*Model_Space
 70
    0
280
    1
281
    0
  0
BLOCK_RECORD
  5
1E
330
1
100
AcDbSymbolTableRecord
100
AcDbBlockTableRecord
  2
*Paper_Space
 70
    0
280
    1
281
    0
  0
BLOCK_RECORD
  5
5A
330
1
100
AcDbSymbolTableRecord
100
AcDbBlockTableRecord
  2
*D15
 70
    0
280
    1
281
    0
  0
BLOCK_RECORD
  5
5D
330
1
100
AcDbSymbolTableRecord
100
AcDbBlockTableRecord
  2
*D10
 70
    0
280
    1
281
    0
  0
BLOCK_RECORD
  5
60
330
1
100
AcDbSymbolTableRecord
100
AcDbBlockTableRecord
  2
*D12
 70
    0
280
    1
281
    0
  0
BLOCK_RECORD
  5
63
330
1
100
AcDbSymbolTableRecord
100
AcDbBlockTableRecord
  2
*D14
 70
    0
280
    1
281
    0
  0
BLOCK_RECORD
  5
66
330
1
100
AcDbSymbolTableRecord
100
AcDbBlockTableRecord
  2
*D2
 70
    0
280
    1
281
    0
  0
BLOCK_RECORD
  5
69
330
1
100
AcDbSymbolTableRecord
100
AcDbBlockTableRecord
  2
*D8
 70
    0
280
    1
281
    0
  0
BLOCK_RECORD
  5
6C
330
1
100
AcDbSymbolTableRecord
100
AcDbBlockTableRecord
  2
*D7
 70
    0
280
    1
281
    0
  0
BLOCK_RECORD
  5
6F
330
1
100
AcDbSymbolTableRecord
100
AcDbBlockTableRecord
  2
*D9
 70
    0
280
    1
281
    0
  0
BLOCK_RECORD
  5
72
330
1
100
AcDbSymbolTableRecord
100
AcDbBlockTableRecord
  2
*D4
 70
    0
280
    1
281
    0
  0
BLOCK_RECORD
  5
75
330
1
100
AcDbSymbolTableRecord
100
AcDbBlockTableRecord
  2
*D6
 70
    0
280
    1
281
    0
  0
BLOCK_RECORD
  5
78
330
1
100
AcDbSymbolTableRecord
100
AcDbBlockTableRecord
  2
*D1
 70
    0
280
    1
281
    0
  0
BLOCK_RECORD
  5
7B
330
1
100
AcDbSymbolTableRecord
100
AcDbBlockTableRecord
  2
*D11
 70
    0
280
    1
281
    0
  0
BLOCK_RECORD
  5
7E
330
1
100
AcDbSymbolTableRecord
100
AcDbBlockTableRecord
  2
*D3
 70
    0
280
    1
281
    0
  0
BLOCK_RECORD
  5
81
330
1
100
AcDbSymbolTableRecord
100
AcDbBlockTableRecord
  2
*D5
 70
    0
280
    1
281
    0
  0
BLOCK_RECORD
  5
84
330
1
100
AcDbSymbolTableRecord
100
AcDbBlockTableRecord
  2
*D13
 70
    0
280
    1
281
    0
  0
BLOCK_RECORD
  5
87
330
1
100
AcDbSymbolTableRecord
100
AcDbBlockTableRecord
  2
Filled-1
 70
    0
280
    1
281
    0
  0
BLOCK_RECORD
  5
8A
330
1
100
AcDbSymbolTableRecord
100
AcDbBlockTableRecord
  2
DatumFilled45
 70
    0
280
    1
281
    0
  0
BLOCK_RECORD
  5
8D
330
1
100
AcDbSymbolTableRecord
100
AcDbBlockTableRecord
  2
Glasbearbeitung
 70
    0
280
    1
281
    0
  0
BLOCK_RECORD
  5
90
330
1
100
AcDbSymbolTableRecord
100
AcDbBlockTableRecord
  2
unbemaßte_Kanten
 70
    0
280
    1
281
    0
  0
BLOCK_RECORD
  5
93
330
1
100
AcDbSymbolTableRecord
100
AcDbBlockTableRecord
  2
Schleifrichtung
 70
    0
280
    1
281
    0
  0
BLOCK_RECORD
  5
96
330
1
100
AcDbSymbolTableRecord
100
AcDbBlockTableRecord
  2
Senkung DIN 974-1 für Zylinderkopfschrauben
 70
    0
280
    1
281
    0
  0
BLOCK_RECORD
  5
99
330
1
100
AcDbSymbolTableRecord
100
AcDbBlockTableRecord
  2
Senkung DIN 74-1 B (f) f. Senkschrauben
 70
    0
280
    1
281
    0
  0
BLOCK_RECORD
  5
9C
330
1
100
AcDbSymbolTableRecord
100
AcDbBlockTableRecord
  2
Rz4(Rz16)
 70
    0
280
    1
281
    0
  0
BLOCK_RECORD
  5
9F
330
1
100
AcDbSymbolTableRecord
100
AcDbBlockTableRecord
  2
Rz16(Rz4)
 70
    0
280
    1
281
    0
  0
BLOCK_RECORD
  5
A2
330
1
100
AcDbSymbolTableRecord
100
AcDbBlockTableRecord
  2
unbemaßte_Kanten 0_5
 70
    0
280
    1
281
    0
  0
BLOCK_RECORD
  5
A5
330
1
100
AcDbSymbolTableRecord
100
AcDbBlockTableRecord
  2
unbemaßte_Kanten 1
 70
    0
280
    1
281
    0
  0
BLOCK_RECORD
  5
A8
330
1
100
AcDbSymbolTableRecord
100
AcDbBlockTableRecord
  2
Schleifrichtung rund
 70
    0
280
    1
281
    0
  0
BLOCK_RECORD
  5
AB
330
1
100
AcDbSymbolTableRecord
100
AcDbBlockTableRecord
  2
Prototyp
 70
    0
280
    1
281
    0
  0
BLOCK_RECORD
  5
AE
330
1
100
AcDbSymbolTableRecord
100
AcDbBlockTableRecord
  2
Freigabe
 70
    0
280
    1
281
    0
  0
BLOCK_RECORD
  5
B1
330
1
100
AcDbSymbolTableRecord
100
AcDbBlockTableRecord
  2
Freigabe(Englisch)
 70
    0
280
    1
281
    0
  0
BLOCK_RECORD
  5
B4
330
1
100
AcDbSymbolTableRecord
100
AcDbBlockTableRecord
  2
Freigabe(Französisch)
 70
    0
280
    1
281
    0
  0
BLOCK_RECORD
  5
B7
330
1
100
AcDbSymbolTableRecord
100
AcDbBlockTableRecord
  2
Freigabe(Spanisch)
 70
    0
280
    1
281
    0
  0
BLOCK_RECORD
  5
BA
330
1
100
AcDbSymbolTableRecord
100
AcDbBlockTableRecord
  2
Schleifrichtung 30°
 70
    0
280
    1
281
    0
  0
BLOCK_RECORD
  5
BD
330
1
100
AcDbSymbolTableRecord
100
AcDbBlockTableRecord
  2
Schleifrichtung 60°
 70
    0
280
    1
281
    0
  0
BLOCK_RECORD
  5
C0
330
1
100
AcDbSymbolTableRecord
100
AcDbBlockTableRecord
  2
Schleifrichtung 40°
 70
    0
280
    1
281
    0
  0
BLOCK_RECORD
  5
C3
330
1
100
AcDbSymbolTableRecord
100
AcDbBlockTableRecord
  2
Schleifrichtung 90°
 70
    0
280
    1
281
    0
  0
BLOCK_RECORD
  5
C6
330
1
100
AcDbSymbolTableRecord
100
AcDbBlockTableRecord
  2
Schleifrichtung 20°
 70
    0
280
    1
281
    0
  0
BLOCK_RECORD
  5
C9
330
1
100
AcDbSymbolTableRecord
100
AcDbBlockTableRecord
  2
Schleifrichtung 15°
 70
    0
280
    1
281
    0
  0
BLOCK_RECORD
  5
CC
330
1
100
AcDbSymbolTableRecord
100
AcDbBlockTableRecord
  2
Schleifrichtung -30°
 70
    0
280
    1
281
    0
  0
BLOCK_RECORD
  5
CF
330
1
100
AcDbSymbolTableRecord
100
AcDbBlockTableRecord
  2
Schleifrichtung -15°
 70
    0
280
    1
281
    0
  0
BLOCK_RECORD
  5
D2
330
1
100
AcDbSymbolTableRecord
100
AcDbBlockTableRecord
  2
Schleifrichtung -40°
 70
    0
280
    1
281
    0
  0
BLOCK_RECORD
  5
D5
330
1
100
AcDbSymbolTableRecord
100
AcDbBlockTableRecord
  2
Schleifrichtung -60°
 70
    0
280
    1
281
    0
  0
BLOCK_RECORD
  5
D8
330
1
100
AcDbSymbolTableRecord
100
AcDbBlockTableRecord
  2
Schleifrichtung -50°
 70
    0
280
    1
281
    0
  0
BLOCK_RECORD
  5
DB
330
1
100
AcDbSymbolTableRecord
100
AcDbBlockTableRecord
  2
Flächen Galvanik
 70
    0
280
    1
281
    0
  0
BLOCK_RECORD
  5
DE
330
1
100
AcDbSymbolTableRecord
100
AcDbBlockTableRecord
  2
Duschenglas 8mm
 70
    0
280
    1
281
    0
  0
BLOCK_RECORD
  5
E1
330
1
100
AcDbSymbolTableRecord
100
AcDbBlockTableRecord
  2
Außerhalb der AbZ 85
 70
    0
280
    1
281
    0
  0
BLOCK_RECORD
  5
E4
330
1
100
AcDbSymbolTableRecord
100
AcDbBlockTableRecord
  2
Duschenglas 6mm
 70
    0
280
    1
281
    0
  0
BLOCK_RECORD
  5
E7
330
1
100
AcDbSymbolTableRecord
100
AcDbBlockTableRecord
  2
unbemaßte Kanten R_0_2 runden
 70
    0
280
    1
281
    0
  0
BLOCK_RECORD
  5
EA
330
1
100
AcDbSymbolTableRecord
100
AcDbBlockTableRecord
  2
Prüfzertifikat nach DIN EN 10204 (3.1) erforderlich
 70
    0
280
    1
281
    0
  0
BLOCK_RECORD
  5
ED
330
1
100
AcDbSymbolTableRecord
100
AcDbBlockTableRecord
  2
Reinigen
 70
    0
280
    1
281
    0
  0
BLOCK_RECORD
  5
F0
330
1
100
AcDbSymbolTableRecord
100
AcDbBlockTableRecord
  2
Schleifrichtung rund-2
 70
    0
280
    1
281
    0
  0
BLOCK_RECORD
  5
F3
330
1
100
AcDbSymbolTableRecord
100
AcDbBlockTableRecord
  2
EPDM-washer
 70
    0
280
    1
281
    0
  0
BLOCK_RECORD
  5
F6
330
1
100
AcDbSymbolTableRecord
100
AcDbBlockTableRecord
  2
isometric view
 70
    0
280
    1
281
    0
  0
BLOCK_RECORD
  5
F9
330
1
100
AcDbSymbolTableRecord
100
AcDbBlockTableRecord
  2
glazing
 70
    0
280
    1
281
    0
  0
BLOCK_RECORD
  5
FC
330
1
100
AcDbSymbolTableRecord
100
AcDbBlockTableRecord
  2
countersink screw EN ISO A2
 70
    0
280
    1
281
    0
  0
BLOCK_RECORD
  5
FF
330
1
100
AcDbSymbolTableRecord
100
AcDbBlockTableRecord
  2
cylinder head screw EN ISO A2
 70
    0
280
    1
281
    0
  0
BLOCK_RECORD
  5
102
330
1
100
AcDbSymbolTableRecord
100
AcDbBlockTableRecord
  2
P+S glass clamp
 70
    0
280
    1
281
    0
  0
BLOCK_RECORD
  5
105
330
1
100
AcDbSymbolTableRecord
100
AcDbBlockTableRecord
  2
Eloxalqualität nach DIN 17611
 70
    0
280
    1
281
    0
  0
BLOCK_RECORD
  5
108
330
1
100
AcDbSymbolTableRecord
100
AcDbBlockTableRecord
  2
Duschenglas 8mm Weissglas
 70
    0
280
    1
281
    0
  0
BLOCK_RECORD
  5
10B
330
1
100
AcDbSymbolTableRecord
100
AcDbBlockTableRecord
  2
Duschenglas 10mm Weissglas
 70
    0
280
    1
281
    0
  0
ENDTAB
  0
ENDSEC
  0
SECTION
  2
BLOCKS
  0
BLOCK
  5
20
330
1F
100
AcDbEntity
  8
0
100
AcDbBlockBegin
  2
*Model_Space
 70
    0
 10
0
 20
0
 30
0
  3
*Model_Space
  1

  0
ENDBLK
  5
21
330
1F
100
AcDbEntity
  8
0
100
AcDbBlockEnd
  0
BLOCK
  5
1C
330
1B
100
AcDbEntity
  8
0
100
AcDbBlockBegin
  2
*Paper_Space
 70
    0
 10
0
 20
0
 30
0
  3
*Paper_Space
  1

  0
ENDBLK
  5
1D
330
1F
100
AcDbEntity
  8
0
100
AcDbBlockEnd
  0
BLOCK
  5
5B
330
5A
100
AcDbEntity
  8
0
100
AcDbBlockBegin
  2
*D15
 70
    1
 10
0
 20
0
  3
*D15
  1

  0
LINE
  5
10E
100
AcDbEntity
  8
Bemaßung (ISO)
  6
ByBlock
 62
    0
370
   -2
100
AcDbLine
 10
412.9587934732384
 20
300.8498677532472
 11
412.9587934732384
 21
292.2298677532473
  0
SOLID
  5
10F
100
AcDbEntity
  8
Bemaßung (ISO)
  6
ByBlock
 62
    0
370
   -2
100
AcDbTrace
 10
412.9587934732384
 20
300.8498677532472
 30
0
 11
412.988765968598
 21
300.6698677532472
 31
0
 12
412.9288209778788
 22
300.6698677532472
 32
0
 13
412.9288209778788
 23
300.6698677532472
 33
0
  0
SOLID
  5
110
100
AcDbEntity
  8
Bemaßung (ISO)
  6
ByBlock
 62
    0
370
   -2
100
AcDbTrace
 10
412.9587934732384
 20
283.249867753248
 30
0
 11
412.9288209778788
 21
283.429867753248
 31
0
 12
412.988765968598
 22
283.429867753248
 32
0
 13
412.988765968598
 23
283.429867753248
 33
0
  0
LINE
  5
111
100
AcDbEntity
  8
Bemaßung (ISO)
  6
ByBlock
 62
    0
370
   -2
100
AcDbLine
 10
412.9587934732384
 20
291.8698677532473
 11
412.9587934732384
 21
283.249867753248
  0
MTEXT
  5
112
100
AcDbEntity
  8
Bemaßung (ISO)
  6
CONTINUOUS
 62
    0
370
   -2
100
AcDbMText
 10
412.9587934732383
 20
292.0498677532473
 30
0
 40
0.18
 41
0.8000000000000111
 71
    5
 72
    1
  1
17.6000
  7
Standard
210
0
220
0
230
1
 50
0
 73
    2
 44
1
  0
LINE
  5
113
100
AcDbEntity
  8
Bemaßung (ISO)
  6
ByBlock
 62
    0
370
   -2
100
AcDbLine
 10
349.4095549780716
 20
300.8498677532472
 11
413.1387934732384
 21
300.8498677532472
  0
LINE
  5
114
100
AcDbEntity
  8
Bemaßung (ISO)
  6
ByBlock
 62
    0
370
   -2
100
AcDbLine
 10
349.4095549780716
 20
283.249867753248
 11
413.1387934732384
 21
283.249867753248
  0
ENDBLK
  5
5C
330
5A
100
AcDbEntity
  8
0
100
AcDbBlockEnd
  0
BLOCK
  5
5E
330
5D
100
AcDbEntity
  8
0
100
AcDbBlockBegin
  2
*D10
 70
    1
 10
0
 20
0
  3
*D10
  1

  0
LINE
  5
115
100
AcDbEntity
  8
Bemaßung (ISO)
  6
ByBlock
 62
    0
370
   -2
100
AcDbLine
 10
286.9470549780727
 20
268.9254641440477
 11
255.4533178976831
 21
268.9254641440477
  0
SOLID
  5
116
100
AcDbEntity
  8
Bemaßung (ISO)
  6
ByBlock
 62
    0
370
   -2
100
AcDbTrace
 10
286.9470549780727
 20
268.9254641440477
 30
0
 11
286.7670549780727
 21
268.8954916486881
 31
0
 12
286.7670549780727
 22
268.9554366394073
 32
0
 13
286.7670549780727
 23
268.9554366394073
 33
0
  0
SOLID
  5
117
100
AcDbEntity
  8
Bemaßung (ISO)
  6
ByBlock
 62
    0
370
   -2
100
AcDbTrace
 10
222.8995808172935
 20
268.9254641440477
 30
0
 11
223.0795808172935
 21
268.9554366394073
 31
0
 12
223.0795808172935
 22
268.8954916486881
 32
0
 13
223.0795808172935
 23
268.8954916486881
 33
0
  0
LINE
  5
118
100
AcDbEntity
  8
Bemaßung (ISO)
  6
ByBlock
 62
    0
370
   -2
100
AcDbLine
 10
254.3933178976831
 20
268.9254641440477
 11
222.8995808172935
 21
268.9254641440477
  0
MTEXT
  5
119
100
AcDbEntity
  8
Bemaßung (ISO)
  6
CONTINUOUS
 62
    0
370
   -2
100
AcDbMText
 10
254.9233178976831
 20
268.9254641440477
 30
0
 40
0.18
 41
0.8800000000000223
 71
    5
 72
    1
  1
64.0475
  7
Standard
210
0
220
0
230
1
 50
0
 73
    2
 44
1
  0
LINE
  5
11A
100
AcDbEntity
  8
Bemaßung (ISO)
  6
ByBlock
 62
    0
370
   -2
100
AcDbLine
 10
286.9470549780727
 20
288.6273677532472
 11
286.9470549780727
 21
268.7454641440477
  0
LINE
  5
11B
100
AcDbEntity
  8
Bemaßung (ISO)
  6
ByBlock
 62
    0
370
   -2
100
AcDbLine
 10
222.8995808172935
 20
288.6273677532473
 11
222.8995808172935
 21
268.7454641440477
  0
ENDBLK
  5
5F
330
5D
100
AcDbEntity
  8
0
100
AcDbBlockEnd
  0
BLOCK
  5
61
330
60
100
AcDbEntity
  8
0
100
AcDbBlockBegin
  2
*D12
 70
    1
 10
0
 20
0
  3
*D12
  1

  0
LINE
  5
11C
100
AcDbEntity
  8
Bemaßung (ISO)
  6
ByBlock
 62
    0
370
   -2
100
AcDbLine
 10
368.6561844018569
 20
156.4655840867408
 11
368.6561844018569
 21
128.6335840867408
  0
SOLID
  5
11D
100
AcDbEntity
  8
Bemaßung (ISO)
  6
ByBlock
 62
    0
370
   -2
100
AcDbTrace
 10
368.6561844018569
 20
156.4655840867408
 30
0
 11
368.6861568972165
 21
156.2855840867408
 31
0
 12
368.6262119064972
 22
156.2855840867408
 32
0
 13
368.6262119064972
 23
156.2855840867408
 33
0
  0
SOLID
  5
11E
100
AcDbEntity
  8
Bemaßung (ISO)
  6
ByBlock
 62
    0
370
   -2
100
AcDbTrace
 10
368.6561844018569
 20
100.4655840867408
 30
0
 11
368.6262119064972
 21
100.6455840867408
 31
0
 12
368.6861568972165
 22
100.6455840867408
 32
0
 13
368.6861568972165
 23
100.6455840867408
 33
0
  0
LINE
  5
11F
100
AcDbEntity
  8
Bemaßung (ISO)
  6
ByBlock
 62
    0
370
   -2
100
AcDbLine
 10
368.6561844018569
 20
128.2735840867408
 11
368.6561844018569
 21
100.4655840867408
  0
MTEXT
  5
120
100
AcDbEntity
  8
Bemaßung (ISO)
  6
CONTINUOUS
 62
    0
370
   -2
100
AcDbMText
 10
368.6561844018569
 20
128.4535840867408
 30
0
 40
0.18
 41
0.9999999600000222
 71
    5
 72
    1
  1
(56.0000)
  7
Standard
210
0
220
0
230
1
 50
0
 73
    2
 44
1
  0
LINE
  5
121
100
AcDbEntity
  8
Bemaßung (ISO)
  6
ByBlock
 62
    0
370
   -2
100
AcDbLine
 10
395.7936844018567
 20
156.4655840867408
 11
368.4761844018569
 21
156.4655840867408
  0
LINE
  5
122
100
AcDbEntity
  8
Bemaßung (ISO)
  6
ByBlock
 62
    0
370
   -2
100
AcDbLine
 10
395.7936844018568
 20
100.4655840867408
 11
368.4761844018569
 21
100.4655840867408
  0
ENDBLK
  5
62
330
60
100
AcDbEntity
  8
0
100
AcDbBlockEnd
  0
BLOCK
  5
64
330
63
100
AcDbEntity
  8
0
100
AcDbBlockBegin
  2
*D14
 70
    1
 10
0
 20
0
  3
*D14
  1

  0
LINE
  5
123
100
AcDbEntity
  8
Bemaßung (ISO)
  6
ByBlock
 62
    0
370
   -2
100
AcDbLine
 10
286.9470549780727
 20
275.1079353196754
 11
294.0570549780741
 21
275.1079353196754
  0
SOLID
  5
124
100
AcDbEntity
  8
Bemaßung (ISO)
  6
ByBlock
 62
    0
370
   -2
100
AcDbTrace
 10
286.9470549780727
 20
275.1079353196754
 30
0
 11
287.1270549780727
 21
275.137907815035
 31
0
 12
287.1270549780727
 22
275.0779628243158
 32
0
 13
287.1270549780727
 23
275.0779628243158
 33
0
  0
SOLID
  5
125
100
AcDbEntity
  8
Bemaßung (ISO)
  6
ByBlock
 62
    0
370
   -2
100
AcDbTrace
 10
302.1470549780754
 20
275.1079353196754
 30
0
 11
301.9670549780754
 21
275.0779628243158
 31
0
 12
301.9670549780754
 22
275.137907815035
 32
0
 13
301.9670549780754
 23
275.137907815035
 33
0
  0
LINE
  5
126
100
AcDbEntity
  8
Bemaßung (ISO)
  6
ByBlock
 62
    0
370
   -2
100
AcDbLine
 10
295.0370549780741
 20
275.1079353196754
 11
302.1470549780754
 21
275.1079353196754
  0
MTEXT
  5
127
100
AcDbEntity
  8
Bemaßung (ISO)
  6
CONTINUOUS
 62
    0
370
   -2
100
AcDbMText
 10
294.5470549780741
 20
275.1079353196754
 30
0
 40
0.18
 41
0.8000000000000111
 71
    5
 72
    1
  1
15.2000
  7
Standard
210
0
220
0
230
1
 50
0
 73
    2
 44
1
  0
LINE
  5
128
100
AcDbEntity
  8
Bemaßung (ISO)
  6
ByBlock
 62
    0
370
   -2
100
AcDbLine
 10
286.9470549780727
 20
288.6273677532472
 11
286.9470549780727
 21
274.9279353196754
  0
LINE
  5
129
100
AcDbEntity
  8
Bemaßung (ISO)
  6
ByBlock
 62
    0
370
   -2
100
AcDbLine
 10
302.1470549780754
 20
284.1873677532473
 11
302.1470549780754
 21
274.9279353196754
  0
ENDBLK
  5
65
330
63
100
AcDbEntity
  8
0
100
AcDbBlockEnd
  0
BLOCK
  5
67
330
66
100
AcDbEntity
  8
0
100
AcDbBlockBegin
  2
*D2
 70
    1
 10
0
 20
0
  3
*D2
  1

  0
LINE
  5
12A
100
AcDbEntity
  8
Bemaßung (ISO)
  6
ByBlock
 62
    0
370
   -2
100
AcDbLine
 10
387.856184401857
 20
146.8655840867408
 11
387.856184401857
 21
128.6215840867408
  0
SOLID
  5
12B
100
AcDbEntity
  8
Bemaßung (ISO)
  6
ByBlock
 62
    0
370
   -2
100
AcDbTrace
 10
387.856184401857
 20
146.8655840867408
 30
0
 11
387.8861568972166
 21
146.6855840867408
 31
0
 12
387.8262119064973
 22
146.6855840867408
 32
0
 13
387.8262119064973
 23
146.6855840867408
 33
0
  0
SOLID
  5
12C
100
AcDbEntity
  8
Bemaßung (ISO)
  6
ByBlock
 62
    0
370
   -2
100
AcDbTrace
 10
387.856184401857
 20
110.0655840867408
 30
0
 11
387.8262119064973
 21
110.2455840867408
 31
0
 12
387.8861568972166
 22
110.2455840867408
 32
0
 13
387.8861568972166
 23
110.2455840867408
 33
0
  0
LINE
  5
12D
100
AcDbEntity
  8
Bemaßung (ISO)
  6
ByBlock
 62
    0
370
   -2
100
AcDbLine
 10
387.856184401857
 20
128.2615840867408
 11
387.856184401857
 21
110.0655840867408
  0
MTEXT
  5
12E
100
AcDbEntity
  8
Bemaßung (ISO)
  6
CONTINUOUS
 62
    0
370
   -2
100
AcDbMText
 10
387.8561844018569
 20
128.4415840867408
 30
0
 40
0.18
 41
0.8400000000000223
 71
    5
 72
    1
  1
36.8000
  7
Standard
210
0
220
0
230
1
 50
0
 73
    2
 44
1
  0
LINE
  5
12F
100
AcDbEntity
  8
Bemaßung (ISO)
  6
ByBlock
 62
    0
370
   -2
100
AcDbLine
 10
396.3536844018568
 20
146.8655840867408
 11
387.676184401857
 21
146.8655840867408
  0
LINE
  5
130
100
AcDbEntity
  8
Bemaßung (ISO)
  6
ByBlock
 62
    0
370
   -2
100
AcDbLine
 10
399.7936844018569
 20
110.0655840867408
 11
387.676184401857
 21
110.0655840867408
  0
ENDBLK
  5
68
330
66
100
AcDbEntity
  8
0
100
AcDbBlockEnd
  0
BLOCK
  5
6A
330
69
100
AcDbEntity
  8
0
100
AcDbBlockBegin
  2
*D8
 70
    1
 10
0
 20
0
  3
*D8
  1

  0
LINE
  5
131
100
AcDbEntity
  8
Bemaßung (ISO)
  6
ByBlock
 62
    0
370
   -2
100
AcDbLine
 10
289.3470549780734
 20
312.3861741942854
 11
288.5970549780731
 21
312.3861741942854
  0
SOLID
  5
132
100
AcDbEntity
  8
Bemaßung (ISO)
  6
ByBlock
 62
    0
370
   -2
100
AcDbTrace
 10
289.3470549780734
 20
312.3861741942854
 30
0
 11
289.1670549780734
 21
312.3562016989258
 31
0
 12
289.1670549780734
 22
312.416146689645
 32
0
 13
289.1670549780734
 23
312.416146689645
 33
0
  0
SOLID
  5
133
100
AcDbEntity
  8
Bemaßung (ISO)
  6
ByBlock
 62
    0
370
   -2
100
AcDbTrace
 10
286.9470549780727
 20
312.3861741942854
 30
0
 11
287.1270549780727
 21
312.416146689645
 31
0
 12
287.1270549780727
 22
312.3562016989258
 32
0
 13
287.1270549780727
 23
312.3562016989258
 33
0
  0
LINE
  5
134
100
AcDbEntity
  8
Bemaßung (ISO)
  6
ByBlock
 62
    0
370
   -2
100
AcDbLine
 10
287.6970549780731
 20
312.3861741942854
 11
286.9470549780727
 21
312.3861741942854
  0
MTEXT
  5
135
100
AcDbEntity
  8
Bemaßung (ISO)
  6
CONTINUOUS
 62
    0
370
   -2
100
AcDbMText
 10
288.1470549780731
 20
312.3861741942854
 30
0
 40
0.18
 41
0.72
 71
    5
 72
    1
  1
2.4000
  7
Standard
210
0
220
0
230
1
 50
0
 73
    2
 44
1
  0
LINE
  5
136
100
AcDbEntity
  8
Bemaßung (ISO)
  6
ByBlock
 62
    0
370
   -2
100
AcDbLine
 10
289.3470549780734
 20
294.7523677532477
 11
289.3470549780734
 21
312.5661741942854
  0
LINE
  5
137
100
AcDbEntity
  8
Bemaßung (ISO)
  6
ByBlock
 62
    0
370
   -2
100
AcDbLine
 10
286.9470549780727
 20
304.7523677532472
 11
286.9470549780727
 21
312.5661741942854
  0
ENDBLK
  5
6B
330
69
100
AcDbEntity
  8
0
100
AcDbBlockEnd
  0
BLOCK
  5
6D
330
6C
100
AcDbEntity
  8
0
100
AcDbBlockBegin
  2
*D7
 70
    1
 10
0
 20
0
  3
*D7
  1

  0
LINE
  5
138
100
AcDbEntity
  8
Bemaßung (ISO)
  6
ByBlock
 62
    0
370
   -2
100
AcDbLine
 10
200.5470483643489
 20
288.6898677532473
 11
200.5470483643489
 21
286.1498677532473
  0
SOLID
  5
139
100
AcDbEntity
  8
Bemaßung (ISO)
  6
ByBlock
 62
    0
370
   -2
100
AcDbTrace
 10
200.5470483643489
 20
288.6898677532473
 30
0
 11
200.5770208597086
 21
288.5098677532473
 31
0
 12
200.5170758689893
 22
288.5098677532473
 32
0
 13
200.5170758689893
 23
288.5098677532473
 33
0
  0
SOLID
  5
13A
100
AcDbEntity
  8
Bemaßung (ISO)
  6
ByBlock
 62
    0
370
   -2
100
AcDbTrace
 10
200.5470483643489
 20
283.2498677532472
 30
0
 11
200.5170758689893
 21
283.4298677532472
 31
0
 12
200.5770208597086
 22
283.4298677532472
 32
0
 13
200.5770208597086
 23
283.4298677532472
 33
0
  0
LINE
  5
13B
100
AcDbEntity
  8
Bemaßung (ISO)
  6
ByBlock
 62
    0
370
   -2
100
AcDbLine
 10
200.5470483643489
 20
285.7898677532473
 11
200.5470483643489
 21
283.2498677532472
  0
MTEXT
  5
13C
100
AcDbEntity
  8
Bemaßung (ISO)
  6
CONTINUOUS
 62
    0
370
   -2
100
AcDbMText
 10
200.5470483643489
 20
285.9698677532473
 30
0
 40
0.18
 41
0.7400000000000111
 71
    5
 72
    1
  1
5.4400
  7
Standard
210
0
220
0
230
1
 50
0
 73
    2
 44
1
  0
LINE
  5
13D
100
AcDbEntity
  8
Bemaßung (ISO)
  6
ByBlock
 62
    0
370
   -2
100
AcDbLine
 10
214.8845549780728
 20
288.6898677532473
 11
200.3670483643489
 21
288.6898677532473
  0
LINE
  5
13E
100
AcDbEntity
  8
Bemaßung (ISO)
  6
ByBlock
 62
    0
370
   -2
100
AcDbLine
 10
222.8845549780752
 20
283.2498677532472
 11
200.3670483643489
 21
283.2498677532472
  0
ENDBLK
  5
6E
330
6C
100
AcDbEntity
  8
0
100
AcDbBlockEnd
  0
BLOCK
  5
70
330
6F
100
AcDbEntity
  8
0
100
AcDbBlockBegin
  2
*D9
 70
    1
 10
0
 20
0
  3
*D9
  1

  0
LINE
  5
13F
100
AcDbEntity
  8
Bemaßung (ISO)
  6
ByBlock
 62
    0
370
   -2
100
AcDbLine
 10
286.9470549780727
 20
268.9254641440477
 11
317.6270549780722
 21
268.9254641440477
  0
SOLID
  5
140
100
AcDbEntity
  8
Bemaßung (ISO)
  6
ByBlock
 62
    0
370
   -2
100
AcDbTrace
 10
286.9470549780727
 20
268.9254641440477
 30
0
 11
287.1270549780727
 21
268.9554366394073
 31
0
 12
287.1270549780727
 22
268.8954916486881
 32
0
 13
287.1270549780727
 23
268.8954916486881
 33
0
  0
SOLID
  5
141
100
AcDbEntity
  8
Bemaßung (ISO)
  6
ByBlock
 62
    0
370
   -2
100
AcDbTrace
 10
349.3470549780716
 20
268.9254641440477
 30
0
 11
349.1670549780716
 21
268.8954916486881
 31
0
 12
349.1670549780716
 22
268.9554366394073
 32
0
 13
349.1670549780716
 23
268.9554366394073
 33
0
  0
LINE
  5
142
100
AcDbEntity
  8
Bemaßung (ISO)
  6
ByBlock
 62
    0
370
   -2
100
AcDbLine
 10
318.6670549780722
 20
268.9254641440477
 11
349.3470549780716
 21
268.9254641440477
  0
MTEXT
  5
143
100
AcDbEntity
  8
Bemaßung (ISO)
  6
CONTINUOUS
 62
    0
370
   -2
100
AcDbMText
 10
318.1470549780722
 20
268.9254641440477
 30
0
 40
0.18
 41
0.8600000000000112
 71
    5
 72
    1
  1
62.4000
  7
Standard
210
0
220
0
230
1
 50
0
 73
    2
 44
1
  0
LINE
  5
144
100
AcDbEntity
  8
Bemaßung (ISO)
  6
ByBlock
 62
    0
370
   -2
100
AcDbLine
 10
286.9470549780727
 20
288.6273677532472
 11
286.9470549780727
 21
268.7454641440477
  0
LINE
  5
145
100
AcDbEntity
  8
Bemaßung (ISO)
  6
ByBlock
 62
    0
370
   -2
100
AcDbLine
 10
349.3470549780716
 20
283.187367753248
 11
349.3470549780716
 21
268.7454641440477
  0
ENDBLK
  5
71
330
6F
100
AcDbEntity
  8
0
100
AcDbBlockEnd
  0
BLOCK
  5
73
330
72
100
AcDbEntity
  8
0
100
AcDbBlockBegin
  2
*D4
 70
    1
 10
0
 20
0
  3
*D4
  1

  0
LINE
  5
146
100
AcDbEntity
  8
Bemaßung (ISO)
  6
ByBlock
 62
    0
370
   -2
100
AcDbLine
 10
378.2561844018569
 20
104.4655840867408
 11
378.256184401857
 21
128.2735840867408
  0
SOLID
  5
147
100
AcDbEntity
  8
Bemaßung (ISO)
  6
ByBlock
 62
    0
370
   -2
100
AcDbTrace
 10
378.2561844018569
 20
104.4655840867408
 30
0
 11
378.2262119064973
 21
104.6455840867408
 31
0
 12
378.2861568972165
 22
104.6455840867408
 32
0
 13
378.2861568972165
 23
104.6455840867408
 33
0
  0
SOLID
  5
148
100
AcDbEntity
  8
Bemaßung (ISO)
  6
ByBlock
 62
    0
370
   -2
100
AcDbTrace
 10
378.2561844018569
 20
152.4655840867408
 30
0
 11
378.2861568972165
 21
152.2855840867408
 31
0
 12
378.2262119064973
 22
152.2855840867408
 32
0
 13
378.2262119064973
 23
152.2855840867408
 33
0
  0
LINE
  5
149
100
AcDbEntity
  8
Bemaßung (ISO)
  6
ByBlock
 62
    0
370
   -2
100
AcDbLine
 10
378.256184401857
 20
128.6335840867408
 11
378.2561844018569
 21
152.4655840867408
  0
MTEXT
  5
14A
100
AcDbEntity
  8
Bemaßung (ISO)
  6
CONTINUOUS
 62
    0
370
   -2
100
AcDbMText
 10
378.2561844018569
 20
128.4535840867408
 30
0
 40
0.18
 41
0.8600000000000001
 71
    5
 72
    1
  1
48.0000
  7
Standard
210
0
220
0
230
1
 50
0
 73
    2
 44
1
  0
LINE
  5
14B
100
AcDbEntity
  8
Bemaßung (ISO)
  6
ByBlock
 62
    0
370
   -2
100
AcDbLine
 10
395.7936844018569
 20
104.4655840867408
 11
378.0761844018569
 21
104.4655840867408
  0
LINE
  5
14C
100
AcDbEntity
  8
Bemaßung (ISO)
  6
ByBlock
 62
    0
370
   -2
100
AcDbLine
 10
395.7936844018569
 20
152.4655840867408
 11
378.0761844018569
 21
152.4655840867408
  0
ENDBLK
  5
74
330
72
100
AcDbEntity
  8
0
100
AcDbBlockEnd
  0
BLOCK
  5
76
330
75
100
AcDbEntity
  8
0
100
AcDbBlockBegin
  2
*D6
 70
    1
 10
0
 20
0
  3
*D6
  1

  0
LINE
  5
14D
100
AcDbEntity
  8
Bemaßung (ISO)
  6
ByBlock
 62
    0
370
   -2
100
AcDbLine
 10
393.3470483643489
 20
288.8498677532476
 11
393.3470483643489
 21
286.2298677532478
  0
SOLID
  5
14E
100
AcDbEntity
  8
Bemaßung (ISO)
  6
ByBlock
 62
    0
370
   -2
100
AcDbTrace
 10
393.3470483643489
 20
288.8498677532476
 30
0
 11
393.3770208597085
 21
288.6698677532476
 31
0
 12
393.3170758689893
 22
288.6698677532476
 32
0
 13
393.3170758689893
 23
288.6698677532476
 33
0
  0
SOLID
  5
14F
100
AcDbEntity
  8
Bemaßung (ISO)
  6
ByBlock
 62
    0
370
   -2
100
AcDbTrace
 10
393.3470483643489
 20
283.249867753248
 30
0
 11
393.3170758689893
 21
283.429867753248
 31
0
 12
393.3770208597085
 22
283.429867753248
 32
0
 13
393.3770208597085
 23
283.429867753248
 33
0
  0
LINE
  5
150
100
AcDbEntity
  8
Bemaßung (ISO)
  6
ByBlock
 62
    0
370
   -2
100
AcDbLine
 10
393.3470483643489
 20
285.8698677532478
 11
393.3470483643489
 21
283.249867753248
  0
MTEXT
  5
151
100
AcDbEntity
  8
Bemaßung (ISO)
  6
CONTINUOUS
 62
    0
370
   -2
100
AcDbMText
 10
393.3470483643489
 20
286.0498677532478
 30
0
 40
0.18
 41
0.7000000000000224
 71
    5
 72
    1
  1
5.6000
  7
Standard
210
0
220
0
230
1
 50
0
 73
    2
 44
1
  0
LINE
  5
152
100
AcDbEntity
  8
Bemaßung (ISO)
  6
ByBlock
 62
    0
370
   -2
100
AcDbLine
 10
369.4095549780734
 20
288.8498677532476
 11
393.5270483643489
 21
288.8498677532476
  0
LINE
  5
153
100
AcDbEntity
  8
Bemaßung (ISO)
  6
ByBlock
 62
    0
370
   -2
100
AcDbLine
 10
349.4095549780716
 20
283.249867753248
 11
393.5270483643489
 21
283.249867753248
  0
ENDBLK
  5
77
330
75
100
AcDbEntity
  8
0
100
AcDbBlockEnd
  0
BLOCK
  5
79
330
78
100
AcDbEntity
  8
0
100
AcDbBlockBegin
  2
*D1
 70
    1
 10
0
 20
0
  3
*D1
  1

  0
SOLID
  5
154
100
AcDbEntity
  8
Bemaßung (ISO)
  6
ByBlock
 62
    0
370
   -2
100
AcDbTrace
 10
445.1816678014513
 20
147.3910674863342
 30
0
 11
445.0755823355556
 21
147.2425945110027
 31
0
 12
445.0331948261198
 22
147.2849820204385
 32
0
 13
445.0331948261198
 23
147.2849820204385
 33
0
  0
LINE
  5
155
100
AcDbEntity
  8
Bemaßung (ISO)
  6
ByBlock
 62
    0
370
   -2
100
AcDbLine
 10
440.6561844018567
 20
142.8655840867408
 11
445.1816678014513
 21
147.3910674863342
  0
MTEXT
  5
156
100
AcDbEntity
  8
Bemaßung (ISO)
  6
CONTINUOUS
 62
    0
370
   -2
100
AcDbMText
 10
450.0537589352425
 20
155.7869813840629
 30
0
 40
0.18
 41
0.7200000000000111
 71
    5
 72
    1
  1
6.4000
  7
Standard
210
0
220
0
230
1
 50
44.99999999999262
 73
    2
 44
1
  0
ENDBLK
  5
7A
330
78
100
AcDbEntity
  8
0
100
AcDbBlockEnd
  0
BLOCK
  5
7C
330
7B
100
AcDbEntity
  8
0
100
AcDbBlockBegin
  2
*D11
 70
    1
 10
0
 20
0
  3
*D11
  1

  0
SOLID
  5
157
100
AcDbEntity
  8
Bemaßung (ISO)
  6
ByBlock
 62
    0
370
   -2
100
AcDbTrace
 10
398.6846115266033
 20
155.2940112114866
 30
0
 11
398.5785260607076
 21
155.1455382361551
 31
0
 12
398.5361385512718
 22
155.1879257455909
 32
0
 13
398.5361385512718
 23
155.1879257455909
 33
0
  0
LINE
  5
158
100
AcDbEntity
  8
Bemaßung (ISO)
  6
ByBlock
 62
    0
370
   -2
100
AcDbLine
 10
395.8561844018568
 20
152.4655840867408
 11
398.6846115266033
 21
155.2940112114866
  0
MTEXT
  5
159
100
AcDbEntity
  8
Bemaßung (ISO)
  6
CONTINUOUS
 62
    0
370
   -2
100
AcDbMText
 10
403.5668317480423
 20
163.6913721217364
 30
0
 40
0.18
 41
0.72
 71
    5
 72
    1
  1
4.0000
  7
Standard
210
0
220
0
230
1
 50
44.99999999999309
 73
    2
 44
1
  0
ENDBLK
  5
7D
330
7B
100
AcDbEntity
  8
0
100
AcDbBlockEnd
  0
BLOCK
  5
7F
330
7E
100
AcDbEntity
  8
0
100
AcDbBlockBegin
  2
*D3
 70
    1
 10
0
 20
0
  3
*D3
  1

  0
LINE
  5
15A
100
AcDbEntity
  8
Bemaßung (ISO)
  6
ByBlock
 62
    0
370
   -2
100
AcDbLine
 10
430.2090379038608
 20
142.8655840867408
 11
430.2090379038608
 21
128.6455840867408
  0
SOLID
  5
15B
100
AcDbEntity
  8
Bemaßung (ISO)
  6
ByBlock
 62
    0
370
   -2
100
AcDbTrace
 10
430.2090379038608
 20
142.8655840867408
 30
0
 11
430.2390103992204
 21
142.6855840867408
 31
0
 12
430.1790654085012
 22
142.6855840867408
 32
0
 13
430.1790654085012
 23
142.6855840867408
 33
0
  0
SOLID
  5
15C
100
AcDbEntity
  8
Bemaßung (ISO)
  6
ByBlock
 62
    0
370
   -2
100
AcDbTrace
 10
430.2090379038608
 20
114.0655840867408
 30
0
 11
430.1790654085012
 21
114.2455840867408
 31
0
 12
430.2390103992204
 22
114.2455840867408
 32
0
 13
430.2390103992204
 23
114.2455840867408
 33
0
  0
LINE
  5
15D
100
AcDbEntity
  8
Bemaßung (ISO)
  6
ByBlock
 62
    0
370
   -2
100
AcDbLine
 10
430.2090379038608
 20
128.2855840867408
 11
430.2090379038608
 21
114.0655840867408
  0
MTEXT
  5
15E
100
AcDbEntity
  8
Bemaßung (ISO)
  6
CONTINUOUS
 62
    0
370
   -2
100
AcDbMText
 10
430.2090379038607
 20
128.4655840867408
 30
0
 40
0.18
 41
0.8400000000000001
 71
    5
 72
    1
  1
28.8000
  7
Standard
210
0
220
0
230
1
 50
0
 73
    2
 44
1
  0
LINE
  5
15F
100
AcDbEntity
  8
Bemaßung (ISO)
  6
ByBlock
 62
    0
370
   -2
100
AcDbLine
 10
440.5936844018567
 20
142.8655840867408
 11
430.0290379038608
 21
142.8655840867408
  0
LINE
  5
160
100
AcDbEntity
  8
Bemaßung (ISO)
  6
ByBlock
 62
    0
370
   -2
100
AcDbLine
 10
440.5936844018567
 20
114.0655840867408
 11
430.0290379038608
 21
114.0655840867408
  0
ENDBLK
  5
80
330
7E
100
AcDbEntity
  8
0
100
AcDbBlockEnd
  0
BLOCK
  5
82
330
81
100
AcDbEntity
  8
0
100
AcDbBlockBegin
  2
*D5
 70
    1
 10
0
 20
0
  3
*D5
  1

  0
LINE
  5
161
100
AcDbEntity
  8
Bemaßung (ISO)
  6
ByBlock
 62
    0
370
   -2
100
AcDbLine
 10
383.7470483643489
 20
300.8498677532472
 11
383.7470483643489
 21
298.2298677532474
  0
SOLID
  5
162
100
AcDbEntity
  8
Bemaßung (ISO)
  6
ByBlock
 62
    0
370
   -2
100
AcDbTrace
 10
383.7470483643489
 20
300.8498677532472
 30
0
 11
383.7770208597086
 21
300.6698677532472
 31
0
 12
383.7170758689893
 22
300.6698677532472
 32
0
 13
383.7170758689893
 23
300.6698677532472
 33
0
  0
SOLID
  5
163
100
AcDbEntity
  8
Bemaßung (ISO)
  6
ByBlock
 62
    0
370
   -2
100
AcDbTrace
 10
383.7470483643489
 20
295.2498677532476
 30
0
 11
383.7170758689893
 21
295.4298677532476
 31
0
 12
383.7770208597086
 22
295.4298677532476
 32
0
 13
383.7770208597086
 23
295.4298677532476
 33
0
  0
LINE
  5
164
100
AcDbEntity
  8
Bemaßung (ISO)
  6
ByBlock
 62
    0
370
   -2
100
AcDbLine
 10
383.7470483643489
 20
297.8698677532474
 11
383.7470483643489
 21
295.2498677532476
  0
MTEXT
  5
165
100
AcDbEntity
  8
Bemaßung (ISO)
  6
CONTINUOUS
 62
    0
370
   -2
100
AcDbMText
 10
383.7470483643489
 20
298.0498677532474
 30
0
 40
0.18
 41
0.7000000000000224
 71
    5
 72
    1
  1
5.6000
  7
Standard
210
0
220
0
230
1
 50
0
 73
    2
 44
1
  0
LINE
  5
166
100
AcDbEntity
  8
Bemaßung (ISO)
  6
ByBlock
 62
    0
370
   -2
100
AcDbLine
 10
349.4095549780716
 20
300.8498677532472
 11
383.9270483643489
 21
300.8498677532472
  0
LINE
  5
167
100
AcDbEntity
  8
Bemaßung (ISO)
  6
ByBlock
 62
    0
370
   -2
100
AcDbLine
 10
369.4095549780734
 20
295.2498677532476
 11
383.9270483643489
 21
295.2498677532476
  0
ENDBLK
  5
83
330
81
100
AcDbEntity
  8
0
100
AcDbBlockEnd
  0
BLOCK
  5
85
330
84
100
AcDbEntity
  8
0
100
AcDbBlockBegin
  2
*D13
 70
    1
 10
0
 20
0
  3
*D13
  1

  0
LINE
  5
168
100
AcDbEntity
  8
Bemaßung (ISO)
  6
ByBlock
 62
    0
370
   -2
100
AcDbLine
 10
395.8561844018569
 20
67.89086107308889
 11
417.726184401857
 21
67.89086107308889
  0
SOLID
  5
169
100
AcDbEntity
  8
Bemaßung (ISO)
  6
ByBlock
 62
    0
370
   -2
100
AcDbTrace
 10
395.8561844018569
 20
67.89086107308889
 30
0
 11
396.0361844018569
 21
67.92083356844853
 31
0
 12
396.0361844018569
 22
67.86088857772924
 32
0
 13
396.0361844018569
 23
67.86088857772924
 33
0
  0
SOLID
  5
16A
100
AcDbEntity
  8
Bemaßung (ISO)
  6
ByBlock
 62
    0
370
   -2
100
AcDbTrace
 10
440.6561844018567
 20
67.89086107308889
 30
0
 11
440.4761844018567
 21
67.86088857772924
 31
0
 12
440.4761844018567
 22
67.92083356844853
 32
0
 13
440.4761844018567
 23
67.92083356844853
 33
0
  0
LINE
  5
16B
100
AcDbEntity
  8
Bemaßung (ISO)
  6
ByBlock
 62
    0
370
   -2
100
AcDbLine
 10
418.786184401857
 20
67.89086107308889
 11
440.6561844018567
 21
67.89086107308889
  0
MTEXT
  5
16C
100
AcDbEntity
  8
Bemaßung (ISO)
  6
CONTINUOUS
 62
    0
370
   -2
100
AcDbMText
 10
418.256184401857
 20
67.89086107308889
 30
0
 40
0.18
 41
0.8800000000000001
 71
    5
 72
    1
  1
44.8000
  7
Standard
210
0
220
0
230
1
 50
0
 73
    2
 44
1
  0
LINE
  5
16D
100
AcDbEntity
  8
Bemaßung (ISO)
  6
ByBlock
 62
    0
370
   -2
100
AcDbLine
 10
395.8561844018569
 20
84.40308408674083
 11
395.8561844018569
 21
67.71086107308888
  0
LINE
  5
16E
100
AcDbEntity
  8
Bemaßung (ISO)
  6
ByBlock
 62
    0
370
   -2
100
AcDbLine
 10
440.6561844018567
 20
105.8030840867408
 11
440.6561844018567
 21
67.71086107308888
  0
ENDBLK
  5
86
330
84
100
AcDbEntity
  8
0
100
AcDbBlockEnd
  0
BLOCK
  5
88
330
87
100
AcDbEntity
  8
0
100
AcDbBlockBegin
  2
Filled-1
 70
    0
 10
0
 20
0
  3
Filled-1
  1

  0
LINE
  5
16F
100
AcDbEntity
  8
0
  6
ByLayer
 62
    0
370
   -1
100
AcDbLine
 10
-1
 20
0
 11
0
 21
0
  0
LWPOLYLINE
  5
170
100
AcDbEntity
  8
0
  6
ByLayer
 62
    0
370
   -1
100
AcDbPolyline
 90
    4
 70
    0
 43
0
 10
-1
 20
-0.1
 10
0
 20
0
 10
-1
 20
0.1
 10
-1
 20
-0.1
  0
SOLID
  5
171
100
AcDbEntity
  8
0
  6
ByLayer
 62
    0
370
   -1
100
AcDbTrace
 10
-1
 20
-0.1
 30
0
 11
0
 21
0
 31
0
 12
-1
 22
0.1
 32
0
 13
-1
 23
-0.1
 33
0
  0
LINE
  5
172
100
AcDbEntity
  8
0
  6
ByLayer
 62
    0
370
   -1
100
AcDbLine
 10
-1
 20
-0.1
 11
0
 21
0
  0
LINE
  5
173
100
AcDbEntity
  8
0
  6
ByLayer
 62
    0
370
   -1
100
AcDbLine
 10
0
 20
0
 11
-1
 21
0.1
  0
LINE
  5
174
100
AcDbEntity
  8
0
  6
ByLayer
 62
    0
370
   -1
100
AcDbLine
 10
-1
 20
0.1
 11
-1
 21
-0.1
  0
ENDBLK
  5
89
330
87
100
AcDbEntity
  8
0
100
AcDbBlockEnd
  0
BLOCK
  5
8B
330
8A
100
AcDbEntity
  8
0
100
AcDbBlockBegin
  2
DatumFilled45
 70
    0
 10
0
 20
0
  3
DatumFilled45
  1

  0
LWPOLYLINE
  5
175
100
AcDbEntity
  8
0
  6
ByLayer
 62
    0
370
   -1
100
AcDbPolyline
 90
    4
 70
    0
 43
0
 10
0
 20
1
 10
0
 20
-1
 10
-1
 20
0
 10
0
 20
1
  0
SOLID
  5
176
100
AcDbEntity
  8
0
  6
ByLayer
 62
    0
370
   -1
100
AcDbTrace
 10
0
 20
1
 30
0
 11
0
 21
-1
 31
0
 12
-1
 22
0
 32
0
 13
0
 23
1
 33
0
  0
ENDBLK
  5
8C
330
8A
100
AcDbEntity
  8
0
100
AcDbBlockEnd
  0
BLOCK
  5
8E
330
8D
100
AcDbEntity
  8
0
100
AcDbBlockBegin
  2
Glasbearbeitung
 70
    0
 10
0
 20
0
  3
Glasbearbeitung
  1

  0
MTEXT
  5
177
100
AcDbEntity
  8
Symbole(DIN)
  6
ByLayer
 62
    7
370
   -1
100
AcDbMText
 10
-36.95807933807373
 20
2.29287352412939
 30
0
 40
3.499999940395355
 41
131.0555551236998
 71
    1
 72
    1
  1
\fArial|b0|i0;\H3.5000;Alle Kanten geschliffen und poliert
  7
aktuell-din
210
0
220
0
230
1
 50
0
 73
    1
 44
1
  0
ENDBLK
  5
8F
330
8D
100
AcDbEntity
  8
0
100
AcDbBlockEnd
  0
BLOCK
  5
91
330
90
100
AcDbEntity
  8
0
100
AcDbBlockBegin
  2
unbemaßte_Kanten
 70
    0
 10
0
 20
0
  3
unbemaßte_Kanten
  1

  0
MTEXT
  5
178
100
AcDbEntity
  8
Symbole(DIN)
  6
ByLayer
 62
    7
370
   -1
100
AcDbMText
 10
-25.81729110330343
 20
1.518673673272132
 30
0
 40
2.5
 41
124.9305568412757
 71
    1
 72
    1
  1
unbemaßte Kanten 0,2x45\fAIGDT|b0|i0;\H2.5000;~\fArial|b0|i0;\H2.5000; fasen
  7
aktuell-din
210
0
220
0
230
1
 50
0
 73
    1
 44
1
  0
ENDBLK
  5
92
330
90
100
AcDbEntity
  8
0
100
AcDbBlockEnd
  0
BLOCK
  5
94
330
93
100
AcDbEntity
  8
0
100
AcDbBlockBegin
  2
Schleifrichtung
 70
    0
 10
0
 20
0
  3
Schleifrichtung
  1

  0
HATCH
  5
179
100
AcDbEntity
  8
Schraffur
  6
ByLayer
 62
  179
420
2500185
370
   -1
100
AcDbHatch
 10
0
 20
0
 30
0
210
0
220
0
230
1
  2
SOLID
 70
    1
 71
    0
 91
    1
 92
    0
 93
    3
 72
    1
 10
0
 20
5
 11
-0.4999999999999983
 21
2.78774508444858
 72
    1
 10
-0.4999999999999983
 20
2.78774508444858
 11
0.4999999999999983
 21
2.78774508444858
 72
    1
 10
0.4999999999999983
 20
2.78774508444858
 11
0
 21
5
 97
    0
 75
    0
 76
    1
 98
    0
  0
HATCH
  5
17A
100
AcDbEntity
  8
Schraffur
  6
ByLayer
 62
  179
420
2500185
370
   -1
100
AcDbHatch
 10
0
 20
0
 30
0
210
0
220
0
230
1
  2
SOLID
 70
    1
 71
    0
 91
    1
 92
    0
 93
    3
 72
    1
 10
0
 20
-5
 11
0.4999999999999983
 21
-2.78774508444858
 72
    1
 10
0.4999999999999983
 20
-2.78774508444858
 11
-0.4999999999999983
 21
-2.78774508444858
 72
    1
 10
-0.4999999999999983
 20
-2.78774508444858
 11
0
 21
-5
 97
    0
 75
    0
 76
    1
 98
    0
  0
LINE
  5
17B
100
AcDbEntity
  8
Skizziergeometrie(DIN)
  6
ByLayer
 62
  256
370
   -1
100
AcDbLine
 10
0
 20
5
 11
0
 21
-5
  0
LINE
  5
17C
100
AcDbEntity
  8
Skizziergeometrie(DIN)
  6
ByLayer
 62
  256
370
   -1
100
AcDbLine
 10
0
 20
5
 11
-0.4999999999999983
 21
2.78774508444858
  0
LINE
  5
17D
100
AcDbEntity
  8
Skizziergeometrie(DIN)
  6
ByLayer
 62
  256
370
   -1
100
AcDbLine
 10
-0.4999999999999983
 20
2.78774508444858
 11
0.4999999999999983
 21
2.78774508444858
  0
LINE
  5
17E
100
AcDbEntity
  8
Skizziergeometrie(DIN)
  6
ByLayer
 62
  256
370
   -1
100
AcDbLine
 10
0.4999999999999983
 20
2.78774508444858
 11
0
 21
5
  0
LINE
  5
17F
100
AcDbEntity
  8
Skizziergeometrie(DIN)
  6
ByLayer
 62
  256
370
   -1
100
AcDbLine
 10
0
 20
-5
 11
-0.4999999999999983
 21
-2.78774508444858
  0
LINE
  5
180
100
AcDbEntity
  8
Skizziergeometrie(DIN)
  6
ByLayer
 62
  256
370
   -1
100
AcDbLine
 10
-0.4999999999999983
 20
-2.78774508444858
 11
0.4999999999999983
 21
-2.78774508444858
  0
LINE
  5
181
100
AcDbEntity
  8
Skizziergeometrie(DIN)
  6
ByLayer
 62
  256
370
   -1
100
AcDbLine
 10
0.4999999999999983
 20
-2.78774508444858
 11
0
 21
-5
  0
ENDBLK
  5
95
330
93
100
AcDbEntity
  8
0
100
AcDbBlockEnd
  0
BLOCK
  5
97
330
96
100
AcDbEntity
  8
0
100
AcDbBlockBegin
  2
Senkung DIN 974-1 für Zylinderkopfschrauben
 70
    0
 10
0
 20
0
  3
Senkung DIN 974-1 für Zylinderkopfschrauben
  1

  0
MTEXT
  5
182
100
AcDbEntity
  8
Symbole(DIN)
  6
ByLayer
 62
    7
370
   -1
100
AcDbMText
 10
-22.51524209976196
 20
1.639672182500362
 30
0
 40
2.5
 41
45.90277696999526
 71
    1
 72
    1
  1
Senkung DIN 974-1 (Reihe1)
  7
aktuell-din
210
0
220
0
230
1
 50
0
 73
    1
 44
1
  0
ENDBLK
  5
98
330
96
100
AcDbEntity
  8
0
100
AcDbBlockEnd
  0
BLOCK
  5
9A
330
99
100
AcDbEntity
  8
0
100
AcDbBlockBegin
  2
Senkung DIN 74-1 B (f) f. Senkschrauben
 70
    0
 10
0
 20
0
  3
Senkung DIN 74-1 B (f) f. Senkschrauben
  1

  0
MTEXT
  5
183
100
AcDbEntity
  8
Symbole(DIN)
  6
ByLayer
 62
    7
370
   -1
100
AcDbMText
 10
-18.14691185951233
 20
1.639672182500362
 30
0
 40
2.5
 41
39.4444436366618
 71
    1
 72
    1
  1
Senkung DIN 74-1 B (f)
  7
aktuell-din
210
0
220
0
230
1
 50
0
 73
    1
 44
1
  0
ENDBLK
  5
9B
330
99
100
AcDbEntity
  8
0
100
AcDbBlockEnd
  0
BLOCK
  5
9D
330
9C
100
AcDbEntity
  8
0
100
AcDbBlockBegin
  2
Rz4(Rz16)
 70
    0
 10
0
 20
0
  3
Rz4(Rz16)
  1

  0
LINE
  5
184
100
AcDbEntity
  8
Skizziergeometrie(DIN)
  6
ByLayer
 62
  256
370
   -1
100
AcDbLine
 10
-13.35665995719496
 20
-0.624154925091176
 11
-11.35665995719495
 21
-4.124154925091172
  0
LINE
  5
185
100
AcDbEntity
  8
Skizziergeometrie(DIN)
  6
ByLayer
 62
  256
370
   -1
100
AcDbLine
 10
-11.35665995719495
 20
-4.124154925091172
 11
-9.356659957194953
 21
-0.624154925091176
  0
LINE
  5
186
100
AcDbEntity
  8
Skizziergeometrie(DIN)
  6
ByLayer
 62
  256
370
   -1
100
AcDbLine
 10
-9.356659957194953
 20
-0.624154925091176
 11
-13.35665995719496
 21
-0.624154925091176
  0
LINE
  5
187
100
AcDbEntity
  8
Skizziergeometrie(DIN)
  6
ByLayer
 62
  256
370
   -1
100
AcDbLine
 10
-9.356659957194953
 20
-0.624154925091176
 11
-6.643340042805041
 21
4.12415492509119
  0
LINE
  5
188
100
AcDbEntity
  8
Skizziergeometrie(DIN)
  6
ByLayer
 62
  256
370
   -1
100
AcDbLine
 10
-6.643340042805041
 20
4.12415492509119
 11
13.35665995719496
 21
4.124154925091172
  0
MTEXT
  5
189
100
AcDbEntity
  8
Symbole(DIN)
  6
ByLayer
 62
    7
370
   -1
100
AcDbMText
 10
-6.476606384140213
 20
3.265635088166192
 30
0
 40
2.5
 41
20.90277750000016
 71
    1
 72
    1
  1
Rz 4 (Rz 16)
  7
aktuell-din
210
0
220
0
230
1
 50
0
 73
    1
 44
1
  0
ENDBLK
  5
9E
330
9C
100
AcDbEntity
  8
0
100
AcDbBlockEnd
  0
BLOCK
  5
A0
330
9F
100
AcDbEntity
  8
0
100
AcDbBlockBegin
  2
Rz16(Rz4)
 70
    0
 10
0
 20
0
  3
Rz16(Rz4)
  1

  0
LINE
  5
18A
100
AcDbEntity
  8
Skizziergeometrie(DIN)
  6
ByLayer
 62
  256
370
   -1
100
AcDbLine
 10
-13.35665995719496
 20
-0.624154925091176
 11
-11.35665995719495
 21
-4.124154925091172
  0
LINE
  5
18B
100
AcDbEntity
  8
Skizziergeometrie(DIN)
  6
ByLayer
 62
  256
370
   -1
100
AcDbLine
 10
-11.35665995719495
 20
-4.124154925091172
 11
-9.356659957194953
 21
-0.624154925091176
  0
LINE
  5
18C
100
AcDbEntity
  8
Skizziergeometrie(DIN)
  6
ByLayer
 62
  256
370
   -1
100
AcDbLine
 10
-9.356659957194953
 20
-0.624154925091176
 11
-13.35665995719496
 21
-0.624154925091176
  0
LINE
  5
18D
100
AcDbEntity
  8
Skizziergeometrie(DIN)
  6
ByLayer
 62
  256
370
   -1
100
AcDbLine
 10
-9.356659957194953
 20
-0.624154925091176
 11
-6.643340042805041
 21
4.12415492509119
  0
LINE
  5
18E
100
AcDbEntity
  8
Skizziergeometrie(DIN)
  6
ByLayer
 62
  256
370
   -1
100
AcDbLine
 10
-6.643340042805041
 20
4.12415492509119
 11
13.35665995719496
 21
4.124154925091172
  0
MTEXT
  5
18F
100
AcDbEntity
  8
Symbole(DIN)
  6
ByLayer
 62
    7
370
   -1
100
AcDbMText
 10
-6.476606384140213
 20
3.265635088166192
 30
0
 40
2.5
 41
20.90277750000016
 71
    1
 72
    1
  1
Rz 16 (Rz 4)
  7
aktuell-din
210
0
220
0
230
1
 50
0
 73
    1
 44
1
  0
ENDBLK
  5
A1
330
9F
100
AcDbEntity
  8
0
100
AcDbBlockEnd
  0
BLOCK
  5
A3
330
A2
100
AcDbEntity
  8
0
100
AcDbBlockBegin
  2
unbemaßte_Kanten 0_5
 70
    0
 10
0
 20
0
  3
unbemaßte_Kanten 0_5
  1

  0
MTEXT
  5
190
100
AcDbEntity
  8
Symbole(DIN)
  6
ByLayer
 62
    7
370
   -1
100
AcDbMText
 10
-25.81729110330343
 20
1.518673673272132
 30
0
 40
2.5
 41
124.9305568412758
 71
    1
 72
    1
  1
unbemaßte Kanten 0,5x45\fAIGDT|b0|i0;\H2.5000;~\fArial|b0|i0;\H2.5000; fasen
  7
aktuell-din
210
0
220
0
230
1
 50
0
 73
    1
 44
1
  0
ENDBLK
  5
A4
330
A2
100
AcDbEntity
  8
0
100
AcDbBlockEnd
  0
BLOCK
  5
A6
330
A5
100
AcDbEntity
  8
0
100
AcDbBlockBegin
  2
unbemaßte_Kanten 1
 70
    0
 10
0
 20
0
  3
unbemaßte_Kanten 1
  1

  0
MTEXT
  5
191
100
AcDbEntity
  8
Symbole(DIN)
  6
ByLayer
 62
    7
370
   -1
100
AcDbMText
 10
-24.36149891465902
 20
1.291920635849237
 30
0
 40
2.5
 41
121.4583346190534
 71
    1
 72
    1
  1
unbemaßte Kanten 1x45\fAIGDT|b0|i0;\H2.5000;~\fArial|b0|i0;\H2.5000; fasen
  7
aktuell-din
210
0
220
0
230
1
 50
0
 73
    1
 44
1
  0
ENDBLK
  5
A7
330
A5
100
AcDbEntity
  8
0
100
AcDbBlockEnd
  0
BLOCK
  5
A9
330
A8
100
AcDbEntity
  8
0
100
AcDbBlockBegin
  2
Schleifrichtung rund
 70
    0
 10
0
 20
0
  3
Schleifrichtung rund
  1

  0
HATCH
  5
192
100
AcDbEntity
  8
Schraffur
  6
ByLayer
 62
  179
420
2500185
370
   -1
100
AcDbHatch
 10
0
 20
0
 30
0
210
0
220
0
230
1
  2
SOLID
 70
    1
 71
    0
 91
    1
 92
    0
 93
    3
 72
    1
 10
2.685970543868814
 20
1.033598154028645
 11
1.500695516670456
 21
2.910062754248521
 72
    1
 10
1.500695516670456
 20
2.910062754248521
 11
0.8087002570814227
 21
2.218067494659514
 72
    1
 10
0.8087002570814227
 20
2.218067494659514
 11
2.685970543868814
 21
1.033598154028645
 97
    0
 75
    0
 76
    1
 98
    0
  0
HATCH
  5
193
100
AcDbEntity
  8
Schraffur
  6
ByLayer
 62
  179
420
2500185
370
   -1
100
AcDbHatch
 10
0
 20
0
 30
0
210
0
220
0
230
1
  2
SOLID
 70
    1
 71
    0
 91
    1
 92
    0
 93
    3
 72
    1
 10
2.746159792612967
 20
-0.9654959543953012
 11
0.9437208322689283
 21
-2.260567411965119
 72
    1
 10
0.9437208322689283
 20
-2.260567411965119
 11
1.675752716096035
 21
-2.910062754248556
 72
    1
 10
1.675752716096035
 20
-2.910062754248556
 11
2.746159792612967
 21
-0.9654959543953012
 97
    0
 75
    0
 76
    1
 98
    0
  0
LINE
  5
194
100
AcDbEntity
  8
Skizziergeometrie(DIN)
  6
ByLayer
 62
  256
370
   -1
100
AcDbLine
 10
2.685970543868814
 20
1.033598154028645
 11
1.500695516670456
 21
2.910062754248521
  0
LINE
  5
195
100
AcDbEntity
  8
Skizziergeometrie(DIN)
  6
ByLayer
 62
  256
370
   -1
100
AcDbLine
 10
1.500695516670456
 20
2.910062754248521
 11
0.8087002570814227
 21
2.218067494659514
  0
LINE
  5
196
100
AcDbEntity
  8
Skizziergeometrie(DIN)
  6
ByLayer
 62
  256
370
   -1
100
AcDbLine
 10
0.8087002570814227
 20
2.218067494659514
 11
2.685970543868814
 21
1.033598154028645
  0
LINE
  5
197
100
AcDbEntity
  8
Skizziergeometrie(DIN)
  6
ByLayer
 62
  256
370
   -1
100
AcDbLine
 10
2.746159792612967
 20
-0.9654959543953012
 11
1.675752716096035
 21
-2.910062754248556
  0
LINE
  5
198
100
AcDbEntity
  8
Skizziergeometrie(DIN)
  6
ByLayer
 62
  256
370
   -1
100
AcDbLine
 10
1.675752716096035
 20
-2.910062754248556
 11
0.9437208322689283
 21
-2.260567411965119
  0
LINE
  5
199
100
AcDbEntity
  8
Skizziergeometrie(DIN)
  6
ByLayer
 62
  256
370
   -1
100
AcDbLine
 10
0.9437208322689283
 20
-2.260567411965119
 11
2.746159792612967
 21
-0.9654959543953012
  0
ARC
  5
19A
100
AcDbEntity
  8
Skizziergeometrie (ISO)
  6
ByLayer
 62
  256
370
   -1
100
AcDbCircle
 10
0.07706842498974351
 20
-0.0454045049720975
 40
2.823228117602702
100
AcDbArc
 50
67.56090338518598
 51
295.8882073090315
  0
ENDBLK
  5
AA
330
A8
100
AcDbEntity
  8
0
100
AcDbBlockEnd
  0
BLOCK
  5
AC
330
AB
100
AcDbEntity
  8
0
100
AcDbBlockBegin
  2
Prototyp
 70
    0
 10
0
 20
0
  3
Prototyp
  1

  0
MTEXT
  5
19B
100
AcDbEntity
  8
Symbol (ISO)
  6
ByLayer
 62
    1
370
   -1
100
AcDbMText
 10
-38.43368768692016
 20
5.167682543396949
 30
0
 40
10
 41
232.2222222222232
 71
    1
 72
    1
  1
\fArial|b1|i0;\H10.0000;\LPROTOTYP\l
  7
notiztext (din)
210
0
220
0
230
1
 50
0
 73
    1
 44
1
  0
ENDBLK
  5
AD
330
AB
100
AcDbEntity
  8
0
100
AcDbBlockEnd
  0
BLOCK
  5
AF
330
AE
100
AcDbEntity
  8
0
100
AcDbBlockBegin
  2
Freigabe
 70
    0
 10
0
 20
0
  3
Freigabe
  1

  0
MTEXT
  5
19C
100
AcDbEntity
  8
Symbole(DIN)
  6
ByLayer
 62
    7
370
   -1
100
AcDbMText
 10
-44.64234352111816
 20
18.7593937292695
 30
0
 40
3.499999940395355
 41
191.6249967366486
 71
    1
 72
    1
  1
\fArial|b1|i0;\H3.5000;\LWir bitten um Freigabe zur Fertigung:\l\fArial|b1|i0;\H3.5000;\P\fArial|b0|i0;\H3.5000; \PDatum:___________________________\P \PName: ___________________________\P \PUnterschrift:_______________________
  7
aktuell-din
210
0
220
0
230
1
 50
0
 73
    2
 44
0.9442214965820312
  0
ENDBLK
  5
B0
330
AE
100
AcDbEntity
  8
0
100
AcDbBlockEnd
  0
BLOCK
  5
B2
330
B1
100
AcDbEntity
  8
0
100
AcDbBlockBegin
  2
Freigabe(Englisch)
 70
    0
 10
0
 20
0
  3
Freigabe(Englisch)
  1

  0
MTEXT
  5
19D
100
AcDbEntity
  8
Symbole(DIN)
  6
ByLayer
 62
    7
370
   -1
100
AcDbMText
 10
-44.64234352111816
 20
18.75806000083685
 30
0
 40
3.499999940395355
 41
161.6805528021524
 71
    1
 72
    1
  1
\fArial|b1|i0;\H3.5000;\LWe ask for release for our production:\P\l\fArial|b0|i0;\H3.5000; \PDate:___________________________\P \PName: ___________________________\P \PSignature:_______________________
  7
aktuell-din
210
0
220
0
230
1
 50
0
 73
    2
 44
0.9442214965820312
  0
ENDBLK
  5
B3
330
B1
100
AcDbEntity
  8
0
100
AcDbBlockEnd
  0
BLOCK
  5
B5
330
B4
100
AcDbEntity
  8
0
100
AcDbBlockBegin
  2
Freigabe(Französisch)
 70
    0
 10
0
 20
0
  3
Freigabe(Französisch)
  1

  0
MTEXT
  5
19E
100
AcDbEntity
  8
Symbole(DIN)
  6
ByLayer
 62
    7
370
   -1
100
AcDbMText
 10
-59.52934741973876
 20
18.78740441054105
 30
0
 40
3.499999940395355
 41
171.4027802588235
 71
    1
 72
    1
  1
\fArial|b1|i0;\H3.5000;\LNous demandons l'autorisation pour la production:\P\l\fArial|b0|i0;\H3.5000; \PDate:___________________________\P \PNom: ___________________________\P \PSignature:_______________________
  7
aktuell-din
210
0
220
0
230
1
 50
0
 73
    2
 44
0.9442214965820312
  0
ENDBLK
  5
B6
330
B4
100
AcDbEntity
  8
0
100
AcDbBlockEnd
  0
BLOCK
  5
B8
330
B7
100
AcDbEntity
  8
0
100
AcDbBlockBegin
  2
Freigabe(Spanisch)
 70
    0
 10
0
 20
0
  3
Freigabe(Spanisch)
  1

  0
MTEXT
  5
19F
100
AcDbEntity
  8
Symbole(DIN)
  6
ByLayer
 62
    7
370
   -1
100
AcDbMText
 10
-46.81517124176025
 20
18.71937859803438
 30
0
 40
3.499999940395355
 41
166.7361082716124
 71
    1
 72
    1
  1
\fArial|b1|i0;\H3.5000;\LPor favor, dénos permiso para producir:\P\l\fArial|b0|i0;\H3.5000; \PFecha:___________________________\P \PNombre: ___________________________\P \PFirma:_______________________
  7
aktuell-din
210
0
220
0
230
1
 50
0
 73
    2
 44
0.9442214965820312
  0
ENDBLK
  5
B9
330
B7
100
AcDbEntity
  8
0
100
AcDbBlockEnd
  0
BLOCK
  5
BB
330
BA
100
AcDbEntity
  8
0
100
AcDbBlockBegin
  2
Schleifrichtung 30°
 70
    0
 10
0
 20
0
  3
Schleifrichtung 30°
  1

  0
MTEXT
  5
1A0
100
AcDbEntity
  8
Symbol (ISO)
  6
ByLayer
 62
  256
370
   -1
100
AcDbMText
 10
-1.291992841288447
 20
2.237797244126866
 30
0
 40
2.000000029802322
 41
45.77777803591607
 71
    2
 72
    1
  1
\fAIGDT|b0|i0;\H2.0000;#\P\fArial|b0|i0;\H2.0000;Schleifrichtung
  7
notiztext (din)
210
0
220
0
230
1
 50
29.99999999999999
 73
    2
 44
0.75
  0
ENDBLK
  5
BC
330
BA
100
AcDbEntity
  8
0
100
AcDbBlockEnd
  0
BLOCK
  5
BE
330
BD
100
AcDbEntity
  8
0
100
AcDbBlockBegin
  2
Schleifrichtung 60°
 70
    0
 10
0
 20
0
  3
Schleifrichtung 60°
  1

  0
MTEXT
  5
1A1
100
AcDbEntity
  8
Symbol (ISO)
  6
ByLayer
 62
  256
370
   -1
100
AcDbMText
 10
-2.237797244126848
 20
1.291992841288447
 30
0
 40
2.000000029802322
 41
45.77777803591607
 71
    2
 72
    1
  1
\fAIGDT|b0|i0;\H2.0000;#\P\fArial|b0|i0;\H2.0000;Schleifrichtung
  7
notiztext (din)
210
0
220
0
230
1
 50
60.00000000000004
 73
    2
 44
0.75
  0
ENDBLK
  5
BF
330
BD
100
AcDbEntity
  8
0
100
AcDbBlockEnd
  0
BLOCK
  5
C1
330
C0
100
AcDbEntity
  8
0
100
AcDbBlockBegin
  2
Schleifrichtung 40°
 70
    0
 10
0
 20
0
  3
Schleifrichtung 40°
  1

  0
MTEXT
  5
1A2
100
AcDbEntity
  8
Symbol (ISO)
  6
ByLayer
 62
  256
370
   -1
100
AcDbMText
 10
-1.660953980367843
 20
1.979447873236992
 30
0
 40
2.000000029802322
 41
45.77777803591607
 71
    2
 72
    1
  1
\fAIGDT|b0|i0;\H2.0000;#\P\fArial|b0|i0;\H2.0000;Schleifrichtung
  7
notiztext (din)
210
0
220
0
230
1
 50
39.99999999999999
 73
    2
 44
0.75
  0
ENDBLK
  5
C2
330
C0
100
AcDbEntity
  8
0
100
AcDbBlockEnd
  0
BLOCK
  5
C4
330
C3
100
AcDbEntity
  8
0
100
AcDbBlockBegin
  2
Schleifrichtung 90°
 70
    0
 10
0
 20
0
  3
Schleifrichtung 90°
  1

  0
MTEXT
  5
1A3
100
AcDbEntity
  8
Symbol (ISO)
  6
ByLayer
 62
  256
370
   -1
100
AcDbMText
 10
-2.583985682576894
 20
0
 30
0
 40
2.000000029802322
 41
45.77777803591607
 71
    2
 72
    1
  1
\fAIGDT|b0|i0;\H2.0000;#\P\fArial|b0|i0;\H2.0000;Schleifrichtung
  7
notiztext (din)
210
0
220
0
230
1
 50
89.99999999999991
 73
    2
 44
0.75
  0
ENDBLK
  5
C5
330
C3
100
AcDbEntity
  8
0
100
AcDbBlockEnd
  0
BLOCK
  5
C7
330
C6
100
AcDbEntity
  8
0
100
AcDbBlockBegin
  2
Schleifrichtung 20°
 70
    0
 10
0
 20
0
  3
Schleifrichtung 20°
  1

  0
MTEXT
  5
1A4
100
AcDbEntity
  8
Symbol (ISO)
  6
ByLayer
 62
  256
370
   -1
100
AcDbMText
 10
-0.8837751535064342
 20
2.428152278134021
 30
0
 40
2.000000029802322
 41
45.77777803591607
 71
    2
 72
    1
  1
\fAIGDT|b0|i0;\H2.0000;#\P\fArial|b0|i0;\H2.0000;Schleifrichtung
  7
notiztext (din)
210
0
220
0
230
1
 50
20.00000000000012
 73
    2
 44
0.75
  0
ENDBLK
  5
C8
330
C6
100
AcDbEntity
  8
0
100
AcDbBlockEnd
  0
BLOCK
  5
CA
330
C9
100
AcDbEntity
  8
0
100
AcDbBlockBegin
  2
Schleifrichtung 15°
 70
    0
 10
0
 20
0
  3
Schleifrichtung 15°
  1

  0
MTEXT
  5
1A5
100
AcDbEntity
  8
Symbol (ISO)
  6
ByLayer
 62
  256
370
   -1
100
AcDbMText
 10
-0.6687847069231267
 20
2.495938505562165
 30
0
 40
2.000000029802322
 41
45.77777803591607
 71
    2
 72
    1
  1
\fAIGDT|b0|i0;\H2.0000;#\P\fArial|b0|i0;\H2.0000;Schleifrichtung
  7
notiztext (din)
210
0
220
0
230
1
 50
15.00000000000012
 73
    2
 44
0.75
  0
ENDBLK
  5
CB
330
C9
100
AcDbEntity
  8
0
100
AcDbBlockEnd
  0
BLOCK
  5
CD
330
CC
100
AcDbEntity
  8
0
100
AcDbBlockBegin
  2
Schleifrichtung -30°
 70
    0
 10
0
 20
0
  3
Schleifrichtung -30°
  1

  0
MTEXT
  5
1A6
100
AcDbEntity
  8
Symbol (ISO)
  6
ByLayer
 62
  256
370
   -1
100
AcDbMText
 10
1.291992841288447
 20
2.237797244126795
 30
0
 40
2.000000029802322
 41
45.77777803591607
 71
    2
 72
    1
  1
\fAIGDT|b0|i0;\H2.0000;#\P\fArial|b0|i0;\H2.0000;Schleifrichtung
  7
notiztext (din)
210
0
220
0
230
1
 50
-30.00000000000004
 73
    2
 44
0.75
  0
ENDBLK
  5
CE
330
CC
100
AcDbEntity
  8
0
100
AcDbBlockEnd
  0
BLOCK
  5
D0
330
CF
100
AcDbEntity
  8
0
100
AcDbBlockBegin
  2
Schleifrichtung -15°
 70
    0
 10
0
 20
0
  3
Schleifrichtung -15°
  1

  0
MTEXT
  5
1A7
100
AcDbEntity
  8
Symbol (ISO)
  6
ByLayer
 62
  256
370
   -1
100
AcDbMText
 10
0.6687847069231267
 20
2.495938505562236
 30
0
 40
2.000000029802322
 41
45.77777803591607
 71
    2
 72
    1
  1
\fAIGDT|b0|i0;\H2.0000;#\P\fArial|b0|i0;\H2.0000;Schleifrichtung
  7
notiztext (din)
210
0
220
0
230
1
 50
-14.9999999999998
 73
    2
 44
0.75
  0
ENDBLK
  5
D1
330
CF
100
AcDbEntity
  8
0
100
AcDbBlockEnd
  0
BLOCK
  5
D3
330
D2
100
AcDbEntity
  8
0
100
AcDbBlockBegin
  2
Schleifrichtung -40°
 70
    0
 10
0
 20
0
  3
Schleifrichtung -40°
  1

  0
MTEXT
  5
1A8
100
AcDbEntity
  8
Symbol (ISO)
  6
ByLayer
 62
  256
370
   -1
100
AcDbMText
 10
1.660953980367843
 20
1.979447873236992
 30
0
 40
2.000000029802322
 41
45.77777803591607
 71
    2
 72
    1
  1
\fAIGDT|b0|i0;\H2.0000;#\P\fArial|b0|i0;\H2.0000;Schleifrichtung
  7
notiztext (din)
210
0
220
0
230
1
 50
-40.00000000000016
 73
    2
 44
0.75
  0
ENDBLK
  5
D4
330
D2
100
AcDbEntity
  8
0
100
AcDbBlockEnd
  0
BLOCK
  5
D6
330
D5
100
AcDbEntity
  8
0
100
AcDbBlockBegin
  2
Schleifrichtung -60°
 70
    0
 10
0
 20
0
  3
Schleifrichtung -60°
  1

  0
MTEXT
  5
1A9
100
AcDbEntity
  8
Symbol (ISO)
  6
ByLayer
 62
  256
370
   -1
100
AcDbMText
 10
2.237797244126848
 20
1.291992841288447
 30
0
 40
2.000000029802322
 41
45.77777803591607
 71
    2
 72
    1
  1
\fAIGDT|b0|i0;\H2.0000;#\P\fArial|b0|i0;\H2.0000;Schleifrichtung
  7
notiztext (din)
210
0
220
0
230
1
 50
-59.99999999999974
 73
    2
 44
0.75
  0
ENDBLK
  5
D7
330
D5
100
AcDbEntity
  8
0
100
AcDbBlockEnd
  0
BLOCK
  5
D9
330
D8
100
AcDbEntity
  8
0
100
AcDbBlockBegin
  2
Schleifrichtung -50°
 70
    0
 10
0
 20
0
  3
Schleifrichtung -50°
  1

  0
MTEXT
  5
1AA
100
AcDbEntity
  8
Symbol (ISO)
  6
ByLayer
 62
  256
370
   -1
100
AcDbMText
 10
1.979447873237027
 20
1.660953980367807
 30
0
 40
2.000000029802322
 41
45.77777803591607
 71
    2
 72
    1
  1
\fAIGDT|b0|i0;\H2.0000;#\P\fArial|b0|i0;\H2.0000;Schleifrichtung
  7
notiztext (din)
210
0
220
0
230
1
 50
-49.99999999999986
 73
    2
 44
0.75
  0
ENDBLK
  5
DA
330
D8
100
AcDbEntity
  8
0
100
AcDbBlockEnd
  0
BLOCK
  5
DC
330
DB
100
AcDbEntity
  8
0
100
AcDbBlockBegin
  2
Flächen Galvanik
 70
    0
 10
0
 20
0
  3
Flächen Galvanik
  1

  0
MTEXT
  5
1AB
100
AcDbEntity
  8
Symbol (ISO)
  6
ByLayer
 62
    8
370
   -1
100
AcDbMText
 10
-79.61166381835936
 20
11.89210736808782
 30
0
 40
6.99999988079071
 41
238.9722166685352
 71
    1
 72
    1
  1
\fArial|b1|i0;\H7.0000;FLÄCHE SCHLEIFEN / POLIEREN!\P
  7
notiztext (din)
210
0
220
0
230
1
 50
0
 73
    2
 44
0.8571428656578063
  0
MTEXT
  5
1AC
100
AcDbEntity
  8
Symbol (ISO)
  6
ByLayer
 62
    1
370
   -1
100
AcDbMText
 10
-79.61166381835936
 20
3.200806027419123
 30
0
 40
6.99999988079071
 41
219.7222184803757
 71
    1
 72
    1
  1
\fArial|b1|i0;\H7.0000;FLÄCHE NICHT BEARBEITEN!
  7
notiztext (din)
210
0
220
0
230
1
 50
0
 73
    1
 44
1
  0
MTEXT
  5
1AD
100
AcDbEntity
  8
Symbol (ISO)
  6
ByLayer
 62
    5
370
   -1
100
AcDbMText
 10
-79.61166381835936
 20
-8.518632516837172
 30
0
 40
5
 41
185.6944444444452
 71
    1
 72
    1
  1
\fArial|b0|i0;\H5.0000;ACHTUNG! ALLE KANTEN GRATFREI!
  7
notiztext (din)
210
0
220
0
230
1
 50
0
 73
    1
 44
1
  0
ENDBLK
  5
DD
330
DB
100
AcDbEntity
  8
0
100
AcDbBlockEnd
  0
BLOCK
  5
DF
330
DE
100
AcDbEntity
  8
0
100
AcDbBlockBegin
  2
Duschenglas 8mm
 70
    0
 10
0
 20
0
  3
Duschenglas 8mm
  1

  0
MTEXT
  5
1AE
100
AcDbEntity
  8
Symbol (ISO)
  6
ByLayer
 62
    5
370
   -1
100
AcDbMText
 10
-45.90224742889404
 20
7.150431517511606
 30
0
 40
2.5
 41
97.84722398587674
 71
    1
 72
    1
  1
ESG 8mm klar gefertigt nach DIN EN14428 (Duschenglas).\PEin entsprechender Nachweis (Stempel) ist erforderlich.\PKanten umlaufend geschliffen und poliert.\PAlle Ecken stoßen oder leicht runden.
  7
notiztext (din)
210
0
220
0
230
1
 50
0
 73
    2
 44
0.9442214965820312
  0
ENDBLK
  5
E0
330
DE
100
AcDbEntity
  8
0
100
AcDbBlockEnd
  0
BLOCK
  5
E2
330
E1
100
AcDbEntity
  8
0
100
AcDbBlockBegin
  2
Außerhalb der AbZ 85
 70
    0
 10
0
 20
0
  3
Außerhalb der AbZ 85
  1

  0
MTEXT
  5
1AF
100
AcDbEntity
  8
Symbol (ISO)
  6
ByLayer
 62
  256
370
   -1
100
AcDbMText
 10
-61.90739154815673
 20
2.585746762342751
 30
0
 40
5
 41
204.4444444444475
 71
    1
 72
    1
  1
\fArial|b1|i0;\H5.0000;\LVordach außerhalb der AbZ Z-70.3-85
  7
notiztext (din)
210
0
220
0
230
1
 50
0
 73
    1
 44
1
  0
ENDBLK
  5
E3
330
E1
100
AcDbEntity
  8
0
100
AcDbBlockEnd
  0
BLOCK
  5
E5
330
E4
100
AcDbEntity
  8
0
100
AcDbBlockBegin
  2
Duschenglas 6mm
 70
    0
 10
0
 20
0
  3
Duschenglas 6mm
  1

  0
MTEXT
  5
1B0
100
AcDbEntity
  8
Symbol (ISO)
  6
ByLayer
 62
    5
370
   -1
100
AcDbMText
 10
-45.90224742889404
 20
7.150431517511606
 30
0
 40
2.5
 41
97.84722398587689
 71
    1
 72
    1
  1
ESG 6mm klar gefertigt nach DIN EN14428 (Duschenglas).\PEin entsprechender Nachweis (Stempel) ist erforderlich.\PKanten umlaufend geschliffen und poliert.\PAlle Ecken stoßen oder leicht runden.
  7
notiztext (din)
210
0
220
0
230
1
 50
0
 73
    2
 44
0.9442214965820312
  0
ENDBLK
  5
E6
330
E4
100
AcDbEntity
  8
0
100
AcDbBlockEnd
  0
BLOCK
  5
E8
330
E7
100
AcDbEntity
  8
0
100
AcDbBlockBegin
  2
unbemaßte Kanten R_0_2 runden
 70
    0
 10
0
 20
0
  3
unbemaßte Kanten R_0_2 runden
  1

  0
MTEXT
  5
1B1
100
AcDbEntity
  8
Symbol (ISO)
  6
ByLayer
 62
  256
370
   -1
100
AcDbMText
 10
-25.96322298049927
 20
1.518673673272132
 30
0
 40
2.5
 41
54.93055555555673
 71
    1
 72
    1
  1
unbemaßte Kanten R=0,2 runden
  7
notiztext (din)
210
0
220
0
230
1
 50
0
 73
    1
 44
1
  0
ENDBLK
  5
E9
330
E7
100
AcDbEntity
  8
0
100
AcDbBlockEnd
  0
BLOCK
  5
EB
330
EA
100
AcDbEntity
  8
0
100
AcDbBlockBegin
  2
Prüfzertifikat nach DIN EN 10204 (3.1) erforderlich
 70
    0
 10
0
 20
0
  3
Prüfzertifikat nach DIN EN 10204 (3.1) erforderlich
  1

  0
MTEXT
  5
1B2
100
AcDbEntity
  8
Symbol (ISO)
  6
ByLayer
 62
  256
370
   -1
100
AcDbMText
 10
-39.00819301605224
 20
1.638719402253627
 30
0
 40
2.5
 41
86.80555527777867
 71
    1
 72
    1
  1
Prüfzertifikat nach DIN EN 10204 (3.1) erforderlich
  7
notiztext (din)
210
0
220
0
230
1
 50
0
 73
    1
 44
1
  0
ENDBLK
  5
EC
330
EA
100
AcDbEntity
  8
0
100
AcDbBlockEnd
  0
BLOCK
  5
EE
330
ED
100
AcDbEntity
  8
0
100
AcDbBlockBegin
  2
Reinigen
 70
    0
 10
0
 20
0
  3
Reinigen
  1

  0
MTEXT
  5
1B3
100
AcDbEntity
  8
Symbol (ISO)
  6
ByLayer
 62
  256
370
   -1
100
AcDbMText
 10
-53.57374191284179
 20
3.583934530615806
 30
0
 40
2.5
 41
119.5138914603266
 71
    1
 72
    1
  1
Nach der Bearbeitung von Dreh- und Frästeilen müssen \PBearbeitungsöle und -emulsionen von den Bauteilen entfernt werden.
  7
notiztext (din)
210
0
220
0
230
1
 50
0
 73
    2
 44
0.9442214965820312
  0
ENDBLK
  5
EF
330
ED
100
AcDbEntity
  8
0
100
AcDbBlockEnd
  0
BLOCK
  5
F1
330
F0
100
AcDbEntity
  8
0
100
AcDbBlockBegin
  2
Schleifrichtung rund-2
 70
    0
 10
0
 20
0
  3
Schleifrichtung rund-2
  1

  0
HATCH
  5
1B4
100
AcDbEntity
  8
Schraffur (ISO)
  6
ByLayer
 62
  156
420
16512
370
   -1
100
AcDbHatch
 10
0
 20
0
 30
0
210
0
220
0
230
1
  2
SOLID
 70
    1
 71
    0
 91
    1
 92
    0
 93
    3
 72
    1
 10
-10.47794571960972
 20
20.90644694881277
 11
-6.849893015193186
 21
13.46116476233097
 72
    1
 10
-6.849893015193186
 20
13.46116476233097
 11
-3.613318818075255
 21
16.27266978918406
 72
    1
 10
-3.613318818075255
 20
16.27266978918406
 11
-10.47794571960972
 21
20.90644694881277
 97
    0
 75
    0
 76
    1
 98
    0
  0
HATCH
  5
1B5
100
AcDbEntity
  8
Schraffur (ISO)
  6
ByLayer
 62
    7
370
   -1
100
AcDbHatch
 10
0
 20
0
 30
0
210
0
220
0
230
1
  2
SOLID
 70
    1
 71
    0
 91
    1
 92
    0
 93
    3
 72
    1
 10
8.373591724927785
 20
-13.05289092354922
 11
9.897290434662391
 21
-20.90644694881275
 72
    1
 10
9.897290434662391
 20
-20.90644694881275
 11
10.47794571960972
 21
-12.6446170847675
 72
    1
 10
10.47794571960972
 20
-12.6446170847675
 11
8.373591724927785
 21
-13.05289092354922
 97
    0
 75
    0
 76
    1
 98
    0
  0
HATCH
  5
1B6
100
AcDbEntity
  8
Schraffur (ISO)
  6
ByLayer
 62
    7
370
   -1
100
AcDbHatch
 10
0
 20
0
 30
0
210
0
220
0
230
1
  2
SOLID
 70
    1
 71
    0
 91
    1
 92
    0
 93
    3
 72
    1
 10
8.373591724927785
 20
-13.05289092354922
 11
6.269237730245844
 21
-13.46116476233096
 72
    1
 10
6.269237730245844
 20
-13.46116476233096
 11
9.897290434662391
 21
-20.90644694881275
 72
    1
 10
9.897290434662391
 20
-20.90644694881275
 11
8.373591724927785
 21
-13.05289092354922
 97
    0
 75
    0
 76
    1
 98
    0
  0
HATCH
  5
1B7
100
AcDbEntity
  8
Schraffur (ISO)
  6
ByLayer
 62
    7
370
   -1
100
AcDbHatch
 10
0
 20
0
 30
0
210
0
220
0
230
1
  2
SOLID
 70
    1
 71
    0
 91
    1
 92
    0
 93
    3
 72
    1
 10
-5.231605916634229
 20
14.86691727575753
 11
-10.47794571960972
 21
20.90644694881277
 72
    1
 10
-10.47794571960972
 20
20.90644694881277
 11
-6.849893015193186
 21
13.46116476233097
 72
    1
 10
-6.849893015193186
 20
13.46116476233097
 11
-5.231605916634229
 21
14.86691727575753
 97
    0
 75
    0
 76
    1
 98
    0
  0
HATCH
  5
1B8
100
AcDbEntity
  8
Schraffur (ISO)
  6
ByLayer
 62
    7
370
   -1
100
AcDbHatch
 10
0
 20
0
 30
0
210
0
220
0
230
1
  2
SOLID
 70
    1
 71
    0
 91
    1
 92
    0
 93
    3
 72
    1
 10
-5.231605916634229
 20
14.86691727575753
 11
-3.613318818075255
 21
16.27266978918406
 72
    1
 10
-3.613318818075255
 20
16.27266978918406
 11
-10.47794571960972
 21
20.90644694881277
 72
    1
 10
-10.47794571960972
 20
20.90644694881277
 11
-5.231605916634229
 21
14.86691727575753
 97
    0
 75
    0
 76
    1
 98
    0
  0
ARC
  5
1B9
100
AcDbEntity
  8
Skizziergeometrie (ISO)
  6
ByLayer
 62
  256
370
   -1
100
AcDbCircle
 10
-50.5280784645487
 20
-24.48063124655874
 40
60
100
AcDbArc
 50
10.97976698014274
 51
40.9797669801427
  0
LINE
  5
1BA
100
AcDbEntity
  8
Skizziergeometrie (ISO)
  6
ByLayer
 62
  256
370
   -1
100
AcDbLine
 10
-5.231605916634229
 20
14.86691727575753
 11
-10.47794571960972
 21
20.90644694881277
  0
LINE
  5
1BB
100
AcDbEntity
  8
Skizziergeometrie (ISO)
  6
ByLayer
 62
  256
370
   -1
100
AcDbLine
 10
-10.47794571960972
 20
20.90644694881277
 11
-6.849893015193186
 21
13.46116476233097
  0
LINE
  5
1BC
100
AcDbEntity
  8
Skizziergeometrie (ISO)
  6
ByLayer
 62
  256
370
   -1
100
AcDbLine
 10
-6.849893015193186
 20
13.46116476233097
 11
-3.613318818075255
 21
16.27266978918406
  0
LINE
  5
1BD
100
AcDbEntity
  8
Skizziergeometrie (ISO)
  6
ByLayer
 62
  256
370
   -1
100
AcDbLine
 10
-3.613318818075255
 20
16.27266978918406
 11
-10.47794571960972
 21
20.90644694881277
  0
LINE
  5
1BE
100
AcDbEntity
  8
Skizziergeometrie (ISO)
  6
ByLayer
 62
  256
370
   -1
100
AcDbLine
 10
8.373591724927785
 20
-13.05289092354922
 11
9.897290434662391
 21
-20.90644694881275
  0
LINE
  5
1BF
100
AcDbEntity
  8
Skizziergeometrie (ISO)
  6
ByLayer
 62
  256
370
   -1
100
AcDbLine
 10
9.897290434662391
 20
-20.90644694881275
 11
6.269237730245844
 21
-13.46116476233096
  0
LINE
  5
1C0
100
AcDbEntity
  8
Skizziergeometrie (ISO)
  6
ByLayer
 62
  256
370
   -1
100
AcDbLine
 10
6.269237730245844
 20
-13.46116476233096
 11
10.47794571960972
 21
-12.6446170847675
  0
LINE
  5
1C1
100
AcDbEntity
  8
Skizziergeometrie (ISO)
  6
ByLayer
 62
  256
370
   -1
100
AcDbLine
 10
10.47794571960972
 20
-12.6446170847675
 11
9.897290434662391
 21
-20.90644694881275
  0
ENDBLK
  5
F2
330
F0
100
AcDbEntity
  8
0
100
AcDbBlockEnd
  0
BLOCK
  5
F4
330
F3
100
AcDbEntity
  8
0
100
AcDbBlockBegin
  2
EPDM-washer
 70
    0
 10
0
 20
0
  3
EPDM-washer
  1

  0
MTEXT
  5
1C2
100
AcDbEntity
  8
Symbole(DIN)
  6
ByLayer
 62
    7
370
   -1
100
AcDbMText
 10
-11.25666856765747
 20
1.270007696002721
 30
0
 40
2.5
 41
21.94444573016283
 71
    1
 72
    1
  1
EPDM-washer
  7
aktuell-din
210
0
220
0
230
1
 50
0
 73
    1
 44
1
  0
ENDBLK
  5
F5
330
F3
100
AcDbEntity
  8
0
100
AcDbBlockEnd
  0
BLOCK
  5
F7
330
F6
100
AcDbEntity
  8
0
100
AcDbBlockBegin
  2
isometric view
 70
    0
 10
0
 20
0
  3
isometric view
  1

  0
MTEXT
  5
1C3
100
AcDbEntity
  8
Symbole(DIN)
  6
ByLayer
 62
    7
370
   -1
100
AcDbMText
 10
-10.96417665481567
 20
1.270007696002721
 30
0
 40
2.5
 41
23.263890174607
 71
    1
 72
    1
  1
isometric view
  7
aktuell-din
210
0
220
0
230
1
 50
0
 73
    1
 44
1
  0
ENDBLK
  5
F8
330
F6
100
AcDbEntity
  8
0
100
AcDbBlockEnd
  0
BLOCK
  5
FA
330
F9
100
AcDbEntity
  8
0
100
AcDbBlockBegin
  2
glazing
 70
    0
 10
0
 20
0
  3
glazing
  1

  0
MTEXT
  5
1C4
100
AcDbEntity
  8
Symbole(DIN)
  6
ByLayer
 62
    7
370
   -1
100
AcDbMText
 10
-5.532583594322204
 20
1.616806462407112
 30
0
 40
2.5
 41
10.83333333333391
 71
    1
 72
    1
  1
glazing
  7
aktuell-din
210
0
220
0
230
1
 50
0
 73
    1
 44
1
  0
ENDBLK
  5
FB
330
F9
100
AcDbEntity
  8
0
100
AcDbBlockEnd
  0
BLOCK
  5
FD
330
FC
100
AcDbEntity
  8
0
100
AcDbBlockBegin
  2
countersink screw EN ISO A2
 70
    0
 10
0
 20
0
  3
countersink screw EN ISO A2
  1

  0
MTEXT
  5
1C5
100
AcDbEntity
  8
Symbole(DIN)
  6
ByLayer
 62
    7
370
   -1
100
AcDbMText
 10
-16.98551774024963
 20
5.20426383242011
 30
0
 40
2.5
 41
33.40277724777287
 71
    1
 72
    1
  1
countersink screw\PEN ISO 10642 M6x16\Pmaterial: A2
  7
aktuell-din
210
0
220
0
230
1
 50
0
 73
    2
 44
0.9442214965820312
  0
ENDBLK
  5
FE
330
FC
100
AcDbEntity
  8
0
100
AcDbBlockEnd
  0
BLOCK
  5
100
330
FF
100
AcDbEntity
  8
0
100
AcDbBlockBegin
  2
cylinder head screw EN ISO A2
 70
    0
 10
0
 20
0
  3
cylinder head screw EN ISO A2
  1

  0
MTEXT
  5
1C6
100
AcDbEntity
  8
Symbole(DIN)
  6
ByLayer
 62
    7
370
   -1
100
AcDbMText
 10
-16.01467132568359
 20
5.20426383242011
 30
0
 40
2.5
 41
33.47222350794068
 71
    1
 72
    1
  1
cylinder head screw\PEN ISO 4762 M8x20\Pmaterial: A2
  7
aktuell-din
210
0
220
0
230
1
 50
0
 73
    2
 44
0.9442214965820312
  0
ENDBLK
  5
101
330
FF
100
AcDbEntity
  8
0
100
AcDbBlockEnd
  0
BLOCK
  5
103
330
102
100
AcDbEntity
  8
0
100
AcDbBlockBegin
  2
P+S glass clamp
 70
    0
 10
0
 20
0
  3
P+S glass clamp
  1

  0
MTEXT
  5
1C7
100
AcDbEntity
  8
Symbole(DIN)
  6
ByLayer
 62
    7
370
   -1
100
AcDbMText
 10
-26.10899209976196
 20
3.277438879013061
 30
0
 40
5
 41
120.8333374161963
 71
    1
 72
    1
  1
\fArial|b0|i0;\H5.0000;P+S glass clamp
  7
aktuell-din
210
0
220
0
230
1
 50
0
 73
    1
 44
1
  0
ENDBLK
  5
104
330
102
100
AcDbEntity
  8
0
100
AcDbBlockEnd
  0
BLOCK
  5
106
330
105
100
AcDbEntity
  8
0
100
AcDbBlockBegin
  2
Eloxalqualität nach DIN 17611
 70
    0
 10
0
 20
0
  3
Eloxalqualität nach DIN 17611
  1

  0
MTEXT
  5
1C8
100
AcDbEntity
  8
Symbol (ISO)
  6
ByLayer
 62
  256
370
   -1
100
AcDbMText
 10
0
 20
3.998107574880123
 30
0
 40
2.791878283023834
 41
90.65849202374756
 71
    2
 72
    1
  1
\fArial|b0|i0;\H2.7919;Eloxalqualität nach DIN 17611 \P(Achtung: Dekorative Oberfläche)\P
  7
notiztext (din)
210
0
220
0
230
1
 50
0
 73
    2
 44
0.9442214369773864
  0
ENDBLK
  5
107
330
105
100
AcDbEntity
  8
0
100
AcDbBlockEnd
  0
BLOCK
  5
109
330
108
100
AcDbEntity
  8
0
100
AcDbBlockBegin
  2
Duschenglas 8mm Weissglas
 70
    0
 10
0
 20
0
  3
Duschenglas 8mm Weissglas
  1

  0
MTEXT
  5
1C9
100
AcDbEntity
  8
Symbol (ISO)
  6
ByLayer
 62
    5
370
   -1
100
AcDbMText
 10
-53.56992959976196
 20
7.150431517511606
 30
0
 40
2.5
 41
175.9027779514167
 71
    1
 72
    1
  1
ESG 8mm \fArial|b1|i0;\H2.5000;WEISSGLAS\fArial|b0|i0;\H2.5000; gefertigt nach DIN EN14428 (Duschenglas).\PEin entsprechender Nachweis (Stempel) ist erforderlich.\PKanten umlaufend geschliffen und poliert.\PAlle Ecken stoßen oder leicht runden.
  7
notiztext (din)
210
0
220
0
230
1
 50
0
 73
    2
 44
0.9442214965820312
  0
ENDBLK
  5
10A
330
108
100
AcDbEntity
  8
0
100
AcDbBlockEnd
  0
BLOCK
  5
10C
330
10B
100
AcDbEntity
  8
0
100
AcDbBlockBegin
  2
Duschenglas 10mm Weissglas
 70
    0
 10
0
 20
0
  3
Duschenglas 10mm Weissglas
  1

  0
MTEXT
  5
1CA
100
AcDbEntity
  8
Symbol (ISO)
  6
ByLayer
 62
    5
370
   -1
100
AcDbMText
 10
-54.540776014328
 20
7.150431517511606
 30
0
 40
2.5
 41
177.2916668403056
 71
    1
 72
    1
  1
ESG 10mm \fArial|b1|i0;\H2.5000;WEISSGLAS\fArial|b0|i0;\H2.5000; gefertigt nach DIN EN14428 (Duschenglas).\PEin entsprechender Nachweis (Stempel) ist erforderlich.\PKanten umlaufend geschliffen und poliert.\PAlle Ecken stoßen oder leicht runden.
  7
notiztext (din)
210
0
220
0
230
1
 50
0
 73
    2
 44
0.9442214965820312
  0
ENDBLK
  5
10D
330
10B
100
AcDbEntity
  8
0
100
AcDbBlockEnd
  0
ENDSEC
  0
SECTION
  2
ENTITIES
  0
LINE
  5
1CB
100
AcDbEntity
  8
Sichtbar (ISO)
  6
ByLayer
 62
  256
370
   -1
100
AcDbLine
 10
83.90697723988706
 20
103.141898142279
 11
83.90697723988698
 21
116.2058434371217
  0
LINE
  5
1CC
100
AcDbEntity
  8
Sichtbar (ISO)
  6
ByLayer
 62
  256
370
   -1
100
AcDbLine
 10
83.90697723988704
 20
192.9565220443289
 11
83.90697723988704
 21
193.5280696509783
  0
LINE
  5
1CD
100
AcDbEntity
  8
Sichtbar (ISO)
  6
ByLayer
 62
  256
370
   -1
100
AcDbLine
 10
83.90697723988697
 20
176.5863841074174
 11
83.90697723988704
 21
192.9565220443289
  0
LINE
  5
1CE
100
AcDbEntity
  8
Sichtbar (ISO)
  6
ByLayer
 62
  256
370
   -1
100
AcDbLine
 10
88.57388199571824
 20
196.2225083680398
 11
89.56383148937942
 21
196.2225083680398
  0
LINE
  5
1CF
100
AcDbEntity
  8
Sichtbar (ISO)
  6
ByLayer
 62
  256
370
   -1
100
AcDbLine
 10
159.7795348612036
 20
65.86882922292838
 11
154.1226806117112
 21
62.60284289921748
  0
LINE
  5
1D0
100
AcDbEntity
  8
Sichtbar (ISO)
  6
ByLayer
 62
  256
370
   -1
100
AcDbLine
 10
154.1226806117112
 20
62.60284289921748
 11
83.90697723988706
 21
103.141898142279
  0
ELLIPSE
  5
1D1
100
AcDbEntity
  8
Sichtbar (ISO)
  6
ByLayer
 62
  256
370
   -1
100
AcDbEllipse
 10
83.41200249305652
 20
172.8298813244604
 30
0
 11
-2.500000000000258
 21
4.330127018922046
 31
0
 40
0.577350269189626
 41
3.926990816987002
 42
5.357325729072111
  0
LINE
  5
1D2
100
AcDbEntity
  8
Sichtbar (ISO)
  6
ByLayer
 62
  256
370
   -1
100
AcDbLine
 10
88.57388199571824
 20
196.2225083680398
 11
83.90697723988704
 21
193.5280696509783
  0
LINE
  5
1D3
100
AcDbEntity
  8
Sichtbar (ISO)
  6
ByLayer
 62
  256
370
   -1
100
AcDbLine
 10
83.90697723988704
 20
192.9565220443289
 11
154.1226806117112
 21
152.4174668012673
  0
LINE
  5
1D4
100
AcDbEntity
  8
Sichtbar (ISO)
  6
ByLayer
 62
  256
370
   -1
100
AcDbLine
 10
159.7795348612036
 20
155.6834531249782
 11
154.1226806117112
 21
152.4174668012673
  0
LINE
  5
1D5
100
AcDbEntity
  8
Sichtbar (ISO)
  6
ByLayer
 62
  256
370
   -1
100
AcDbLine
 10
89.56383148937942
 20
196.2225083680398
 11
159.7795348612036
 21
155.6834531249782
  0
LINE
  5
1D6
100
AcDbEntity
  8
Sichtbar (ISO)
  6
ByLayer
 62
  256
370
   -1
100
AcDbLine
 10
154.1226806117112
 20
152.4174668012673
 11
154.1226806117112
 21
62.60284289921748
  0
LINE
  5
1D7
100
AcDbEntity
  8
Sichtbar (ISO)
  6
ByLayer
 62
  256
370
   -1
100
AcDbLine
 10
159.7795348612036
 20
155.6834531249782
 11
159.7795348612036
 21
65.86882922292838
  0
LINE
  5
1D8
100
AcDbEntity
  8
Sichtbar (ISO)
  6
ByLayer
 62
  256
370
   -1
100
AcDbLine
 10
17.50965048647037
 20
141.3131133006493
 11
17.50965048646927
 21
231.1277372026999
  0
LINE
  5
1D9
100
AcDbEntity
  8
Sichtbar (ISO)
  6
ByLayer
 62
  256
370
   -1
100
AcDbLine
 10
17.50965048646927
 20
231.1277372026999
 11
31.65178611020023
 21
239.2927030119771
  0
LINE
  5
1DA
100
AcDbEntity
  8
Sichtbar (ISO)
  6
ByLayer
 62
  256
370
   -1
100
AcDbLine
 10
81.14926079325853
 20
194.3853910609533
 11
81.14926079325878
 21
175.6059696996118
  0
LINE
  5
1DB
100
AcDbEntity
  8
Sichtbar (ISO)
  6
ByLayer
 62
  256
370
   -1
100
AcDbLine
 10
81.14926079325949
 20
117.7980117699308
 11
81.14926079325964
 21
104.5707671589027
  0
LINE
  5
1DC
100
AcDbEntity
  8
Sichtbar (ISO)
  6
ByLayer
 62
  256
370
   -1
100
AcDbLine
 10
83.90697723988706
 20
106.1629354917117
 11
81.14926079325964
 21
104.5707671589027
  0
LINE
  5
1DD
100
AcDbEntity
  8
Sichtbar (ISO)
  6
ByLayer
 62
  256
370
   -1
100
AcDbLine
 10
95.29139641698961
 20
192.915697215283
 11
95.2913964169895
 21
202.5503568702305
  0
LINE
  5
1DE
100
AcDbEntity
  8
Sichtbar (ISO)
  6
ByLayer
 62
  256
370
   -1
100
AcDbLine
 10
95.2913964169895
 20
202.5503568702305
 11
81.14926079325853
 21
194.3853910609533
  0
LINE
  5
1DF
100
AcDbEntity
  8
Sichtbar (ISO)
  6
ByLayer
 62
  256
370
   -1
100
AcDbLine
 10
81.14926079325964
 20
104.5707671589027
 11
17.50965048647037
 21
141.3131133006493
  0
LINE
  5
1E0
100
AcDbEntity
  8
Sichtbar (ISO)
  6
ByLayer
 62
  256
370
   -1
100
AcDbLine
 10
17.50965048646927
 20
231.1277372026999
 11
81.14926079325853
 21
194.3853910609533
  0
LINE
  5
1E1
100
AcDbEntity
  8
Sichtbar (ISO)
  6
ByLayer
 62
  256
370
   -1
100
AcDbLine
 10
95.2913964169895
 20
202.5503568702305
 11
31.65178611020023
 21
239.2927030119771
  0
LINE
  5
1E2
100
AcDbEntity
  8
Sichtbar (ISO)
  6
ByLayer
 62
  256
370
   -1
100
AcDbLine
 10
81.14926079326078
 20
175.6544228120638
 11
81.14926079326078
 21
175.6059696996129
  0
LINE
  5
1E3
100
AcDbEntity
  8
Sichtbar (ISO)
  6
ByLayer
 62
  256
370
   -1
100
AcDbLine
 10
76.34093468119227
 20
172.8298813244587
 11
81.14926079326078
 21
175.6544228120638
  0
LINE
  5
1E4
100
AcDbEntity
  8
Sichtbar (ISO)
  6
ByLayer
 62
  256
370
   -1
100
AcDbLine
 10
76.34093468119291
 20
120.6710063699856
 11
76.34093468119227
 21
172.8298813244587
  0
LINE
  5
1E5
100
AcDbEntity
  8
Sichtbar (ISO)
  6
ByLayer
 62
  256
370
   -1
100
AcDbLine
 10
19.77239218626907
 20
153.3308696070937
 11
76.34093468119289
 21
120.6710063699856
  0
LINE
  5
1E6
100
AcDbEntity
  8
Sichtbar (ISO)
  6
ByLayer
 62
  256
370
   -1
100
AcDbLine
 10
24.5387566720621
 20
208.3385126053974
 11
81.14926079326079
 21
175.6544228120638
  0
LINE
  5
1E7
100
AcDbEntity
  8
Sichtbar (ISO)
  6
ByLayer
 62
  256
370
   -1
100
AcDbLine
 10
76.34093468119227
 20
172.8298813244587
 11
19.77239218626846
 21
205.4897445615668
  0
LINE
  5
1E8
100
AcDbEntity
  8
Sichtbar (ISO)
  6
ByLayer
 62
  256
370
   -1
100
AcDbLine
 10
19.77239218626847
 20
205.4897445615668
 11
19.77239218626907
 21
153.3308696070937
  0
LINE
  5
1E9
100
AcDbEntity
  8
Sichtbar (ISO)
  6
ByLayer
 62
  256
370
   -1
100
AcDbLine
 10
19.77239218626847
 20
205.4897445615668
 11
24.5387566720621
 21
208.3385126053974
  0
LINE
  5
1EA
100
AcDbEntity
  8
Sichtbar (ISO)
  6
ByLayer
 62
  256
370
   -1
100
AcDbLine
 10
76.34093468119224
 20
172.8298813244587
 11
76.34093468119288
 21
120.5741001450838
  0
LINE
  5
1EB
100
AcDbEntity
  8
Sichtbar (ISO)
  6
ByLayer
 62
  256
370
   -1
100
AcDbLine
 10
76.34093468119224
 20
172.8298813244587
 11
83.90697723988697
 21
177.1981380324213
  0
LINE
  5
1EC
100
AcDbEntity
  8
Sichtbar (ISO)
  6
ByLayer
 62
  256
370
   -1
100
AcDbLine
 10
81.36139282761673
 20
169.9313184621653
 11
76.34093468119224
 21
172.8298813244587
  0
LINE
  5
1ED
100
AcDbEntity
  8
Sichtbar (ISO)
  6
ByLayer
 62
  256
370
   -1
100
AcDbLine
 10
76.34093468119288
 20
120.5741001450838
 11
81.36139282761737
 21
117.6755372827905
  0
LINE
  5
1EE
100
AcDbEntity
  8
Sichtbar (ISO)
  6
ByLayer
 62
  256
370
   -1
100
AcDbLine
 10
81.36139282761673
 20
169.9313184621653
 11
82.03710305961772
 21
170.3214399465054
  0
LINE
  5
1EF
100
AcDbEntity
  8
Sichtbar (ISO)
  6
ByLayer
 62
  256
370
   -1
100
AcDbLine
 10
82.03710305961791
 20
154.8488297379248
 11
81.36139282761692
 21
154.4587082535848
  0
LINE
  5
1F0
100
AcDbEntity
  8
Sichtbar (ISO)
  6
ByLayer
 62
  256
370
   -1
100
AcDbLine
 10
82.03710305961772
 20
170.3214399465054
 11
82.03710305961791
 21
154.8488297379248
  0
LINE
  5
1F1
100
AcDbEntity
  8
Sichtbar (ISO)
  6
ByLayer
 62
  256
370
   -1
100
AcDbLine
 10
81.36139282761692
 20
154.4587082535848
 11
81.36139282761673
 21
169.9313184621653
  0
ELLIPSE
  5
1F2
100
AcDbEntity
  8
Sichtbar (ISO)
  6
ByLayer
 62
  256
370
   -1
100
AcDbEllipse
 10
97.55413811678871
 20
169.563895000748
 30
0
 11
-15.57241150239749
 21
-1.897e-013
 31
0
 40
0.5773502691896173
 41
5.614142310664286
 42
6.198826898039785
  0
ELLIPSE
  5
1F3
100
AcDbEntity
  8
Sichtbar (ISO)
  6
ByLayer
 62
  256
370
   -1
100
AcDbEllipse
 10
97.55413811678881
 20
154.0912847921675
 30
0
 11
-15.57241150239742
 21
-1.917e-013
 31
0
 40
0.5773502691896174
 41
5.840666196918004
 42
6.198826898039786
  0
LINE
  5
1F4
100
AcDbEntity
  8
Sichtbar (ISO)
  6
ByLayer
 62
  256
370
   -1
100
AcDbLine
 10
89.77596352373678
 20
149.600553597065
 11
81.36139282761692
 21
154.4587082535848
  0
LINE
  5
1F5
100
AcDbEntity
  8
Sichtbar (ISO)
  6
ByLayer
 62
  256
370
   -1
100
AcDbLine
 10
89.77596352373705
 20
128.2899928348512
 11
81.36139282761718
 21
133.148147491371
  0
LINE
  5
1F6
100
AcDbEntity
  8
Sichtbar (ISO)
  6
ByLayer
 62
  256
370
   -1
100
AcDbLine
 10
86.82299891169031
 20
136.8126341992703
 11
89.77596352373696
 21
135.1077392855978
  0
LINE
  5
1F7
100
AcDbEntity
  8
Sichtbar (ISO)
  6
ByLayer
 62
  256
370
   -1
100
AcDbLine
 10
89.77596352373685
 20
142.7828071463184
 11
86.82299891169021
 21
144.487702059991
  0
ELLIPSE
  5
1F8
100
AcDbEntity
  8
Sichtbar (ISO)
  6
ByLayer
 62
  256
370
   -1
100
AcDbEllipse
 10
97.55413811678891
 20
154.0912847921675
 30
0
 11
11.0000000000001
 21
7.914e-013
 31
0
 40
0.5773502691896177
 41
3.926990816986991
 42
4.285663335722514
  0
ELLIPSE
  5
1F9
100
AcDbEntity
  8
Sichtbar (ISO)
  6
ByLayer
 62
  256
370
   -1
100
AcDbEllipse
 10
97.55413811678895
 20
147.2735383414209
 30
0
 11
-11.00000000000001
 21
-1.364e-013
 31
0
 40
0.5773502691896178
 41
0.7853981633974385
 42
1.60937535667022
  0
ELLIPSE
  5
1FA
100
AcDbEntity
  8
Sichtbar (ISO)
  6
ByLayer
 62
  256
370
   -1
100
AcDbEllipse
 10
97.55413811678913
 20
132.7807240299537
 30
0
 11
-11.00000000000004
 21
-1.362e-013
 31
0
 40
0.5773502691896174
 41
0.7853981633974412
 42
1.609375356670222
  0
ELLIPSE
  5
1FB
100
AcDbEntity
  8
Sichtbar (ISO)
  6
ByLayer
 62
  256
370
   -1
100
AcDbEllipse
 10
97.55413811678903
 20
139.5984704807002
 30
0
 11
11.00000000000002
 21
7.894e-013
 31
0
 40
0.5773502691896172
 41
3.92699081698699
 42
4.75096801025991
  0
LINE
  5
1FC
100
AcDbEntity
  8
Sichtbar (ISO)
  6
ByLayer
 62
  256
370
   -1
100
AcDbLine
 10
81.36139282761737
 20
117.6755372827905
 11
81.36139282761718
 21
133.148147491371
  0
LINE
  5
1FD
100
AcDbEntity
  8
Sichtbar (ISO)
  6
ByLayer
 62
  256
370
   -1
100
AcDbLine
 10
82.03710305961835
 20
118.0656587671305
 11
81.36139282761737
 21
117.6755372827905
  0
LINE
  5
1FE
100
AcDbEntity
  8
Sichtbar (ISO)
  6
ByLayer
 62
  256
370
   -1
100
AcDbLine
 10
82.03710305961818
 20
132.7580260070311
 11
82.03710305961836
 21
118.0656587671305
  0
LINE
  5
1FF
100
AcDbEntity
  8
Sichtbar (ISO)
  6
ByLayer
 62
  256
370
   -1
100
AcDbLine
 10
86.82299891169021
 20
144.487702059991
 11
86.82299891169031
 21
136.8126341992703
  0
LINE
  5
200
100
AcDbEntity
  8
Sichtbar (ISO)
  6
ByLayer
 62
  256
370
   -1
100
AcDbLine
 10
87.08121502884055
 20
136.9617153440161
 11
86.82299891169031
 21
136.8126341992703
  0
ELLIPSE
  5
201
100
AcDbEntity
  8
Sichtbar (ISO)
  6
ByLayer
 62
  256
370
   -1
100
AcDbEllipse
 10
86.93979367260324
 20
137.0433650021088
 30
0
 11
0.2000000000000099
 21
5.5e-015
 31
0
 40
0.5773502691896177
 41
5.497787143781977
 42
6.283185307179301
  0
LINE
  5
202
100
AcDbEntity
  8
Sichtbar (ISO)
  6
ByLayer
 62
  256
370
   -1
100
AcDbLine
 10
87.13979367260316
 20
144.3048005195
 11
87.13979367260325
 21
137.0433650021088
  0
ELLIPSE
  5
203
100
AcDbEntity
  8
Sichtbar (ISO)
  6
ByLayer
 62
  256
370
   -1
100
AcDbEllipse
 10
97.55413811678943
 20
117.3081138213731
 30
0
 11
-15.57241150239756
 21
-1.938e-013
 31
0
 40
0.5773502691896177
 41
5.840666196918005
 42
6.198826898039785
  0
LINE
  5
204
100
AcDbEntity
  8
Sichtbar (ISO)
  6
ByLayer
 62
  256
370
   -1
100
AcDbLine
 10
84.14459413495396
 20
172.0280984347213
 11
84.47266266483852
 21
172.2175088887628
  0
LINE
  5
205
100
AcDbEntity
  8
Sichtbar (ISO)
  6
ByLayer
 62
  256
370
   -1
100
AcDbLine
 10
131.4952636137409
 20
88.73073348890561
 11
135.3843509102666
 21
90.97609908645668
  0
LINE
  5
206
100
AcDbEntity
  8
Sichtbar (ISO)
  6
ByLayer
 62
  256
370
   -1
100
AcDbLine
 10
83.56980668182688
 20
116.4005089495812
 11
131.495263613741
 21
88.73073348890561
  0
ELLIPSE
  5
207
100
AcDbEntity
  8
Sichtbar (ISO)
  6
ByLayer
 62
  256
370
   -1
100
AcDbEllipse
 10
97.5541381167894
 20
117.3081138213731
 30
0
 11
-14.07241150239651
 21
-1.748e-013
 31
0
 40
0.5773502691896168
 41
1.57e-014
 42
0.1119428442498128
  0
ELLIPSE
  5
208
100
AcDbEntity
  8
Sichtbar (ISO)
  6
ByLayer
 62
  256
370
   -1
100
AcDbEllipse
 10
97.55413811678871
 20
169.563895000748
 30
0
 11
-14.07241150239642
 21
-2.085e-013
 31
0
 40
0.5773502691896165
 41
5.97503417136054
 42
6.395128151429378
  0
LINE
  5
209
100
AcDbEntity
  8
Sichtbar (ISO)
  6
ByLayer
 62
  256
370
   -1
100
AcDbLine
 10
83.56980668182625
 20
168.6562901289561
 11
83.56980668182641
 21
153.755227527025
  0
LINE
  5
20A
100
AcDbEntity
  8
Sichtbar (ISO)
  6
ByLayer
 62
  256
370
   -1
100
AcDbLine
 10
83.56980668182671
 20
131.3015715515123
 11
83.56980668182688
 21
116.4005089495812
  0
LINE
  5
20B
100
AcDbEntity
  8
Sichtbar (ISO)
  6
ByLayer
 62
  256
370
   -1
100
AcDbLine
 10
83.48172661439224
 20
169.5638950007479
 11
83.48172661439241
 21
154.6628323988167
  0
LINE
  5
20C
100
AcDbEntity
  8
Sichtbar (ISO)
  6
ByLayer
 62
  256
370
   -1
100
AcDbLine
 10
83.48172661439271
 20
131.9239722088049
 11
83.48172661439288
 21
117.308113821373
  0
LINE
  5
20D
100
AcDbEntity
  8
Sichtbar (ISO)
  6
ByLayer
 62
  256
370
   -1
100
AcDbLine
 10
98.2612448979753
 20
145.2731217181489
 11
98.26124489797559
 21
122.8194657426362
  0
ELLIPSE
  5
20E
100
AcDbEntity
  8
Sichtbar (ISO)
  6
ByLayer
 62
  256
370
   -1
100
AcDbEllipse
 10
97.55413811678989
 20
132.2091764233043
 30
0
 11
-14.07241150239716
 21
-2.082e-013
 31
0
 40
0.5773502691896168
 41
0.0357498811326034
 42
0.1119428442497927
  0
LINE
  5
20F
100
AcDbEntity
  8
Sichtbar (ISO)
  6
ByLayer
 62
  256
370
   -1
100
AcDbLine
 10
98.26124489797557
 20
122.8194657426363
 11
83.56980668182671
 21
131.3015715515123
  0
ELLIPSE
  5
210
100
AcDbEntity
  8
Sichtbar (ISO)
  6
ByLayer
 62
  256
370
   -1
100
AcDbEllipse
 10
94.65352653485763
 20
164.2983429405054
 30
0
 11
-2.999999999999761
 21
-2.24e-013
 31
0
 40
0.577350269189617
 41
3.92699081698699
 42
4.33812867930944
  0
ELLIPSE
  5
211
100
AcDbEntity
  8
Sichtbar (ISO)
  6
ByLayer
 62
  256
370
   -1
100
AcDbEllipse
 10
96.8470313356022
 20
167.5226535484289
 30
0
 11
-2.999999999999775
 21
-4.45e-014
 31
0
 40
0.5773502691896168
 41
0.7853981633974385
 42
1.196536025719787
  0
LINE
  5
212
100
AcDbEntity
  8
Sichtbar (ISO)
  6
ByLayer
 62
  256
370
   -1
100
AcDbLine
 10
94.72571099204269
 20
166.2979086770374
 11
84.4726626648385
 21
172.2175088887628
  0
LINE
  5
213
100
AcDbEntity
  8
Sichtbar (ISO)
  6
ByLayer
 62
  256
370
   -1
100
AcDbLine
 10
83.56980668182641
 20
153.755227527025
 11
98.2612448979753
 21
145.2731217181489
  0
ELLIPSE
  5
214
100
AcDbEntity
  8
Sichtbar (ISO)
  6
ByLayer
 62
  256
370
   -1
100
AcDbEllipse
 10
97.55413811678895
 20
154.6628323988169
 30
0
 11
-14.07241150239651
 21
-1.748e-013
 31
0
 40
0.5773502691896168
 41
1.57e-014
 42
0.1119428442498128
  0
ELLIPSE
  5
215
100
AcDbEntity
  8
Sichtbar (ISO)
  6
ByLayer
 62
  256
370
   -1
100
AcDbEllipse
 10
97.55413811678895
 20
147.1102390252354
 30
0
 11
-10.92499999999987
 21
-1.379e-013
 31
0
 40
0.5773502691896175
 41
0.6339813019602722
 42
1.609640334098399
  0
ELLIPSE
  5
216
100
AcDbEntity
  8
Sichtbar (ISO)
  6
ByLayer
 62
  256
370
   -1
100
AcDbEllipse
 10
97.55413811678903
 20
139.7617697968858
 30
0
 11
-10.9999999999999
 21
-1.402e-013
 31
0
 40
0.5773502691896173
 41
0.3277824892244414
 42
1.60937535667022
  0
LINE
  5
217
100
AcDbEntity
  8
Sichtbar (ISO)
  6
ByLayer
 62
  256
370
   -1
100
AcDbLine
 10
97.97840218550049
 20
145.4364210343338
 11
97.97840218550081
 21
123.4726630073784
  0
LINE
  5
218
100
AcDbEntity
  8
Sichtbar (ISO)
  6
ByLayer
 62
  256
370
   -1
100
AcDbLine
 10
98.26124489797564
 20
123.3093636911927
 11
97.97840218550078
 21
123.4726630073784
  0
LINE
  5
219
100
AcDbEntity
  8
Sichtbar (ISO)
  6
ByLayer
 62
  256
370
   -1
100
AcDbLine
 10
282.1850209310782
 20
154.0418470063504
 11
282.1850209310781
 21
154.0893211671322
  0
LINE
  5
21A
100
AcDbEntity
  8
Sichtbar (ISO)
  6
ByLayer
 62
  256
370
   -1
100
AcDbLine
 10
282.1850209310789
 20
102.9367953279139
 11
282.1850209310782
 21
154.0418470063504
  0
LINE
  5
21B
100
AcDbEntity
  8
Sichtbar (ISO)
  6
ByLayer
 62
  256
370
   -1
100
AcDbLine
 10
218.1850209310789
 20
102.936795327913
 11
282.1850209310789
 21
102.9367953279139
  0
LINE
  5
21C
100
AcDbEntity
  8
Sichtbar (ISO)
  6
ByLayer
 62
  256
370
   -1
100
AcDbLine
 10
218.1850209310789
 20
102.936795327913
 11
218.1724542414602
 21
102.9242286382943
  0
LINE
  5
21D
100
AcDbEntity
  8
Sichtbar (ISO)
  6
ByLayer
 62
  256
370
   -1
100
AcDbLine
 10
218.1375467702965
 20
154.0418470063495
 11
218.1375467702965
 21
154.0893211671313
  0
LINE
  5
21E
100
AcDbEntity
  8
Sichtbar (ISO)
  6
ByLayer
 62
  256
370
   -1
100
AcDbLine
 10
218.1375467702965
 20
154.0893211671313
 11
282.1850209310782
 21
154.0893211671322
  0
LINE
  5
21F
100
AcDbEntity
  8
Sichtbar (ISO)
  6
ByLayer
 62
  256
370
   -1
100
AcDbLine
 10
282.1850209310782
 20
154.0418470063504
 11
218.1850209310782
 21
154.0418470063496
  0
LINE
  5
220
100
AcDbEntity
  8
Sichtbar (ISO)
  6
ByLayer
 62
  256
370
   -1
100
AcDbLine
 10
218.1850209310782
 20
154.0418470063496
 11
218.1850209310789
 21
102.936795327913
  0
LINE
  5
221
100
AcDbEntity
  8
Sichtbar (ISO)
  6
ByLayer
 62
  256
370
   -1
100
AcDbLine
 10
218.1850209310782
 20
154.0418470063496
 11
218.1375467702965
 21
154.0893211671313
  0
LINE
  5
222
100
AcDbEntity
  8
Sichtbar (ISO)
  6
ByLayer
 62
  256
370
   -1
100
AcDbLine
 10
218.1724542414596
 20
154.0418470063492
 11
218.1375467702965
 21
154.0418470063492
  0
LINE
  5
223
100
AcDbEntity
  8
Sichtbar (ISO)
  6
ByLayer
 62
  256
370
   -1
100
AcDbLine
 10
218.1375467702965
 20
154.0418470063492
 11
218.1375467702972
 21
102.8418470063495
  0
LINE
  5
224
100
AcDbEntity
  8
Sichtbar (ISO)
  6
ByLayer
 62
  256
370
   -1
100
AcDbLine
 10
218.1375467702972
 20
102.8418470063495
 11
282.1850209310789
 21
102.8418470063505
  0
LINE
  5
225
100
AcDbEntity
  8
Sichtbar (ISO)
  6
ByLayer
 62
  256
370
   -1
100
AcDbLine
 10
282.1850209310781
 20
154.0418470063504
 11
282.1850209310789
 21
102.8418470063504
  0
LINE
  5
226
100
AcDbEntity
  8
Sichtbar (ISO)
  6
ByLayer
 62
  256
370
   -1
100
AcDbLine
 10
287.8650209310782
 20
154.0418470063505
 11
282.1850209310781
 21
154.0418470063504
  0
LINE
  5
227
100
AcDbEntity
  8
Sichtbar (ISO)
  6
ByLayer
 62
  256
370
   -1
100
AcDbLine
 10
282.1850209310789
 20
102.8418470063504
 11
287.8650209310789
 21
102.8418470063505
  0
LINE
  5
228
100
AcDbEntity
  8
Sichtbar (ISO)
  6
ByLayer
 62
  256
370
   -1
100
AcDbLine
 10
306.1850209310785
 20
134.5973042891267
 11
306.1850209310785
 21
132.2018470063507
  0
LINE
  5
229
100
AcDbEntity
  8
Sichtbar (ISO)
  6
ByLayer
 62
  256
370
   -1
100
AcDbLine
 10
306.1850209310787
 20
124.6818470063508
 11
306.1850209310787
 21
122.2863897235708
  0
LINE
  5
22A
100
AcDbEntity
  8
Sichtbar (ISO)
  6
ByLayer
 62
  256
370
   -1
100
AcDbLine
 10
287.8650209310785
 20
138.8818470063505
 11
287.8650209310782
 21
154.0418470063505
  0
LINE
  5
22B
100
AcDbEntity
  8
Sichtbar (ISO)
  6
ByLayer
 62
  256
370
   -1
100
AcDbLine
 10
297.3850209310784
 20
138.8818470063506
 11
287.8650209310785
 21
138.8818470063505
  0
LINE
  5
22C
100
AcDbEntity
  8
Sichtbar (ISO)
  6
ByLayer
 62
  256
370
   -1
100
AcDbLine
 10
297.3850209310787
 20
118.0018470063506
 11
287.8650209310787
 21
118.0018470063505
  0
LINE
  5
22D
100
AcDbEntity
  8
Sichtbar (ISO)
  6
ByLayer
 62
  256
370
   -1
100
AcDbLine
 10
294.0441228482273
 20
124.6818470063506
 11
297.3850209310786
 21
124.6818470063506
  0
LINE
  5
22E
100
AcDbEntity
  8
Sichtbar (ISO)
  6
ByLayer
 62
  256
370
   -1
100
AcDbLine
 10
297.3850209310786
 20
132.2018470063506
 11
294.0441228482272
 21
132.2018470063506
  0
LINE
  5
22F
100
AcDbEntity
  8
Sichtbar (ISO)
  6
ByLayer
 62
  256
370
   -1
100
AcDbLine
 10
306.1850209310784
 20
138.8818470063508
 11
297.3850209310784
 21
138.8818470063506
  0
LINE
  5
230
100
AcDbEntity
  8
Sichtbar (ISO)
  6
ByLayer
 62
  256
370
   -1
100
AcDbLine
 10
297.3850209310786
 20
132.2018470063506
 11
306.1850209310785
 21
132.2018470063507
  0
LINE
  5
231
100
AcDbEntity
  8
Sichtbar (ISO)
  6
ByLayer
 62
  256
370
   -1
100
AcDbLine
 10
297.3850209310787
 20
118.0018470063506
 11
306.1850209310787
 21
118.0018470063508
  0
LINE
  5
232
100
AcDbEntity
  8
Sichtbar (ISO)
  6
ByLayer
 62
  256
370
   -1
100
AcDbLine
 10
306.1850209310786
 20
124.6818470063508
 11
297.3850209310786
 21
124.6818470063506
  0
LINE
  5
233
100
AcDbEntity
  8
Sichtbar (ISO)
  6
ByLayer
 62
  256
370
   -1
100
AcDbLine
 10
287.8650209310789
 20
102.8418470063505
 11
287.8650209310787
 21
118.0018470063505
  0
LINE
  5
234
100
AcDbEntity
  8
Sichtbar (ISO)
  6
ByLayer
 62
  256
370
   -1
100
AcDbLine
 10
294.0441228482272
 20
132.2018470063506
 11
294.0441228482273
 21
124.6818470063506
  0
LINE
  5
235
100
AcDbEntity
  8
Sichtbar (ISO)
  6
ByLayer
 62
  256
370
   -1
100
AcDbLine
 10
306.9850209310776
 20
139.4418470063508
 11
306.985020931078
 21
117.4418470063507
  0
LINE
  5
236
100
AcDbEntity
  8
Sichtbar (ISO)
  6
ByLayer
 62
  256
370
   -1
100
AcDbLine
 10
287.8650209310795
 20
117.4418470063505
 11
290.3635559902426
 21
117.4418470063505
  0
LINE
  5
237
100
AcDbEntity
  8
Sichtbar (ISO)
  6
ByLayer
 62
  256
370
   -1
100
AcDbLine
 10
306.985020931078
 20
117.4418470063507
 11
290.3635559902427
 21
117.4418470063505
  0
LINE
  5
238
100
AcDbEntity
  8
Sichtbar (ISO)
  6
ByLayer
 62
  256
370
   -1
100
AcDbLine
 10
290.3635559902428
 20
102.8418470063505
 11
344.5850209310753
 21
102.8418470063513
  0
LINE
  5
239
100
AcDbEntity
  8
Sichtbar (ISO)
  6
ByLayer
 62
  256
370
   -1
100
AcDbLine
 10
290.3635559902429
 20
102.8418470063505
 11
287.8650209310797
 21
102.8418470063505
  0
LINE
  5
23A
100
AcDbEntity
  8
Sichtbar (ISO)
  6
ByLayer
 62
  256
370
   -1
100
AcDbLine
 10
344.5850209310746
 20
154.0418470063513
 11
344.5850209310753
 21
102.8418470063513
  0
LINE
  5
23B
100
AcDbEntity
  8
Sichtbar (ISO)
  6
ByLayer
 62
  256
370
   -1
100
AcDbLine
 10
287.8650209310789
 20
154.0418470063506
 11
290.3635559902422
 21
154.0418470063506
  0
LINE
  5
23C
100
AcDbEntity
  8
Sichtbar (ISO)
  6
ByLayer
 62
  256
370
   -1
100
AcDbLine
 10
344.5850209310746
 20
154.0418470063513
 11
290.3635559902422
 21
154.0418470063506
  0
LINE
  5
23D
100
AcDbEntity
  8
Sichtbar (ISO)
  6
ByLayer
 62
  256
370
   -1
100
AcDbLine
 10
290.3635559902422
 20
154.0418470063506
 11
290.3635559902424
 21
139.4418470063506
  0
LINE
  5
23E
100
AcDbEntity
  8
Sichtbar (ISO)
  6
ByLayer
 62
  256
370
   -1
100
AcDbLine
 10
290.3635559902427
 20
117.4418470063505
 11
290.3635559902428
 21
102.8418470063505
  0
LINE
  5
23F
100
AcDbEntity
  8
Sichtbar (ISO)
  6
ByLayer
 62
  256
370
   -1
100
AcDbLine
 10
290.3635559902424
 20
139.4418470063506
 11
306.9850209310776
 21
139.4418470063508
  0
LINE
  5
240
100
AcDbEntity
  8
Sichtbar (ISO)
  6
ByLayer
 62
  256
370
   -1
100
AcDbLine
 10
290.3635559902424
 20
139.4418470063506
 11
287.8650209310791
 21
139.4418470063505
  0
LINE
  5
241
100
AcDbEntity
  8
Sichtbar (ISO)
  6
ByLayer
 62
  256
370
   -1
100
AcDbLine
 10
294.0441228482272
 20
132.0418470063506
 11
305.4711329364439
 21
132.0418470063507
  0
LINE
  5
242
100
AcDbEntity
  8
Sichtbar (ISO)
  6
ByLayer
 62
  256
370
   -1
100
AcDbLine
 10
305.5266440028424
 20
124.8418470063507
 11
294.0441228482273
 21
124.8418470063506
  0
LINE
  5
243
100
AcDbEntity
  8
Sichtbar (ISO)
  6
ByLayer
 62
  256
370
   -1
100
AcDbLine
 10
305.4711329364439
 20
132.0418470063507
 11
305.496570226853
 21
132.0418470063507
  0
LINE
  5
244
100
AcDbEntity
  8
Sichtbar (ISO)
  6
ByLayer
 62
  256
370
   -1
100
AcDbLine
 10
305.5565702268532
 20
124.8418470063507
 11
305.5266440028424
 21
124.8418470063507
  0
LINE
  5
245
100
AcDbEntity
  8
Sichtbar (ISO)
  6
ByLayer
 62
  256
370
   -1
100
AcDbLine
 10
305.4965702268531
 20
132.0418470063507
 11
305.5565702268532
 21
124.8418470063507
  0
LINE
  5
246
100
AcDbEntity
  8
Sichtbar (ISO)
  6
ByLayer
 62
  256
370
   -1
100
AcDbLine
 10
303.3850209310788
 20
117.8418470063507
 11
291.3850209310787
 21
117.8418470063505
  0
LINE
  5
247
100
AcDbEntity
  8
Sichtbar (ISO)
  6
ByLayer
 62
  256
370
   -1
100
AcDbLine
 10
291.3850209310787
 20
117.4418470063505
 11
291.3850209310787
 21
117.8418470063505
  0
LINE
  5
248
100
AcDbEntity
  8
Sichtbar (ISO)
  6
ByLayer
 62
  256
370
   -1
100
AcDbLine
 10
303.3850209310788
 20
117.4418470063507
 11
303.3850209310788
 21
117.8418470063507
  0
LINE
  5
249
100
AcDbEntity
  8
Sichtbar (ISO)
  6
ByLayer
 62
  256
370
   -1
100
AcDbLine
 10
294.1850209310784
 20
132.0418470063516
 11
294.1850209310784
 21
132.2018470063517
  0
LINE
  5
24A
100
AcDbEntity
  8
Sichtbar (ISO)
  6
ByLayer
 62
  256
370
   -1
100
AcDbLine
 10
294.1850209310783
 20
138.8818470063536
 11
294.1850209310783
 21
139.0418470063537
  0
LINE
  5
24B
100
AcDbEntity
  8
Sichtbar (ISO)
  6
ByLayer
 62
  256
370
   -1
100
AcDbLine
 10
300.5850209310787
 20
132.0418470063517
 11
300.5850209310787
 21
132.2018470063518
  0
LINE
  5
24C
100
AcDbEntity
  8
Sichtbar (ISO)
  6
ByLayer
 62
  256
370
   -1
100
AcDbLine
 10
300.5850209310785
 20
138.8818470063537
 11
300.5850209310785
 21
139.0418470063537
  0
LINE
  5
24D
100
AcDbEntity
  8
Sichtbar (ISO)
  6
ByLayer
 62
  256
370
   -1
100
AcDbLine
 10
293.7850209310786
 20
117.8418470063475
 11
293.7850209310786
 21
118.0018470063476
  0
LINE
  5
24E
100
AcDbEntity
  8
Sichtbar (ISO)
  6
ByLayer
 62
  256
370
   -1
100
AcDbLine
 10
300.9850209310788
 20
117.8418470063476
 11
300.9850209310788
 21
118.0018470063477
  0
LINE
  5
24F
100
AcDbEntity
  8
Sichtbar (ISO)
  6
ByLayer
 62
  256
370
   -1
100
AcDbLine
 10
300.9850209310787
 20
124.6818470063496
 11
300.9850209310787
 21
124.8418470063542
  0
LINE
  5
250
100
AcDbEntity
  8
Sichtbar (ISO)
  6
ByLayer
 62
  256
370
   -1
100
AcDbLine
 10
305.4985702268528
 20
131.8018470063506
 11
306.1895192258281
 21
131.8018470063506
  0
LINE
  5
251
100
AcDbEntity
  8
Sichtbar (ISO)
  6
ByLayer
 62
  256
370
   -1
100
AcDbLine
 10
306.1895192258281
 20
131.4818470063505
 11
305.5012368935195
 21
131.4818470063505
  0
LINE
  5
252
100
AcDbEntity
  8
Sichtbar (ISO)
  6
ByLayer
 62
  256
370
   -1
100
AcDbLine
 10
305.5519035601863
 20
125.4018470063506
 11
306.1895192258282
 21
125.4018470063506
  0
LINE
  5
253
100
AcDbEntity
  8
Sichtbar (ISO)
  6
ByLayer
 62
  256
370
   -1
100
AcDbLine
 10
306.1895192258282
 20
125.0818470063506
 11
305.5545702268529
 21
125.0818470063506
  0
ELLIPSE
  5
254
100
AcDbEntity
  8
Sichtbar (ISO)
  6
ByLayer
 62
  256
370
   -1
100
AcDbEllipse
 10
306.1007129364757
 20
123.6418470063508
 30
0
 11
-7.01e-014
 21
4.313592873117354
 31
0
 40
0.0205875454557655
 41
4.392744253211435
 42
4.712388980384689
  0
LINE
  5
255
100
AcDbEntity
  8
Sichtbar (ISO)
  6
ByLayer
 62
  256
370
   -1
100
AcDbLine
 10
306.1850209310779
 20
122.2863897234516
 11
306.185020931078
 21
117.5218470063508
  0
LINE
  5
256
100
AcDbEntity
  8
Sichtbar (ISO)
  6
ByLayer
 62
  256
370
   -1
100
AcDbLine
 10
306.265020931078
 20
117.5218470063508
 11
306.185020931078
 21
117.5218470063508
  0
LINE
  5
257
100
AcDbEntity
  8
Sichtbar (ISO)
  6
ByLayer
 62
  256
370
   -1
100
AcDbLine
 10
306.2650209310776
 20
139.3618470063508
 11
306.265020931078
 21
117.5218470063508
  0
LINE
  5
258
100
AcDbEntity
  8
Sichtbar (ISO)
  6
ByLayer
 62
  256
370
   -1
100
AcDbLine
 10
306.1850209310776
 20
139.3618470063508
 11
306.2650209310776
 21
139.3618470063508
  0
LINE
  5
259
100
AcDbEntity
  8
Sichtbar (ISO)
  6
ByLayer
 62
  256
370
   -1
100
AcDbLine
 10
306.1850209310776
 20
139.3618470063508
 11
306.1850209310777
 21
134.5973042892499
  0
ELLIPSE
  5
25A
100
AcDbEntity
  8
Sichtbar (ISO)
  6
ByLayer
 62
  256
370
   -1
100
AcDbEllipse
 10
306.1007129364755
 20
133.2418470063507
 30
0
 11
-7.03e-014
 21
4.313592873117355
 31
0
 40
0.0205875454557655
 41
4.712388980384689
 42
5.032033707557962
  0
LINE
  5
25B
100
AcDbEntity
  8
Sichtbar (ISO)
  6
ByLayer
 62
  256
370
   -1
100
AcDbLine
 10
306.1895192258286
 20
123.6418470063508
 11
306.1895192258284
 21
133.2418470063507
  0
LINE
  5
25C
100
AcDbEntity
  8
Sichtbar (ISO)
  6
ByLayer
 62
  256
370
   -1
100
AcDbLine
 10
306.745020931078
 20
117.5218470063508
 11
306.9850209310788
 21
117.5218470063508
  0
ARC
  5
25D
100
AcDbEntity
  8
Sichtbar (ISO)
  6
ByLayer
 62
  256
370
   -1
100
AcDbCircle
 10
306.745020931078
 20
117.7618470063508
 40
0.2399999999999979
100
AcDbArc
 50
270
 51
0
  0
ARC
  5
25E
100
AcDbEntity
  8
Sichtbar (ISO)
  6
ByLayer
 62
  256
370
   -1
100
AcDbCircle
 10
306.7450209310777
 20
139.1218470063508
 40
0.2399999999999979
100
AcDbArc
 50
0
 51
90
  0
LINE
  5
25F
100
AcDbEntity
  8
Sichtbar (ISO)
  6
ByLayer
 62
  256
370
   -1
100
AcDbLine
 10
306.9850209310784
 20
139.3618470063508
 11
306.7450209310777
 21
139.3618470063508
  0
LINE
  5
260
100
AcDbEntity
  8
Sichtbar (ISO)
  6
ByLayer
 62
  256
370
   -1
100
AcDbLine
 10
306.745020931078
 20
117.5218470063508
 11
306.265020931078
 21
117.5218470063508
  0
LINE
  5
261
100
AcDbEntity
  8
Sichtbar (ISO)
  6
ByLayer
 62
  256
370
   -1
100
AcDbLine
 10
306.7450209310777
 20
139.3618470063508
 11
306.2650209310776
 21
139.3618470063508
  0
LINE
  5
262
100
AcDbEntity
  8
Sichtbar (ISO)
  6
ByLayer
 62
  256
370
   -1
100
AcDbLine
 10
303.3850209310784
 20
139.0418470063507
 11
291.3850209310784
 21
139.0418470063506
  0
LINE
  5
263
100
AcDbEntity
  8
Sichtbar (ISO)
  6
ByLayer
 62
  256
370
   -1
100
AcDbLine
 10
291.3850209310784
 20
139.0418470063506
 11
291.3850209310784
 21
139.4418470063506
  0
LINE
  5
264
100
AcDbEntity
  8
Sichtbar (ISO)
  6
ByLayer
 62
  256
370
   -1
100
AcDbLine
 10
303.3850209310784
 20
139.0418470063507
 11
303.3850209310784
 21
139.4418470063508
  0
LINE
  5
265
100
AcDbEntity
  8
Sichtbar (ISO)
  6
ByLayer
 62
  256
370
   -1
100
AcDbLine
 10
289.9070549780734
 20
288.8498677532476
 11
289.3470549780734
 21
289.4098677532476
  0
LINE
  5
266
100
AcDbEntity
  8
Sichtbar (ISO)
  6
ByLayer
 62
  256
370
   -1
100
AcDbLine
 10
289.9070549780733
 20
288.8498677532476
 11
289.3470549780733
 21
289.4098677532476
  0
LINE
  5
267
100
AcDbEntity
  8
Sichtbar (ISO)
  6
ByLayer
 62
  256
370
   -1
100
AcDbLine
 10
289.3470549780733
 20
294.6898677532476
 11
289.9070549780733
 21
295.2498677532476
  0
LINE
  5
268
100
AcDbEntity
  8
Sichtbar (ISO)
  6
ByLayer
 62
  256
370
   -1
100
AcDbLine
 10
289.3470549780734
 20
294.6898677532477
 11
289.9070549780734
 21
295.2498677532476
  0
LINE
  5
269
100
AcDbEntity
  8
Sichtbar (ISO)
  6
ByLayer
 62
  256
370
   -1
100
AcDbLine
 10
369.3470549780734
 20
295.2498677532476
 11
348.3870549780732
 21
295.2498677532476
  0
LINE
  5
26A
100
AcDbEntity
  8
Sichtbar (ISO)
  6
ByLayer
 62
  256
370
   -1
100
AcDbLine
 10
369.3470549780734
 20
295.2498677532476
 11
369.3470549780734
 21
288.8498677532476
  0
LINE
  5
26B
100
AcDbEntity
  8
Sichtbar (ISO)
  6
ByLayer
 62
  256
370
   -1
100
AcDbLine
 10
369.3470549780734
 20
288.8498677532476
 11
348.3870549780734
 21
288.8498677532476
  0
LINE
  5
26C
100
AcDbEntity
  8
Sichtbar (ISO)
  6
ByLayer
 62
  256
370
   -1
100
AcDbLine
 10
289.3470549780733
 20
294.6898677532477
 11
289.3470549780733
 21
289.4098677532476
  0
LINE
  5
26D
100
AcDbEntity
  8
Sichtbar (ISO)
  6
ByLayer
 62
  256
370
   -1
100
AcDbLine
 10
289.9070549780733
 20
295.2498677532476
 11
293.3470549780735
 21
295.2498677532476
  0
LINE
  5
26E
100
AcDbEntity
  8
Sichtbar (ISO)
  6
ByLayer
 62
  256
370
   -1
100
AcDbLine
 10
293.3470549780735
 20
295.2498677532476
 11
293.3470549780735
 21
288.8498677532476
  0
LINE
  5
26F
100
AcDbEntity
  8
Sichtbar (ISO)
  6
ByLayer
 62
  256
370
   -1
100
AcDbLine
 10
289.9070549780733
 20
288.8498677532476
 11
293.3470549780735
 21
288.8498677532476
  0
LINE
  5
270
100
AcDbEntity
  8
Sichtbar (ISO)
  6
ByLayer
 62
  256
370
   -1
100
AcDbLine
 10
289.3470549780734
 20
294.6898677532477
 11
289.3470549780734
 21
289.4098677532476
  0
LINE
  5
271
100
AcDbEntity
  8
Sichtbar (ISO)
  6
ByLayer
 62
  256
370
   -1
100
AcDbLine
 10
294.9470549780734
 20
288.8498677532476
 11
293.3470549780735
 21
288.8498677532476
  0
LINE
  5
272
100
AcDbEntity
  8
Sichtbar (ISO)
  6
ByLayer
 62
  256
370
   -1
100
AcDbLine
 10
293.3470549780735
 20
295.2498677532476
 11
293.3470549780735
 21
288.8498677532476
  0
LINE
  5
273
100
AcDbEntity
  8
Sichtbar (ISO)
  6
ByLayer
 62
  256
370
   -1
100
AcDbLine
 10
294.9470549780731
 20
295.2498677532476
 11
293.3470549780735
 21
295.2498677532476
  0
LINE
  5
274
100
AcDbEntity
  8
Sichtbar (ISO)
  6
ByLayer
 62
  256
370
   -1
100
AcDbLine
 10
329.1510565793546
 20
295.0898677532472
 11
329.1510565793546
 21
289.0098677532474
  0
LINE
  5
275
100
AcDbEntity
  8
Sichtbar (ISO)
  6
ByLayer
 62
  256
370
   -1
100
AcDbLine
 10
289.9070549780734
 20
288.8498677532476
 11
369.3470549780734
 21
288.8498677532476
  0
LINE
  5
276
100
AcDbEntity
  8
Sichtbar (ISO)
  6
ByLayer
 62
  256
370
   -1
100
AcDbLine
 10
369.3470549780734
 20
295.2498677532476
 11
369.3470549780734
 21
288.8498677532476
  0
LINE
  5
277
100
AcDbEntity
  8
Sichtbar (ISO)
  6
ByLayer
 62
  256
370
   -1
100
AcDbLine
 10
289.9070549780734
 20
295.2498677532476
 11
369.3470549780734
 21
295.2498677532476
  0
LINE
  5
278
100
AcDbEntity
  8
Sichtbar (ISO)
  6
ByLayer
 62
  256
370
   -1
100
AcDbLine
 10
340.5470549780734
 20
295.0898677532472
 11
340.5470549780734
 21
289.0098677532474
  0
LINE
  5
279
100
AcDbEntity
  8
Sichtbar (ISO)
  6
ByLayer
 62
  256
370
   -1
100
AcDbLine
 10
340.5470549780734
 20
295.0898677532472
 11
340.5470549780734
 21
289.0098677532474
  0
LINE
  5
27A
100
AcDbEntity
  8
Sichtbar (ISO)
  6
ByLayer
 62
  256
370
   -1
100
AcDbLine
 10
214.9470549780728
 20
288.6898677532473
 11
214.9470549780728
 21
304.6898677532472
  0
LINE
  5
27B
100
AcDbEntity
  8
Sichtbar (ISO)
  6
ByLayer
 62
  256
370
   -1
100
AcDbLine
 10
286.9470549780727
 20
304.6898677532472
 11
286.9470549780727
 21
288.6898677532472
  0
LINE
  5
27C
100
AcDbEntity
  8
Sichtbar (ISO)
  6
ByLayer
 62
  256
370
   -1
100
AcDbLine
 10
214.9470549780728
 20
288.6898677532473
 11
286.9470549780727
 21
288.6898677532472
  0
LINE
  5
27D
100
AcDbEntity
  8
Sichtbar (ISO)
  6
ByLayer
 62
  256
370
   -1
100
AcDbLine
 10
286.9470549780727
 20
304.6898677532472
 11
214.9470549780728
 21
304.6898677532472
  0
LINE
  5
27E
100
AcDbEntity
  8
Sichtbar (ISO)
  6
ByLayer
 62
  256
370
   -1
100
AcDbLine
 10
286.9470549780753
 20
283.2498677532472
 11
286.9470549780753
 21
288.6898677532473
  0
LINE
  5
27F
100
AcDbEntity
  8
Sichtbar (ISO)
  6
ByLayer
 62
  256
370
   -1
100
AcDbLine
 10
286.9470549780753
 20
283.2498677532472
 11
222.9470549780753
 21
283.2498677532472
  0
LINE
  5
280
100
AcDbEntity
  8
Sichtbar (ISO)
  6
ByLayer
 62
  256
370
   -1
100
AcDbLine
 10
222.9470549780753
 20
283.2498677532472
 11
222.8995808172935
 21
288.6898677532473
  0
LINE
  5
281
100
AcDbEntity
  8
Sichtbar (ISO)
  6
ByLayer
 62
  256
370
   -1
100
AcDbLine
 10
292.6270549780753
 20
283.2498677532472
 11
286.9470549780753
 21
283.2498677532472
  0
LINE
  5
282
100
AcDbEntity
  8
Sichtbar (ISO)
  6
ByLayer
 62
  256
370
   -1
100
AcDbLine
 10
292.6270549780752
 20
300.8498677532473
 11
286.9470549780753
 21
300.8498677532473
  0
LINE
  5
283
100
AcDbEntity
  8
Sichtbar (ISO)
  6
ByLayer
 62
  256
370
   -1
100
AcDbLine
 10
292.6270549780753
 20
283.2498677532472
 11
292.6270549780752
 21
284.0143466127113
  0
LINE
  5
284
100
AcDbEntity
  8
Sichtbar (ISO)
  6
ByLayer
 62
  256
370
   -1
100
AcDbLine
 10
292.6270549780752
 20
300.0853888937832
 11
292.6270549780752
 21
300.8498677532473
  0
ARC
  5
285
100
AcDbEntity
  8
Sichtbar (ISO)
  6
ByLayer
 62
  256
370
   -1
100
AcDbCircle
 10
302.1470549780752
 20
292.0498677532472
 40
12.45792920191798
100
AcDbArc
 50
139.8333808101476
 51
220.166619189852
  0
LINE
  5
286
100
AcDbEntity
  8
Sichtbar (ISO)
  6
ByLayer
 62
  256
370
   -1
100
AcDbLine
 10
295.1255900372387
 20
283.2498677532472
 11
292.6270549780755
 21
283.2498677532472
  0
LINE
  5
287
100
AcDbEntity
  8
Sichtbar (ISO)
  6
ByLayer
 62
  256
370
   -1
100
AcDbLine
 10
295.125590037235
 20
300.8498677532473
 11
292.6270549780754
 21
300.8498677532473
  0
LINE
  5
288
100
AcDbEntity
  8
Sichtbar (ISO)
  6
ByLayer
 62
  256
370
   -1
100
AcDbLine
 10
292.1470549780762
 20
295.7298677532469
 11
292.1470549780762
 21
296.0498677532469
  0
LINE
  5
289
100
AcDbEntity
  8
Sichtbar (ISO)
  6
ByLayer
 62
  256
370
   -1
100
AcDbLine
 10
294.0180944049154
 20
296.049867753247
 11
292.1470549780761
 21
296.049867753247
  0
LINE
  5
28A
100
AcDbEntity
  8
Sichtbar (ISO)
  6
ByLayer
 62
  256
370
   -1
100
AcDbLine
 10
338.1470549780727
 20
294.4498677532472
 11
338.1470549780727
 21
294.689867753247
  0
ARC
  5
28B
100
AcDbEntity
  8
Sichtbar (ISO)
  6
ByLayer
 62
  256
370
   -1
100
AcDbCircle
 10
294.0180944049154
 20
302.4498677532464
 40
6.399999999999481
100
AcDbArc
 50
269.9999999999996
 51
278.3459706368534
  0
LINE
  5
28C
100
AcDbEntity
  8
Sichtbar (ISO)
  6
ByLayer
 62
  256
370
   -1
100
AcDbLine
 10
309.3470549780747
 20
294.4498677532472
 11
309.3470549780747
 21
295.089867753247
  0
LINE
  5
28D
100
AcDbEntity
  8
Sichtbar (ISO)
  6
ByLayer
 62
  256
370
   -1
100
AcDbLine
 10
338.1470549780726
 20
289.6498677532475
 11
338.1470549780726
 21
289.0098677532477
  0
LINE
  5
28E
100
AcDbEntity
  8
Sichtbar (ISO)
  6
ByLayer
 62
  256
370
   -1
100
AcDbLine
 10
292.1470549780761
 20
287.2498677532476
 11
292.1470549780761
 21
295.7298677532469
  0
ARC
  5
28F
100
AcDbEntity
  8
Sichtbar (ISO)
  6
ByLayer
 62
  256
370
   -1
100
AcDbCircle
 10
302.1470549780754
 20
292.0498677532472
 40
3.599999999999704
100
AcDbArc
 50
302.3875385331014
 51
318.1896851042243
  0
ARC
  5
290
100
AcDbEntity
  8
Sichtbar (ISO)
  6
ByLayer
 62
  256
370
   -1
100
AcDbCircle
 10
302.1470549780754
 20
292.0498677532472
 40
3.599999999999688
100
AcDbArc
 50
221.8103148957756
 51
237.6124614668983
  0
ARC
  5
291
100
AcDbEntity
  8
Sichtbar (ISO)
  6
ByLayer
 62
  256
370
   -1
100
AcDbCircle
 10
302.1470549780754
 20
292.0498677532472
 40
3.599999999999719
100
AcDbArc
 50
122.387538533094
 51
138.1896851042185
  0
ARC
  5
292
100
AcDbEntity
  8
Sichtbar (ISO)
  6
ByLayer
 62
  256
370
   -1
100
AcDbCircle
 10
302.1470549780754
 20
292.0498677532472
 40
3.599999999999726
100
AcDbArc
 50
41.81031489578243
 51
57.61246146690745
  0
LINE
  5
293
100
AcDbEntity
  8
Sichtbar (ISO)
  6
ByLayer
 62
  256
370
   -1
100
AcDbLine
 10
292.147054978076
 20
286.8787005817671
 11
292.147054978076
 21
287.2498677532476
  0
LINE
  5
294
100
AcDbEntity
  8
Sichtbar (ISO)
  6
ByLayer
 62
  256
370
   -1
100
AcDbLine
 10
349.3470549780716
 20
287.6498677532475
 11
349.3470549780716
 21
283.249867753248
  0
ARC
  5
295
100
AcDbEntity
  8
Sichtbar (ISO)
  6
ByLayer
 62
  256
370
   -1
100
AcDbCircle
 10
302.1470549780752
 20
292.0498677532472
 40
11.25792920191714
100
AcDbArc
 50
207.344240465407
 51
231.4138525222043
  0
LINE
  5
296
100
AcDbEntity
  8
Sichtbar (ISO)
  6
ByLayer
 62
  256
370
   -1
100
AcDbLine
 10
349.3470549780716
 20
283.249867753248
 11
295.1255900372391
 21
283.2498677532479
  0
ARC
  5
297
100
AcDbEntity
  8
Sichtbar (ISO)
  6
ByLayer
 62
  256
370
   -1
100
AcDbCircle
 10
305.6653875874001
 20
285.2498677532477
 40
2.399999999999811
100
AcDbArc
 50
90
 51
113.5564643091016
  0
ARC
  5
298
100
AcDbEntity
  8
Sichtbar (ISO)
  6
ByLayer
 62
  256
370
   -1
100
AcDbCircle
 10
303.7470549780751
 20
289.6498677532474
 40
2.39999999999982
100
AcDbArc
 50
270
 51
293.5564643091016
  0
LINE
  5
299
100
AcDbEntity
  8
Sichtbar (ISO)
  6
ByLayer
 62
  256
370
   -1
100
AcDbLine
 10
349.3470549780716
 20
287.6498677532475
 11
305.6653875874001
 21
287.6498677532476
  0
LINE
  5
29A
100
AcDbEntity
  8
Sichtbar (ISO)
  6
ByLayer
 62
  256
370
   -1
100
AcDbLine
 10
303.7470549780751
 20
287.2498677532476
 11
292.147054978076
 21
287.2498677532476
  0
ARC
  5
29B
100
AcDbEntity
  8
Sichtbar (ISO)
  6
ByLayer
 62
  256
370
   -1
100
AcDbCircle
 10
302.1470549780754
 20
292.0498677532472
 40
3.058938415433853
100
AcDbArc
 50
276.378938333068
 51
308.317603199348
  0
ARC
  5
29C
100
AcDbEntity
  8
Sichtbar (ISO)
  6
ByLayer
 62
  256
370
   -1
100
AcDbCircle
 10
302.1470549780754
 20
292.0498677532472
 40
3.058938415434175
100
AcDbArc
 50
231.6823968006395
 51
263.6210616669183
  0
ARC
  5
29D
100
AcDbEntity
  8
Sichtbar (ISO)
  6
ByLayer
 62
  256
370
   -1
100
AcDbCircle
 10
302.1470549780754
 20
292.0498677532472
 40
3.058938415433842
100
AcDbArc
 50
96.37893833302459
 51
128.31760319934
  0
ARC
  5
29E
100
AcDbEntity
  8
Sichtbar (ISO)
  6
ByLayer
 62
  256
370
   -1
100
AcDbCircle
 10
302.1470549780754
 20
292.0498677532472
 40
3.058938415434179
100
AcDbArc
 50
51.6823968006475
 51
83.62106166696255
  0
ARC
  5
29F
100
AcDbEntity
  8
Sichtbar (ISO)
  6
ByLayer
 62
  256
370
   -1
100
AcDbCircle
 10
302.147054978075
 20
292.0498677532472
 40
3.369059892324139
100
AcDbArc
 50
225.4276569788931
 51
244.4658954323164
  0
ARC
  5
2A0
100
AcDbEntity
  8
Sichtbar (ISO)
  6
ByLayer
 62
  256
370
   -1
100
AcDbCircle
 10
302.147054978075
 20
292.0498677532472
 40
3.369059892324131
100
AcDbArc
 50
295.5341045676846
 51
314.5723430211067
  0
ARC
  5
2A1
100
AcDbEntity
  8
Sichtbar (ISO)
  6
ByLayer
 62
  256
370
   -1
100
AcDbCircle
 10
302.147054978075
 20
292.0498677532472
 40
3.369059892324118
100
AcDbArc
 50
45.42765697889936
 51
64.46589543232581
  0
ARC
  5
2A2
100
AcDbEntity
  8
Sichtbar (ISO)
  6
ByLayer
 62
  256
370
   -1
100
AcDbCircle
 10
302.147054978075
 20
292.0498677532472
 40
3.369059892324155
100
AcDbArc
 50
115.5341045676739
 51
134.5723430211001
  0
ARC
  5
2A3
100
AcDbEntity
  8
Sichtbar (ISO)
  6
ByLayer
 62
  256
370
   -1
100
AcDbCircle
 10
302.147054978075
 20
292.0498677532472
 40
3.199999999999968
100
AcDbArc
 50
228.5903778907252
 51
251.805127661216
  0
ARC
  5
2A4
100
AcDbEntity
  8
Sichtbar (ISO)
  6
ByLayer
 62
  256
370
   -1
100
AcDbCircle
 10
302.147054978075
 20
292.0498677532472
 40
3.200000000000008
100
AcDbArc
 50
288.1948723387846
 51
311.4096221092737
  0
ARC
  5
2A5
100
AcDbEntity
  8
Sichtbar (ISO)
  6
ByLayer
 62
  256
370
   -1
100
AcDbCircle
 10
302.147054978075
 20
292.0498677532472
 40
3.199999999999966
100
AcDbArc
 50
48.59037789073278
 51
71.80512766123044
  0
ARC
  5
2A6
100
AcDbEntity
  8
Sichtbar (ISO)
  6
ByLayer
 62
  256
370
   -1
100
AcDbCircle
 10
302.147054978075
 20
292.0498677532472
 40
3.2
100
AcDbArc
 50
108.1948723387693
 51
131.4096221092678
  0
LINE
  5
2A7
100
AcDbEntity
  8
Sichtbar (ISO)
  6
ByLayer
 62
  256
370
   -1
100
AcDbLine
 10
294.9470549780732
 20
295.0898677532473
 11
294.9470549780732
 21
296.4498677532473
  0
LINE
  5
2A8
100
AcDbEntity
  8
Sichtbar (ISO)
  6
ByLayer
 62
  256
370
   -1
100
AcDbLine
 10
297.7470549780731
 20
295.0898677532473
 11
294.9470549780732
 21
295.0898677532473
  0
LINE
  5
2A9
100
AcDbEntity
  8
Sichtbar (ISO)
  6
ByLayer
 62
  256
370
   -1
100
AcDbLine
 10
297.7470549780732
 20
295.0898677532473
 11
345.5870549780728
 21
295.0898677532472
  0
LINE
  5
2AA
100
AcDbEntity
  8
Sichtbar (ISO)
  6
ByLayer
 62
  256
370
   -1
100
AcDbLine
 10
348.3870549780728
 20
295.0898677532472
 11
345.5870549780728
 21
295.0898677532472
  0
LINE
  5
2AB
100
AcDbEntity
  8
Sichtbar (ISO)
  6
ByLayer
 62
  256
370
   -1
100
AcDbLine
 10
348.3870549780728
 20
295.0898677532472
 11
348.3870549780728
 21
296.4498677532472
  0
LINE
  5
2AC
100
AcDbEntity
  8
Sichtbar (ISO)
  6
ByLayer
 62
  256
370
   -1
100
AcDbLine
 10
294.9470549780733
 20
287.2498677532476
 11
294.9470549780733
 21
289.0098677532476
  0
LINE
  5
2AD
100
AcDbEntity
  8
Sichtbar (ISO)
  6
ByLayer
 62
  256
370
   -1
100
AcDbLine
 10
297.7470549780733
 20
289.0098677532476
 11
294.9470549780733
 21
289.0098677532476
  0
LINE
  5
2AE
100
AcDbEntity
  8
Sichtbar (ISO)
  6
ByLayer
 62
  256
370
   -1
100
AcDbLine
 10
297.7470549780733
 20
289.0098677532476
 11
345.5870549780736
 21
289.0098677532476
  0
LINE
  5
2AF
100
AcDbEntity
  8
Sichtbar (ISO)
  6
ByLayer
 62
  256
370
   -1
100
AcDbLine
 10
348.3870549780736
 20
289.0098677532476
 11
345.5870549780736
 21
289.0098677532476
  0
LINE
  5
2B0
100
AcDbEntity
  8
Sichtbar (ISO)
  6
ByLayer
 62
  256
370
   -1
100
AcDbLine
 10
348.3870549780736
 20
287.6498677532472
 11
348.3870549780736
 21
289.0098677532476
  0
LINE
  5
2B1
100
AcDbEntity
  8
Sichtbar (ISO)
  6
ByLayer
 62
  256
370
   -1
100
AcDbLine
 10
294.5470549780726
 20
289.6498677532474
 11
294.5470549780726
 21
294.4498677532474
  0
LINE
  5
2B2
100
AcDbEntity
  8
Sichtbar (ISO)
  6
ByLayer
 62
  256
370
   -1
100
AcDbLine
 10
294.5470549780726
 20
294.4498677532474
 11
329.5514048608424
 21
294.4498677532474
  0
LINE
  5
2B3
100
AcDbEntity
  8
Sichtbar (ISO)
  6
ByLayer
 62
  256
370
   -1
100
AcDbLine
 10
294.5470549780726
 20
289.6498677532474
 11
329.5514048608424
 21
289.6498677532474
  0
LINE
  5
2B4
100
AcDbEntity
  8
Sichtbar (ISO)
  6
ByLayer
 62
  256
370
   -1
100
AcDbLine
 10
329.5514048608424
 20
294.4498677532474
 11
330.5361870288203
 21
294.4498677532474
  0
LINE
  5
2B5
100
AcDbEntity
  8
Sichtbar (ISO)
  6
ByLayer
 62
  256
370
   -1
100
AcDbLine
 10
329.5514048608424
 20
289.6498677532474
 11
330.5361870288203
 21
289.6498677532474
  0
LINE
  5
2B6
100
AcDbEntity
  8
Sichtbar (ISO)
  6
ByLayer
 62
  256
370
   -1
100
AcDbLine
 10
338.547054978073
 20
294.4498677532474
 11
330.5361870288203
 21
294.4498677532474
  0
LINE
  5
2B7
100
AcDbEntity
  8
Sichtbar (ISO)
  6
ByLayer
 62
  256
370
   -1
100
AcDbLine
 10
338.5470549780729
 20
289.6498677532474
 11
330.5361870288203
 21
289.6498677532474
  0
LINE
  5
2B8
100
AcDbEntity
  8
Sichtbar (ISO)
  6
ByLayer
 62
  256
370
   -1
100
AcDbLine
 10
338.547054978073
 20
289.6498677532474
 11
338.547054978073
 21
294.4498677532474
  0
ARC
  5
2B9
100
AcDbEntity
  8
Sichtbar (ISO)
  6
ByLayer
 62
  256
370
   -1
100
AcDbCircle
 10
337.9070549780743
 20
294.6898677532472
 40
0.240000000000004
100
AcDbArc
 50
270
 51
0
  0
ARC
  5
2BA
100
AcDbEntity
  8
Sichtbar (ISO)
  6
ByLayer
 62
  256
370
   -1
100
AcDbCircle
 10
309.9870549780742
 20
294.6898677532472
 40
0.2400000000000023
100
AcDbArc
 50
180
 51
270
  0
LINE
  5
2BB
100
AcDbEntity
  8
Sichtbar (ISO)
  6
ByLayer
 62
  256
370
   -1
100
AcDbLine
 10
309.7470549780742
 20
295.0898677532472
 11
309.7470549780742
 21
294.6898677532472
  0
LINE
  5
2BC
100
AcDbEntity
  8
Sichtbar (ISO)
  6
ByLayer
 62
  256
370
   -1
100
AcDbLine
 10
338.1470549780742
 20
295.0898677532472
 11
338.1470549780742
 21
294.6898677532472
  0
LINE
  5
2BD
100
AcDbEntity
  8
Sichtbar (ISO)
  6
ByLayer
 62
  256
370
   -1
100
AcDbLine
 10
295.125590037235
 20
300.8498677532473
 11
349.3470549780716
 21
300.8498677532472
  0
ARC
  5
2BE
100
AcDbEntity
  8
Sichtbar (ISO)
  6
ByLayer
 62
  256
370
   -1
100
AcDbCircle
 10
302.1470549780716
 20
292.0498677532473
 40
11.25792920191791
100
AcDbArc
 50
128.5861474777963
 51
152.6557595345929
  0
LINE
  5
2BF
100
AcDbEntity
  8
Sichtbar (ISO)
  6
ByLayer
 62
  256
370
   -1
100
AcDbLine
 10
292.1470549780717
 20
296.4498677532473
 11
292.1470549780716
 21
297.2210349247278
  0
LINE
  5
2C0
100
AcDbEntity
  8
Sichtbar (ISO)
  6
ByLayer
 62
  256
370
   -1
100
AcDbLine
 10
349.3470549780716
 20
296.4498677532471
 11
292.1470549780716
 21
296.4498677532473
  0
LINE
  5
2C1
100
AcDbEntity
  8
Sichtbar (ISO)
  6
ByLayer
 62
  256
370
   -1
100
AcDbLine
 10
349.3470549780716
 20
300.8498677532472
 11
349.3470549780716
 21
296.4498677532471
  0
SPLINE
  5
2C2
100
AcDbEntity
  8
Sichtbar (ISO)
  6
ByLayer
 62
  256
370
   -1
100
AcDbSpline
210
0
220
0
230
0
 70
    8
 71
    3
 72
   18
 73
   14
 74
    0
 42
1e-007
 43
1e-007
 40
-0.0008444702507317
 40
-0.0008444702507317
 40
-0.0008444702507317
 40
-0.0008444702507317
 40
0
 40
0
 40
0.0778383598031728
 40
0.0778383598031728
 40
0.1588581576901741
 40
0.1588581576901741
 40
0.2066902268928183
 40
0.2066902268928183
 40
0.236947977466366
 40
0.236947977466366
 40
0.2616628870104464
 40
0.2616628870104464
 40
0.2616628870104464
 40
0.2616628870104464
 10
352.3687682032403
 20
265.13203536823
 30
0
 10
352.3702011327036
 20
265.1337725670818
 30
0
 10
352.3716339457626
 20
265.1355098687263
 30
0
 10
352.505123297866
 20
265.2973899151595
 30
0
 10
352.6388890017175
 20
265.4617772569782
 30
0
 10
352.8965218300712
 20
265.7824973574657
 30
0
 10
353.0131402669019
 20
265.929937636172
 30
0
 10
353.1614584441556
 20
266.1190223330252
 30
0
 10
353.2143882363237
 20
266.1869523310171
 30
0
 10
353.2824012142522
 20
266.2745965128487
 30
0
 10
353.3046963844181
 20
266.3034277139003
 30
0
 10
353.3313273695914
 20
266.3379039682567
 30
0
 10
353.3378441607526
 20
266.346356746303
 30
0
 10
353.3378441607526
 20
266.346356746303
 30
0
  0
LINE
  5
2C3
100
AcDbEntity
  8
Sichtbar (ISO)
  6
ByLayer
 62
  256
370
   -1
100
AcDbLine
 10
353.3378441607526
 20
266.346356746303
 11
353.6291489997193
 21
268.5300679169217
  0
LINE
  5
2C4
100
AcDbEntity
  8
Sichtbar (ISO)
  6
ByLayer
 62
  256
370
   -1
100
AcDbLine
 10
353.6291489997193
 20
268.5300679169217
 11
352.5962871132305
 21
266.8375874868793
  0
SPLINE
  5
2C5
100
AcDbEntity
  8
Sichtbar (ISO)
  6
ByLayer
 62
  256
370
   -1
100
AcDbSpline
210
0
220
0
230
0
 70
    8
 71
    3
 72
   18
 73
   14
 74
    0
 42
1e-007
 43
1e-007
 40
-0.0006202322734978
 40
-0.0006202322734978
 40
-0.0006202322734978
 40
-0.0006202322734978
 40
0
 40
0
 40
0.0438786516266022
 40
0.0438786516266022
 40
0.0859471245178286
 40
0.0859471245178286
 40
0.1291966790236158
 40
0.1291966790236158
 40
0.1615924974936979
 40
0.1615924974936979
 40
0.1899127448885523
 40
0.1899127448885523
 40
0.1899127448885523
 40
0.1899127448885523
 10
366.5316646689
 20
284.0498677532476
 30
0
 10
366.5305178590206
 20
284.0510595530342
 30
0
 10
366.5293709985462
 20
284.0522513067622
 30
0
 10
366.4470858874953
 20
284.1377503471942
 30
0
 10
366.3652482168554
 20
284.2222777736812
 30
0
 10
366.2098609101422
 20
284.3818517057526
 30
0
 10
366.135136220042
 20
284.4581413710324
 30
0
 10
365.9946059649852
 20
284.6009115997597
 30
0
 10
365.9281010168598
 20
284.6680758849228
 30
0
 10
365.8331919304458
 20
284.763586612626
 30
0
 10
365.7996135312386
 20
284.7972527332961
 30
0
 10
365.7575492362479
 20
284.8393803658018
 30
0
 10
365.7470549780734
 20
284.8498677532476
 30
0
 10
365.7470549780734
 20
284.8498677532476
 30
0
  0
ARC
  5
2C6
100
AcDbEntity
  8
Sichtbar (ISO)
  6
ByLayer
 62
  256
370
   -1
100
AcDbCircle
 10
345.7470549780734
 20
284.8498677532476
 40
20
100
AcDbArc
 50
292.3051586184525
 51
0
  0
LINE
  5
2C7
100
AcDbEntity
  8
Sichtbar (ISO)
  6
ByLayer
 62
  256
370
   -1
100
AcDbLine
 10
355.011644236134
 20
260.5344381916362
 11
353.4704564447285
 21
261.781849059899
  0
LINE
  5
2C8
100
AcDbEntity
  8
Sichtbar (ISO)
  6
ByLayer
 62
  256
370
   -1
100
AcDbLine
 10
355.011644236134
 20
260.5344381916362
 11
353.896940947885
 21
262.7017446120181
  0
SPLINE
  5
2C9
100
AcDbEntity
  8
Sichtbar (ISO)
  6
ByLayer
 62
  256
370
   -1
100
AcDbSpline
210
0
220
0
230
0
 70
    8
 71
    3
 72
   18
 73
   14
 74
    0
 42
1e-007
 43
1e-007
 40
0
 40
0
 40
0
 40
0
 40
0.0263416040920467
 40
0.0263416040920467
 40
0.0568912619715498
 40
0.0568912619715498
 40
0.0992088144624922
 40
0.0992088144624922
 40
0.1471301647179941
 40
0.1471301647179941
 40
0.1986269717679979
 40
0.1986269717679979
 40
0.1993093576247007
 40
0.1993093576247007
 40
0.1993093576247007
 40
0.1993093576247007
 10
353.896940947885
 20
262.7017446120181
 30
0
 10
353.896940947885
 20
262.7017446120181
 30
0
 10
353.8839407319385
 20
262.7068064312681
 30
0
 10
353.8315771301018
 20
262.7272498438506
 30
0
 10
353.7893793979289
 20
262.7437474053579
 30
0
 10
353.6679499022215
 20
262.7914456561766
 30
0
 10
353.5809636708927
 20
262.8257746007866
 30
0
 10
353.3831724806077
 20
262.9044575154395
 30
0
 10
353.2683134165456
 20
262.9504996343184
 30
0
 10
353.0267599283093
 20
263.0482472108579
 30
0
 10
352.8969936310511
 20
263.101258288985
 30
0
 10
352.76692207487
 20
263.154934197202
 30
0
 10
352.7652210554915
 20
263.1556362392528
 30
0
 10
352.7635200712939
 20
263.1563383586189
 30
0
  0
ARC
  5
2CA
100
AcDbEntity
  8
Sichtbar (ISO)
  6
ByLayer
 62
  256
370
   -1
100
AcDbCircle
 10
345.7470549780734
 20
284.8498677532476
 40
23.59999999999999
100
AcDbArc
 50
290.2021949311258
 51
0
  0
SPLINE
  5
2CB
100
AcDbEntity
  8
Sichtbar (ISO)
  6
ByLayer
 62
  256
370
   -1
100
AcDbSpline
210
0
220
0
230
0
 70
    8
 71
    3
 72
   18
 73
   14
 74
    0
 42
1e-007
 43
1e-007
 40
0
 40
0
 40
0
 40
0
 40
0.0280611086154845
 40
0.0280611086154845
 40
0.060080796290623
 40
0.060080796290623
 40
0.1027430620750846
 40
0.1027430620750846
 40
0.1454295737990318
 40
0.1454295737990318
 40
0.1905436517843627
 40
0.1905436517843627
 40
0.1911808698519868
 40
0.1911808698519868
 40
0.1911808698519868
 40
0.1911808698519868
 10
369.3470549780734
 20
284.8498677532476
 30
0
 10
369.3470549780734
 20
284.8498677532476
 30
0
 10
369.3365692900768
 20
284.8393761965417
 30
0
 10
369.2944520592572
 20
284.7973127844079
 30
0
 10
369.2608560967034
 20
284.7637909108787
 30
0
 10
369.1655421375596
 20
284.6689901304903
 30
0
 10
369.0986506277865
 20
284.6026606900982
 30
0
 10
368.9544879427815
 20
284.4604555951768
 30
0
 10
368.8762713736295
 20
284.383644367071
 30
0
 10
368.7117873788592
 20
284.2229989249928
 30
0
 10
368.6240981046675
 20
284.1378225624079
 30
0
 10
368.5354841341395
 20
284.0522512676075
 30
0
 10
368.534249874381
 20
284.0510594845779
 30
0
 10
368.5330155678752
 20
284.0498677532476
 30
0
  0
LINE
  5
2CC
100
AcDbEntity
  8
Sichtbar (ISO)
  6
ByLayer
 62
  256
370
   -1
100
AcDbLine
 10
369.3470549780734
 20
284.8498677532476
 11
365.7470549780734
 21
284.8498677532476
  0
LINE
  5
2CD
100
AcDbEntity
  8
Sichtbar (ISO)
  6
ByLayer
 62
  256
370
   -1
100
AcDbLine
 10
345.7470549780734
 20
263.0498677532476
 11
347.6123387565068
 21
263.3723871828418
  0
LINE
  5
2CE
100
AcDbEntity
  8
Sichtbar (ISO)
  6
ByLayer
 62
  256
370
   -1
100
AcDbLine
 10
345.7470549780734
 20
263.0498677532476
 11
355.011644236134
 21
260.5344381916362
  0
LINE
  5
2CF
100
AcDbEntity
  8
Sichtbar (ISO)
  6
ByLayer
 62
  256
370
   -1
100
AcDbLine
 10
353.6291489997193
 20
268.5300679169217
 11
345.7470549780734
 21
263.0498677532476
  0
ARC
  5
2D0
100
AcDbEntity
  8
Sichtbar (ISO)
  6
ByLayer
 62
  256
370
   -1
100
AcDbCircle
 10
345.7470549780734
 20
299.2498677532476
 40
19.99999999999999
100
AcDbArc
 50
0
 51
67.69484138154748
  0
LINE
  5
2D1
100
AcDbEntity
  8
Sichtbar (ISO)
  6
ByLayer
 62
  256
370
   -1
100
AcDbLine
 10
365.7470549780734
 20
299.2498677532476
 11
369.3470549780734
 21
299.2498677532476
  0
ARC
  5
2D2
100
AcDbEntity
  8
Sichtbar (ISO)
  6
ByLayer
 62
  256
370
   -1
100
AcDbCircle
 10
345.7470549780734
 20
299.2498677532476
 40
23.59999999999999
100
AcDbArc
 50
0
 51
69.79780506887407
  0
LINE
  5
2D3
100
AcDbEntity
  8
Sichtbar (ISO)
  6
ByLayer
 62
  256
370
   -1
100
AcDbLine
 10
353.896940947885
 20
321.3979908944771
 11
355.011644236134
 21
323.565297314859
  0
LINE
  5
2D4
100
AcDbEntity
  8
Sichtbar (ISO)
  6
ByLayer
 62
  256
370
   -1
100
AcDbLine
 10
353.6291489997193
 20
315.5696675895735
 11
352.5962871132305
 21
317.2621480196158
  0
LINE
  5
2D5
100
AcDbEntity
  8
Sichtbar (ISO)
  6
ByLayer
 62
  256
370
   -1
100
AcDbLine
 10
353.6291489997193
 20
315.5696675895735
 11
353.3378441607526
 21
317.7533787601922
  0
SPLINE
  5
2D6
100
AcDbEntity
  8
Sichtbar (ISO)
  6
ByLayer
 62
  256
370
   -1
100
AcDbSpline
210
0
220
0
230
0
 70
    8
 71
    3
 72
   18
 73
   14
 74
    0
 42
1e-007
 43
1e-007
 40
0
 40
0
 40
0
 40
0
 40
0.02002717699594
 40
0.02002717699594
 40
0.044545871881488
 40
0.044545871881488
 40
0.0833055248065748
 40
0.0833055248065748
 40
0.148958115181627
 40
0.148958115181627
 40
0.2120326979996595
 40
0.2120326979996595
 40
0.2127169956761196
 40
0.2127169956761196
 40
0.2127169956761196
 40
0.2127169956761196
 10
353.3378441607526
 20
317.7533787601922
 30
0
 10
353.3378441607526
 20
317.7533787601922
 30
0
 10
353.3313273695914
 20
317.7618315382384
 30
0
 10
353.3046963844181
 20
317.7963077925948
 30
0
 10
353.2824012142522
 20
317.8251389936465
 30
0
 10
353.2143882363237
 20
317.9127831754781
 30
0
 10
353.1614584441556
 20
317.98071317347
 30
0
 10
353.0131402669023
 20
318.1697978703228
 30
0
 10
352.8965218300717
 20
318.3172381490289
 30
0
 10
352.6388890017146
 20
318.6379582495205
 30
0
 10
352.5051232978481
 20
318.802345591359
 30
0
 10
352.3716339457631
 20
318.9642256377682
 30
0
 10
352.370201132703
 20
318.965962939414
 30
0
 10
352.3687682032403
 20
318.9677001382652
 30
0
  0
LINE
  5
2D7
100
AcDbEntity
  8
Sichtbar (ISO)
  6
ByLayer
 62
  256
370
   -1
100
AcDbLine
 10
345.7470549780734
 20
321.0498677532476
 11
347.6123387565068
 21
320.7273483236534
  0
LINE
  5
2D8
100
AcDbEntity
  8
Sichtbar (ISO)
  6
ByLayer
 62
  256
370
   -1
100
AcDbLine
 10
345.7470549780734
 20
321.0498677532476
 11
353.6291489997193
 21
315.5696675895735
  0
LINE
  5
2D9
100
AcDbEntity
  8
Sichtbar (ISO)
  6
ByLayer
 62
  256
370
   -1
100
AcDbLine
 10
355.011644236134
 20
323.565297314859
 11
353.4704564447285
 21
322.3178864465961
  0
LINE
  5
2DA
100
AcDbEntity
  8
Sichtbar (ISO)
  6
ByLayer
 62
  256
370
   -1
100
AcDbLine
 10
355.011644236134
 20
323.565297314859
 11
345.7470549780734
 21
321.0498677532476
  0
SPLINE
  5
2DB
100
AcDbEntity
  8
Sichtbar (ISO)
  6
ByLayer
 62
  256
370
   -1
100
AcDbSpline
210
0
220
0
230
0
 70
    8
 71
    3
 72
   18
 73
   14
 74
    0
 42
1e-007
 43
1e-007
 40
-0.0006900732479622
 40
-0.0006900732479622
 40
-0.0006900732479622
 40
-0.0006900732479622
 40
0
 40
0
 40
0.052076942320704
 40
0.052076942320704
 40
0.1005381486776573
 40
0.1005381486776573
 40
0.1433324279049918
 40
0.1433324279049918
 40
0.1742262417633141
 40
0.1742262417633141
 40
0.2008645961684354
 40
0.2008645961684354
 40
0.2008645961684354
 40
0.2008645961684354
 10
352.763520071294
 20
320.9433971478762
 30
0
 10
352.7652210554915
 20
320.9440992672423
 30
0
 10
352.7669220748701
 20
320.9448013092931
 30
0
 10
352.8969936310474
 20
320.9984772175089
 30
0
 10
353.0267599283088
 20
321.051488295637
 30
0
 10
353.2683134165456
 20
321.1492358721768
 30
0
 10
353.3831724806077
 20
321.1952779910557
 30
0
 10
353.5809636708927
 20
321.2739609057086
 30
0
 10
353.6679499022215
 20
321.3082898503186
 30
0
 10
353.7893793979289
 20
321.3559881011371
 30
0
 10
353.8315771301018
 20
321.3724856626445
 30
0
 10
353.8839407319386
 20
321.392929075227
 30
0
 10
353.896940947885
 20
321.3979908944771
 30
0
 10
353.896940947885
 20
321.3979908944771
 30
0
  0
SPLINE
  5
2DC
100
AcDbEntity
  8
Sichtbar (ISO)
  6
ByLayer
 62
  256
370
   -1
100
AcDbSpline
210
0
220
0
230
0
 70
    8
 71
    3
 72
   18
 73
   14
 74
    0
 42
1e-007
 43
1e-007
 40
-0.0006433994800897
 40
-0.0006433994800897
 40
-0.0006433994800897
 40
-0.0006433994800897
 40
0
 40
0
 40
0.045551712664149
 40
0.045551712664149
 40
0.08865231016050409
 40
0.08865231016050409
 40
0.1317284265166483
 40
0.1317284265166483
 40
0.1640587251217467
 40
0.1640587251217467
 40
0.192392043982726
 40
0.192392043982726
 40
0.192392043982726
 40
0.192392043982726
 10
368.5330155678752
 20
300.0498677532476
 30
0
 10
368.5342498743809
 20
300.0486760219173
 30
0
 10
368.5354841341396
 20
300.0474842388875
 30
0
 10
368.624098104663
 20
299.9619129440926
 30
0
 10
368.7117873788584
 20
299.8767365815031
 30
0
 10
368.8762713736295
 20
299.7160911394242
 30
0
 10
368.9544879427815
 20
299.6392799113184
 30
0
 10
369.0986506277865
 20
299.4970748163969
 30
0
 10
369.1655421375596
 20
299.4307453760048
 30
0
 10
369.2608560967033
 20
299.3359445956164
 30
0
 10
369.2944520592572
 20
299.3024227220872
 30
0
 10
369.3365692900768
 20
299.2603593099535
 30
0
 10
369.3470549780734
 20
299.2498677532476
 30
0
 10
369.3470549780734
 20
299.2498677532476
 30
0
  0
SPLINE
  5
2DD
100
AcDbEntity
  8
Sichtbar (ISO)
  6
ByLayer
 62
  256
370
   -1
100
AcDbSpline
210
0
220
0
230
0
 70
    8
 71
    3
 72
   18
 73
   14
 74
    0
 42
1e-007
 43
1e-007
 40
-0.1888024440799916
 40
-0.1888024440799916
 40
-0.1888024440799916
 40
-0.1888024440799916
 40
-0.1881878451224395
 40
-0.1881878451224395
 40
-0.1447077253374638
 40
-0.1447077253374638
 40
-0.1030213431747049
 40
-0.1030213431747049
 40
-0.0601646066784886
 40
-0.0601646066784886
 40
-0.0280630261739818
 40
-0.0280630261739818
 40
0
 40
0
 40
0
 40
0
 10
366.5316646689
 20
300.0498677532476
 30
0
 10
366.5305178590204
 20
300.0486759534608
 30
0
 10
366.5293709985464
 20
300.0474841997331
 30
0
 10
366.4470858874921
 20
299.9619851592982
 30
0
 10
366.365248216855
 20
299.8774577328134
 30
0
 10
366.2098609101422
 20
299.7178838007425
 30
0
 10
366.135136220042
 20
299.6415941354627
 30
0
 10
365.9946059649852
 20
299.4988239067354
 30
0
 10
365.9281010168598
 20
299.4316596215723
 30
0
 10
365.8331919304458
 20
299.3361488938692
 30
0
 10
365.7996135312386
 20
299.3024827731991
 30
0
 10
365.7575492362479
 20
299.2603551406933
 30
0
 10
365.7470549780734
 20
299.2498677532476
 30
0
 10
365.7470549780734
 20
299.2498677532476
 30
0
  0
LINE
  5
2DE
100
AcDbEntity
  8
Sichtbar (ISO)
  6
ByLayer
 62
  256
370
   -1
100
AcDbLine
 10
395.8561844018569
 20
84.46558408674083
 11
396.4161844018569
 21
84.46558408674083
  0
LINE
  5
2DF
100
AcDbEntity
  8
Sichtbar (ISO)
  6
ByLayer
 62
  256
370
   -1
100
AcDbLine
 10
396.4161844018569
 20
84.46558408674083
 11
396.4161844018568
 21
100.5049780725051
  0
ARC
  5
2E0
100
AcDbEntity
  8
Sichtbar (ISO)
  6
ByLayer
 62
  256
370
   -1
100
AcDbCircle
 10
395.856184401857
 20
104.4655840867408
 40
4
100
AcDbArc
 50
269.9999999999964
 51
278.0478462473078
  0
LINE
  5
2E1
100
AcDbEntity
  8
Sichtbar (ISO)
  6
ByLayer
 62
  256
370
   -1
100
AcDbLine
 10
395.8561844018568
 20
100.4655840867408
 11
395.8561844018569
 21
84.46558408674083
  0
LINE
  5
2E2
100
AcDbEntity
  8
Sichtbar (ISO)
  6
ByLayer
 62
  256
370
   -1
100
AcDbLine
 10
396.4161844018569
 20
172.4655840867408
 11
395.8561844018569
 21
172.4655840867408
  0
LINE
  5
2E3
100
AcDbEntity
  8
Sichtbar (ISO)
  6
ByLayer
 62
  256
370
   -1
100
AcDbLine
 10
395.8561844018569
 20
172.4655840867408
 11
395.8561844018568
 21
156.4655840867408
  0
ARC
  5
2E4
100
AcDbEntity
  8
Sichtbar (ISO)
  6
ByLayer
 62
  256
370
   -1
100
AcDbCircle
 10
395.856184401857
 20
152.4655840867408
 40
4
100
AcDbArc
 50
81.9521537526909
 51
90.00000000000244
  0
LINE
  5
2E5
100
AcDbEntity
  8
Sichtbar (ISO)
  6
ByLayer
 62
  256
370
   -1
100
AcDbLine
 10
396.4161844018568
 20
156.4261901009765
 11
396.4161844018569
 21
172.4655840867408
  0
LINE
  5
2E6
100
AcDbEntity
  8
Sichtbar (ISO)
  6
ByLayer
 62
  256
370
   -1
100
AcDbLine
 10
475.8561844018569
 20
84.46558408674082
 11
396.4161844018569
 21
84.46558408674083
  0
ARC
  5
2E7
100
AcDbEntity
  8
Sichtbar (ISO)
  6
ByLayer
 62
  256
370
   -1
100
AcDbCircle
 10
395.856184401857
 20
152.4655840867408
 40
4
100
AcDbArc
 50
0
 51
81.9521537526897
  0
LINE
  5
2E8
100
AcDbEntity
  8
Sichtbar (ISO)
  6
ByLayer
 62
  256
370
   -1
100
AcDbLine
 10
435.660186003138
 20
146.8655840867408
 11
399.8561844018569
 21
146.8655840867408
  0
LINE
  5
2E9
100
AcDbEntity
  8
Sichtbar (ISO)
  6
ByLayer
 62
  256
370
   -1
100
AcDbLine
 10
399.8561844018569
 20
146.8655840867408
 11
399.8561844018569
 21
152.4655840867408
  0
LINE
  5
2EA
100
AcDbEntity
  8
Sichtbar (ISO)
  6
ByLayer
 62
  256
370
   -1
100
AcDbLine
 10
396.4161844018569
 20
172.4655840867408
 11
475.8561844018569
 21
172.4655840867408
  0
LINE
  5
2EB
100
AcDbEntity
  8
Sichtbar (ISO)
  6
ByLayer
 62
  256
370
   -1
100
AcDbLine
 10
475.8561844018569
 20
172.4655840867408
 11
475.8561844018569
 21
84.46558408674082
  0
ARC
  5
2EC
100
AcDbEntity
  8
Sichtbar (ISO)
  6
ByLayer
 62
  256
370
   -1
100
AcDbCircle
 10
395.8561844018569
 20
104.4655840867408
 40
4.00000000000001
100
AcDbArc
 50
278.0478462473078
 51
0
  0
LINE
  5
2ED
100
AcDbEntity
  8
Sichtbar (ISO)
  6
ByLayer
 62
  256
370
   -1
100
AcDbLine
 10
399.8561844018569
 20
104.4655840867408
 11
399.8561844018569
 21
110.0655840867408
  0
LINE
  5
2EE
100
AcDbEntity
  8
Sichtbar (ISO)
  6
ByLayer
 62
  256
370
   -1
100
AcDbLine
 10
399.8561844018569
 20
110.0655840867408
 11
435.660186003138
 21
110.0655840867408
  0
ARC
  5
2EF
100
AcDbEntity
  8
Sichtbar (ISO)
  6
ByLayer
 62
  256
370
   -1
100
AcDbCircle
 10
440.6561844018567
 20
114.0655840867408
 40
6.399999999999998
100
AcDbArc
 50
218.6821874534898
 51
0
  0
LINE
  5
2F0
100
AcDbEntity
  8
Sichtbar (ISO)
  6
ByLayer
 62
  256
370
   -1
100
AcDbLine
 10
447.0561844018567
 20
114.0655840867408
 11
447.0561844018567
 21
142.8655840867408
  0
ARC
  5
2F1
100
AcDbEntity
  8
Sichtbar (ISO)
  6
ByLayer
 62
  256
370
   -1
100
AcDbCircle
 10
440.6561844018567
 20
142.8655840867408
 40
6.39999999999999
100
AcDbArc
 50
0
 51
141.3178125465103
  0
LINE
  5
2F2
100
AcDbEntity
  8
Mittelpunktmarkierung (ISO)
  6
CONTINUOUS
 62
  256
370
   -1
100
AcDbLine
 10
448.8561844018568
 20
142.8655840867408
 11
440.0561844018568
 21
142.8655840867408
  0
LINE
  5
2F3
100
AcDbEntity
  8
Mittelpunktmarkierung (ISO)
  6
CONTINUOUS
 62
  256
370
   -1
100
AcDbLine
 10
440.6561844018567
 20
151.0655840867408
 11
440.6561844018567
 21
142.2655840867408
  0
LINE
  5
2F4
100
AcDbEntity
  8
Mittelpunktmarkierung (ISO)
  6
CONTINUOUS
 62
  256
370
   -1
100
AcDbLine
 10
448.8561844018568
 20
114.0655840867408
 11
440.0561844018568
 21
114.0655840867408
  0
LINE
  5
2F5
100
AcDbEntity
  8
Mittelpunktmarkierung (ISO)
  6
CONTINUOUS
 62
  256
370
   -1
100
AcDbLine
 10
440.6561844018567
 20
114.6655840867408
 11
440.6561844018567
 21
105.8655840867408
  0
LINE
  5
2F6
100
AcDbEntity
  8
Mittellinie (ISO)
  6
CONTINUOUS
 62
  256
370
   -1
100
AcDbLine
 10
436.260186003138
 20
128.4655840867408
 11
399.2561844018569
 21
128.4655840867408
  0
DIMENSION
  5
2F7
100
AcDbEntity
  8
Bemaßung (ISO)
  6
ByLayer
 62
  256
370
   -1
100
AcDbDimension
  2
*D1
 10
440.6561844018567
 20
142.8655840867408
 30
0
 11
450.0537589352425
 21
155.7869813840629
 31
0
 70
   36
  1
<>
 71
    5
 72
    0
  3
Standard (DIN)
 53
0
210
0
220
0
230
1
100
AcDbRadialDimension
 15
445.1816678014513
 25
147.3910674863342
 35
0
 40
0
  0
DIMENSION
  5
2F8
100
AcDbEntity
  8
Bemaßung (ISO)
  6
ByLayer
 62
  256
370
   -1
100
AcDbDimension
  2
*D2
 10
387.856184401857
 20
110.0655840867408
 30
0
 11
387.8561844018569
 21
128.4415840867408
 31
0
 70
   32
  1
<>
 71
    5
 72
    0
  3
Standard (DIN)
 53
0
210
0
220
0
230
1
100
AcDbAlignedDimension
 13
396.4161844018568
 23
146.8655840867408
 33
0
 14
399.8561844018569
 24
110.0655840867408
 34
0
 50
270
100
AcDbRotatedDimension
  0
DIMENSION
  5
2F9
100
AcDbEntity
  8
Bemaßung (ISO)
  6
ByLayer
 62
  256
370
   -1
100
AcDbDimension
  2
*D3
 10
430.2090379038608
 20
114.0655840867409
 30
0
 11
430.2090379038607
 21
128.4655840867408
 31
0
 70
   32
  1
<>
 71
    5
 72
    0
  3
Standard (DIN)
 53
0
210
0
220
0
230
1
100
AcDbAlignedDimension
 13
440.6561844018567
 23
142.8655840867408
 33
0
 14
440.6561844018567
 24
114.0655840867408
 34
0
 50
90
100
AcDbRotatedDimension
  0
DIMENSION
  5
2FA
100
AcDbEntity
  8
Bemaßung (ISO)
  6
ByLayer
 62
  256
370
   -1
100
AcDbDimension
  2
*D4
 10
378.2561844018569
 20
152.4655840867409
 30
0
 11
378.2561844018569
 21
128.4535840867408
 31
0
 70
   32
  1
<>
 71
    5
 72
    0
  3
Standard (DIN)
 53
0
210
0
220
0
230
1
100
AcDbAlignedDimension
 13
395.8561844018569
 23
104.4655840867408
 33
0
 14
395.8561844018569
 24
152.4655840867408
 34
0
 50
90
100
AcDbRotatedDimension
  0
DIMENSION
  5
2FB
100
AcDbEntity
  8
Bemaßung (ISO)
  6
ByLayer
 62
  256
370
   -1
100
AcDbDimension
  2
*D5
 10
383.7470483643489
 20
295.2498677532477
 30
0
 11
383.7470483643489
 21
298.0498677532474
 31
0
 70
   32
  1
<>
 71
    5
 72
    0
  3
Standard (DIN)
 53
0
210
0
220
0
230
1
100
AcDbAlignedDimension
 13
349.3470549780716
 23
300.8498677532472
 33
0
 14
369.3470549780734
 24
295.2498677532476
 34
0
 50
90
100
AcDbRotatedDimension
  0
DIMENSION
  5
2FC
100
AcDbEntity
  8
Bemaßung (ISO)
  6
ByLayer
 62
  256
370
   -1
100
AcDbDimension
  2
*D6
 10
393.3470483643489
 20
283.2498677532481
 30
0
 11
393.3470483643489
 21
286.0498677532478
 31
0
 70
   32
  1
<>
 71
    5
 72
    0
  3
Standard (DIN)
 53
0
210
0
220
0
230
1
100
AcDbAlignedDimension
 13
369.3470549780734
 23
288.8498677532476
 33
0
 14
349.3470549780716
 24
283.249867753248
 34
0
 50
90
100
AcDbRotatedDimension
  0
DIMENSION
  5
2FD
100
AcDbEntity
  8
Bemaßung (ISO)
  6
ByLayer
 62
  256
370
   -1
100
AcDbDimension
  2
*D7
 10
200.5470483643489
 20
283.2498677532474
 30
0
 11
200.5470483643489
 21
285.9698677532473
 31
0
 70
   32
  1
<>
 71
    5
 72
    0
  3
Standard (DIN)
 53
0
210
0
220
0
230
1
100
AcDbAlignedDimension
 13
214.9470549780728
 23
288.6898677532473
 33
0
 14
222.9470549780752
 24
283.2498677532472
 34
0
 50
90
100
AcDbRotatedDimension
  0
DIMENSION
  5
2FE
100
AcDbEntity
  8
Bemaßung (ISO)
  6
ByLayer
 62
  256
370
   -1
100
AcDbDimension
  2
*D8
 10
286.9470549780727
 20
312.3861741942854
 30
0
 11
288.1470549780731
 21
312.3861741942854
 31
0
 70
   32
  1
<>
 71
    5
 72
    0
  3
Standard (DIN)
 53
0
210
0
220
0
230
1
100
AcDbAlignedDimension
 13
289.3470549780734
 23
294.6898677532477
 33
0
 14
286.9470549780727
 24
304.6898677532472
 34
0
 50
180
100
AcDbRotatedDimension
  0
DIMENSION
  5
2FF
100
AcDbEntity
  8
Bemaßung (ISO)
  6
ByLayer
 62
  256
370
   -1
100
AcDbDimension
  2
*D9
 10
349.3470549780716
 20
268.9254641440477
 30
0
 11
318.1470549780722
 21
268.9254641440477
 31
0
 70
   32
  1
<>
 71
    5
 72
    0
  3
Standard (DIN)
 53
0
210
0
220
0
230
1
100
AcDbAlignedDimension
 13
286.9470549780727
 23
288.6898677532472
 33
0
 14
349.3470549780716
 24
283.249867753248
 34
0
 50
180
100
AcDbRotatedDimension
  0
DIMENSION
  5
300
100
AcDbEntity
  8
Bemaßung (ISO)
  6
ByLayer
 62
  256
370
   -1
100
AcDbDimension
  2
*D10
 10
222.8995808172935
 20
268.9254641440477
 30
0
 11
254.9233178976831
 21
268.9254641440477
 31
0
 70
   32
  1
<>
 71
    5
 72
    0
  3
Standard (DIN)
 53
0
210
0
220
0
230
1
100
AcDbAlignedDimension
 13
286.9470549780727
 23
288.6898677532472
 33
0
 14
222.8995808172935
 24
288.6898677532473
 34
0
 50
180
100
AcDbRotatedDimension
  0
LINE
  5
301
100
AcDbEntity
  8
Mittelpunktmarkierung (ISO)
  6
CONTINUOUS
 62
  256
370
   -1
100
AcDbLine
 10
401.6561844018569
 20
152.4655840867408
 11
395.2561844018569
 21
152.4655840867408
  0
LINE
  5
302
100
AcDbEntity
  8
Mittelpunktmarkierung (ISO)
  6
CONTINUOUS
 62
  256
370
   -1
100
AcDbLine
 10
395.8561844018569
 20
153.0655840867408
 11
395.8561844018569
 21
151.8655840867408
  0
LINE
  5
303
100
AcDbEntity
  8
Mittelpunktmarkierung (ISO)
  6
CONTINUOUS
 62
  256
370
   -1
100
AcDbLine
 10
401.6561844018569
 20
104.4655840867408
 11
395.2561844018569
 21
104.4655840867408
  0
LINE
  5
304
100
AcDbEntity
  8
Mittelpunktmarkierung (ISO)
  6
CONTINUOUS
 62
  256
370
   -1
100
AcDbLine
 10
395.8561844018569
 20
105.0655840867408
 11
395.8561844018569
 21
103.8655840867408
  0
DIMENSION
  5
305
100
AcDbEntity
  8
Bemaßung (ISO)
  6
ByLayer
 62
  256
370
   -1
100
AcDbDimension
  2
*D11
 10
395.8561844018568
 20
152.4655840867408
 30
0
 11
403.5668317480423
 21
163.6913721217364
 31
0
 70
   36
  1
<>
 71
    5
 72
    0
  3
Standard (DIN)
 53
0
210
0
220
0
230
1
100
AcDbRadialDimension
 15
398.6846115266033
 25
155.2940112114866
 35
0
 40
0
  0
DIMENSION
  5
306
100
AcDbEntity
  8
Bemaßung (ISO)
  6
ByLayer
 62
  256
370
   -1
100
AcDbDimension
  2
*D12
 10
368.6561844018569
 20
100.4655840867409
 30
0
 11
368.6561844018569
 21
128.4535840867408
 31
0
 70
   32
  1
(<>)
 71
    5
 72
    0
  3
Standard (DIN)
 53
0
210
0
220
0
230
1
100
AcDbAlignedDimension
 13
395.8561844018567
 23
156.4655840867408
 33
0
 14
395.8561844018568
 24
100.4655840867408
 34
0
 50
90
100
AcDbRotatedDimension
  0
DIMENSION
  5
307
100
AcDbEntity
  8
Bemaßung (ISO)
  6
ByLayer
 62
  256
370
   -1
100
AcDbDimension
  2
*D13
 10
440.6561844018567
 20
67.89086107308889
 30
0
 11
418.256184401857
 21
67.89086107308889
 31
0
 70
   32
  1
<>
 71
    5
 72
    0
  3
Standard (DIN)
 53
0
210
0
220
0
230
1
100
AcDbAlignedDimension
 13
395.8561844018569
 23
84.46558408674083
 33
0
 14
440.6561844018567
 24
105.8655840867408
 34
0
 50
180
100
AcDbRotatedDimension
  0
LINE
  5
308
100
AcDbEntity
  8
Mittelpunktmarkierung (ISO)
  6
CONTINUOUS
 62
  256
370
   -1
100
AcDbLine
 10
309.9470549780754
 20
292.0498677532472
 11
294.3470549780755
 21
292.0498677532472
  0
LINE
  5
309
100
AcDbEntity
  8
Mittelpunktmarkierung (ISO)
  6
CONTINUOUS
 62
  256
370
   -1
100
AcDbLine
 10
302.1470549780754
 20
299.8498677532472
 11
302.1470549780754
 21
284.2498677532473
  0
DIMENSION
  5
30A
100
AcDbEntity
  8
Bemaßung (ISO)
  6
ByLayer
 62
  256
370
   -1
100
AcDbDimension
  2
*D14
 10
302.1470549780754
 20
275.1079353196754
 30
0
 11
294.5470549780741
 21
275.1079353196754
 31
0
 70
   32
  1
<>
 71
    5
 72
    0
  3
Standard (DIN)
 53
0
210
0
220
0
230
1
100
AcDbAlignedDimension
 13
286.9470549780727
 23
288.6898677532472
 33
0
 14
302.1470549780754
 24
284.2498677532473
 34
0
 50
180
100
AcDbRotatedDimension
  0
DIMENSION
  5
30B
100
AcDbEntity
  8
Bemaßung (ISO)
  6
ByLayer
 62
  256
370
   -1
100
AcDbDimension
  2
*D15
 10
412.9587934732384
 20
283.2498677532481
 30
0
 11
412.9587934732383
 21
292.0498677532473
 31
0
 70
   32
  1
<>
 71
    5
 72
    0
  3
Standard (DIN)
 53
0
210
0
220
0
230
1
100
AcDbAlignedDimension
 13
349.3470549780716
 23
300.8498677532472
 33
0
 14
349.3470549780716
 24
283.249867753248
 34
0
 50
270
100
AcDbRotatedDimension
  0
LINE
  5
30C
100
AcDbEntity
  8
Sichtbar (ISO)
  6
ByLayer
 62
  256
370
   -1
100
AcDbLine
 10
135.3843509102661
 20
143.2289601887023
 11
96.77484687841712
 21
165.5230878118969
  0
LINE
  5
30D
100
AcDbEntity
  8
Sichtbar (ISO)
  6
ByLayer
 62
  256
370
   -1
100
AcDbLine
 10
131.4952636137403
 20
140.8685311919767
 11
83.56980668182624
 21
168.6562901289561
  0
LINE
  5
30E
100
AcDbEntity
  8
Sichtbar (ISO)
  6
ByLayer
 62
  256
370
   -1
100
AcDbLine
 10
135.3843509102661
 20
143.2289601887023
 11
131.4952636137403
 21
140.8685311919767
  0
LINE
  5
30F
100
AcDbEntity
  8
Sichtbar (ISO)
  6
ByLayer
 62
  256
370
   -1
100
AcDbLine
 10
131.4952636137403
 20
140.8685311919767
 11
131.495263613741
 21
88.73073348890561
  0
LINE
  5
310
100
AcDbEntity
  8
Sichtbar (ISO)
  6
ByLayer
 62
  256
370
   -1
100
AcDbLine
 10
135.3843509102666
 20
90.97609908645668
 11
135.3843509102661
 21
143.2289601887023
  0
ENDSEC
  0
SECTION
  2
OBJECTS
  0
DICTIONARY
  5
C
330
0
100
AcDbDictionary
281
    1
  3
ACAD_GROUP
350
D
  0
DICTIONARY
  5
D
330
C
100
AcDbDictionary
281
    1
  0
ENDSEC
  0
EOF
